osu file format v13

[General]
AudioFilename: Blazing.mp3
AudioLeadIn: 0
PreviewTime: 54315
Countdown: 0
SampleSet: Soft
StackLeniency: 0.7
Mode: 0
LetterboxInBreaks: 1
WidescreenStoryboard: 0

[Editor]
DistanceSpacing: 0.8
BeatDivisor: 4
GridSize: 4
TimelineZoom: 1

[Metadata]
Title:Blazing
TitleUnicode:Blazing
Artist:GARNiDELiA
ArtistUnicode:GARNiDELiA
Creator:MorriSummer
Version:Insane
Source:Gundam G Reconguista
Tags:Gundam G Reconguista
BeatmapID:533403
BeatmapSetID:229206

[Difficulty]
HPDrainRate:6.8
CircleSize:3.8
OverallDifficulty:8
ApproachRate:8
SliderMultiplier:1.8
SliderTickRate:1

[Events]
//Background and Video events
Video,0,"G reco Opening.avi"
0,0,"Gundam Reco.jpg",0,0
//Break Periods
//Storyboard Layer 0 (Background)
//Storyboard Layer 1 (Fail)
//Storyboard Layer 2 (Pass)
//Storyboard Layer 3 (Foreground)
//Storyboard Sound Samples

[TimingPoints]
9947,315.789473684211,4,2,0,75,1,0
18473,-200,4,2,0,75,0,0
20052,-133.333333333333,4,2,0,75,0,0
29841,-100,4,2,0,75,0,0
50368,-83.3333333333333,4,2,0,75,0,0
50468,-83.3333333333333,4,2,0,75,0,0
55420,-83.3333333333333,4,3,0,95,0,1
56525,-83.3333333333333,4,1,0,95,0,1
56841,-83.3333333333333,4,3,0,95,0,1
59052,-83.3333333333333,4,1,0,95,0,1
59368,-83.3333333333333,4,3,0,95,0,1
61578,-83.3333333333333,4,1,0,95,0,1
61894,-83.3333333333333,4,3,0,95,0,1
62999,-125,4,1,0,90,0,1
63078,-125,4,3,0,95,0,1
64894,-125,4,1,0,95,0,1
65210,-83.3333333333333,4,3,0,95,0,1
71683,-83.3333333333333,4,1,0,95,0,1
72157,-83.3333333333333,4,3,0,95,0,1
72315,-83.3333333333333,4,1,0,95,0,1
72631,-83.3333333333333,4,3,0,95,0,1
73104,-100,4,3,0,95,0,1
75631,-100,4,1,0,100,0,0
76420,-100,4,3,0,100,0,0
76578,-100,4,1,0,100,0,0
77525,-100,4,3,0,100,0,0
83683,-100,4,1,0,100,0,0
83999,-83.3333333333333,4,3,0,100,0,0
84157,-83.3333333333333,4,1,0,100,0,0
85262,-71.4285714285714,4,1,0,100,0,0
85578,-71.4285714285714,4,1,0,100,0,0

[Colours]
Combo1 : 128,255,128
Combo2 : 128,255,255
Combo3 : 255,128,128
Combo4 : 255,255,128

[HitObjects]
120,196,9947,6,8,P|136:252|264:240,2,180,0|0|0,0:0|0:0|0:0,0:0:0:0:
147,110,10740,1,0,0:0:0:0:
202,39,10894,2,0,P|228:104|192:208,2,180,0|0|0,0:0|0:0|0:0,0:0:0:0:
467,40,11851,2,0,L|468:148,1,90
366,219,12157,2,0,L|366:111,1,90
469,215,12473,6,0,B|468:260|468:260|412:324|324:328,1,180
127,325,13104,2,0,P|68:260|76:144,1,180
126,107,13578,1,0,0:0:0:0:
191,171,13736,2,0,P|187:259|128:325,1,180
330,226,14368,1,0,0:0:0:0:
408,270,14527,1,0,0:0:0:0:
417,181,14683,2,0,L|388:92,1,90
465,47,14999,2,0,P|392:0|308:48,1,180
95,84,15631,6,0,P|144:112|272:112,1,180
264,24,16104,1,0,0:0:0:0:
266,114,16262,2,0,P|354:120|436:84,1,180
472,306,16894,1,0,0:0:0:0:
389,341,17052,1,0,0:0:0:0:
402,252,17210,2,0,L|308:232,1,90
192,293,17524,5,0,0:0:0:0:
93,202,17682,1,0,0:0:0:0:
221,246,17840,1,0,0:0:0:0:
118,158,17998,1,0,0:0:0:0:
66,330,18298,1,0,0:0:0:0:
66,330,18473,2,0,B|104:256|156:248|156:248|160:216|160:216|204:188|200:160,1,225,0|0,0:0|0:0,0:0:0:0:
226,80,19403,1,0,0:0:0:0:
226,80,19561,1,0,0:0:0:0:
219,188,20052,22,0,P|176:200|76:180,2,135.000005149842,0|0|0,0:0|0:0|0:0,0:0:0:0:
158,107,20841,2,0,L|248:80,1,67.5000025749208
308,142,21157,1,0,0:0:0:0:
328,160,21473,38,0,P|360:176|400:176,1,67.5000025749208
482,134,21790,1,0,0:0:0:0:
389,95,21949,1,0,0:0:0:0:
482,249,22108,1,0,0:0:0:0:
389,288,22262,1,0,0:0:0:0:
364,304,22578,6,0,P|312:320|216:288,1,135.000005149842
306,229,23037,1,0,0:0:0:0:
207,205,23210,2,0,L|140:244,1,67.5000025749208
136,339,23513,1,0,0:0:0:0:
50,286,23672,1,0,0:0:0:0:
40,256,23999,6,0,L|16:184,1,67.5000025749208
11,96,24315,2,0,P|52:120|140:84,1,135.000005149842,0|0,0:0|0:0,0:0:0:0:
208,156,24791,1,0,0:0:0:0:
221,129,24870,1,0,0:0:0:0:
247,107,24950,1,0,0:0:0:0:
285,96,25029,1,0,0:0:0:0:
316,108,25104,2,0,P|348:128|364:160,1,67.5000025749208
322,240,25418,6,0,L|279:169,1,67.5000025749208
415,225,25736,1,0,0:0:0:0:
485,298,25894,2,0,P|467:338|422:360,1,67.5000025749208
350,330,26211,1,0,0:0:0:0:
320,344,26525,2,0,P|280:360|172:336,2,135.000005149842,0|0|0,0:0|0:0|0:0,0:0:0:0:
289,247,27315,1,0,0:0:0:0:
258,150,27473,1,0,0:0:0:0:
222,35,27631,2,0,P|155:72|122:149,1,135.000005149842,0|0,0:0|0:0,0:0:0:0:
196,196,28099,2,0,P|263:159|296:82,1,135.000005149842,0|0,0:0|0:0,0:0:0:0:
393,109,28578,2,0,P|326:146|293:223,1,135.000005149842,0|0,0:0|0:0,0:0:0:0:
398,201,29052,1,0,0:0:0:0:
431,296,29210,2,0,B|436:300|412:344|360:332|319:367,1,135.000005149842
59,301,29841,69,0,0:0:0:0:
84,284,29920,1,0,0:0:0:0:
120,264,30000,1,0,0:0:0:0:
152,264,30079,1,0,0:0:0:0:
184,284,30157,2,0,P|224:304|292:284,1,90
355,196,30473,21,0,0:0:0:0:
428,83,30632,1,0,0:0:0:0:
301,129,30789,1,0,0:0:0:0:
408,274,30947,1,0,0:0:0:0:
476,157,31106,1,0,0:0:0:0:
376,8,31265,1,0,0:0:0:0:
122,100,31578,6,0,P|68:128|48:176,1,90
106,275,31894,2,0,L|132:172,1,90
9,253,32210,1,0,0:0:0:0:
108,368,32368,2,0,P|162:340|182:292,1,90
225,189,32685,1,0,0:0:0:0:
449,340,32999,6,0,L|480:248,1,90
357,192,33315,1,0,0:0:0:0:
241,256,33473,2,0,L|269:341,1,90
359,241,33790,1,0,0:0:0:0:
113,127,34104,6,0,P|144:80|208:56,1,90
276,68,34420,1,0,0:0:0:0:
249,231,34578,1,0,0:0:0:0:
204,140,34736,2,0,P|260:140|312:176,1,90
352,244,35052,1,0,0:0:0:0:
288,324,35210,22,0,P|328:348|464:316,1,180
426,198,35683,2,0,P|372:220|340:268,1,90
492,168,35999,2,0,P|460:136|408:128,1,90
485,243,36315,1,0,0:0:0:0:
220,193,36631,5,0,0:0:0:0:
132,37,36789,1,0,0:0:0:0:
40,192,36947,1,0,0:0:0:0:
132,37,37104,2,0,L|184:120,1,90
40,192,37420,2,0,L|96:100,1,90
220,193,37736,2,0,L|40:276,1,180
183,313,38210,2,0,L|368:220,1,180
384,312,38683,2,0,P|440:260|408:172,1,180
320,151,39157,2,0,P|360:100|472:108,1,180
384,313,39631,6,0,L|320:348,3,45,0|0|0|0,0:0|0:0|0:0|0:0,0:0:0:0:
312,352,39947,1,0,0:0:0:0:
276,352,40025,1,0,0:0:0:0:
248,332,40104,1,0,0:0:0:0:
228,304,40183,1,0,0:0:0:0:
244,264,40262,1,0,0:0:0:0:
256,192,40341,12,0,41368,0:0:0:0:
312,192,41683,37,0,0:0:0:0:
381,134,41841,1,0,0:0:0:0:
311,77,41999,1,0,0:0:0:0:
242,136,42157,2,0,P|216:212|308:280,2,180,0|0|0,0:0|0:0|0:0,0:0:0:0:
312,192,42947,53,0,0:0:0:0:
381,134,43104,1,0,0:0:0:0:
311,77,43262,2,0,P|240:40|152:104,1,180,0|0,0:0|0:0,0:0:0:0:
88,141,43736,1,0,0:0:0:0:
147,209,43894,2,0,B|136:224|136:284|168:312|168:312|232:286,1,180
269,369,44368,2,0,L|444:296,1,180
435,209,44841,2,0,L|348:244,1,90
226,192,45157,1,0,0:0:0:0:
311,163,45315,1,0,0:0:0:0:
256,192,45394,12,0,46420,0:0:0:0:
124,192,46736,22,0,P|164:164|232:164,1,90
124,192,47052,2,0,P|144:140|184:112,1,90
192,244,47368,1,0,0:0:0:0:
268,297,47525,2,0,P|220:336|112:272,1,180
45,245,47999,1,0,0:0:0:0:
124,192,48157,1,0,0:0:0:0:
192,244,48315,2,0,P|264:200|344:248,1,180
410,299,48789,1,0,0:0:0:0:
438,214,48947,2,0,B|440:154|381:120|381:120|356:59,1,180
232,8,49420,2,0,L|264:100,1,90
189,147,49736,2,0,L|156:48,1,90
160,61,50052,5,0,0:0:0:0:
34,248,50368,1,0,0:0:0:0:
48,284,50683,1,0,0:0:0:0:
60,320,50999,1,0,0:0:0:0:
72,348,51315,1,0,0:0:0:0:
284,309,51631,5,0,0:0:0:0:
396,125,51789,1,0,0:0:0:0:
201,217,51947,1,0,0:0:0:0:
414,251,52104,1,0,0:0:0:0:
257,104,52262,1,0,0:0:0:0:
219,321,52420,5,0,0:0:0:0:
61,173,52578,1,0,0:0:0:0:
274,208,52735,1,0,0:0:0:0:
79,300,52893,1,0,0:0:0:0:
192,116,53051,1,0,0:0:0:0:
403,73,53210,6,0,P|384:124|304:160,1,107.999996704102
236,380,53525,2,0,P|213:330|244:248,1,107.999996704102
137,45,53841,2,0,P|188:64|224:144,1,107.999996704102
256,156,55420,22,0,P|320:60|424:76,1,215.999993408203,0|8,0:0|0:0,0:0:0:0:
332,140,55894,69,0,0:0:0:0:
360,136,55973,1,0,0:0:0:0:
388,140,56052,2,0,P|432:180|440:248,1,107.999996704102,8|0,0:0|0:0,0:0:0:0:
424,328,56368,1,8,0:0:0:0:
356,224,56525,2,0,P|348:292|220:364,1,215.999993408203,2|0,0:0|0:0,0:0:0:0:
265,262,56999,2,0,P|200:288|156:276,1,107.999996704102,8|0,0:0|0:0,0:0:0:0:
105,190,57315,1,8,0:0:0:0:
218,177,57473,2,0,P|163:132|151:88,1,107.999996704102,0|8,0:0|0:0,0:0:0:0:
218,14,57789,1,0,0:0:0:0:
284,100,57947,70,0,L|508:40,1,215.999993408203,8|8,0:0|0:0,0:0:0:0:
469,149,58420,1,0,0:0:0:0:
444,156,58499,1,0,0:0:0:0:
416,164,58578,2,0,L|300:196,1,107.999996704102,8|0,0:0|0:0,0:0:0:0:
222,253,58894,1,8,0:0:0:0:
133,314,59052,2,0,P|192:340|320:264,1,215.999993408203,2|0,0:0|0:0,0:0:0:0:
116,191,59525,2,0,L|76:80,1,107.999996704102,8|0,0:0|0:0,0:0:0:0:
344,36,59841,2,0,L|324:144,1,107.999996704102,8|0,0:0|0:0,0:0:0:0:
187,142,60157,2,0,L|168:36,1,107.999996704102,8|0,0:0|0:0,0:0:0:0:
432,89,60473,2,0,L|395:191,1,107.999996704102,8|0,0:0|0:0,0:0:0:0:
293,313,60789,21,8,0:0:0:0:
116,191,60947,1,0,0:0:0:0:
348,256,61104,1,8,0:0:0:0:
217,313,61262,1,0,0:0:0:0:
395,189,61420,1,8,0:0:0:0:
164,256,61578,1,2,0:0:0:0:
256,32,61894,1,8,0:0:0:0:
256,60,62210,1,8,0:0:0:0:
256,80,62525,1,8,0:0:0:0:
256,352,62999,70,0,L|256:272,1,72,2|8,0:0|0:0,0:0:0:0:
419,88,63473,1,8,0:0:0:0:
92,88,63789,1,8,0:0:0:0:
370,160,64104,1,8,0:0:0:0:
141,160,64420,1,8,0:0:0:0:
309,225,64578,1,0,0:0:0:0:
202,225,64736,1,8,0:0:0:0:
257,318,64894,1,2,0:0:0:0:
184,88,65210,5,8,0:0:0:0:
208,72,65289,1,0,0:0:0:0:
240,56,65368,1,0,0:0:0:0:
276,56,65447,1,0,0:0:0:0:
304,76,65525,2,0,B|360:112|436:64|436:64|488:104|476:144,1,215.999993408203,8|8,0:0|0:0,0:0:0:0:
428,220,65999,2,0,P|404:168|380:152,1,53.9999983520508
384,164,66157,2,0,P|312:164|264:136,1,107.999996704102,8|0,0:0|0:0,0:0:0:0:
128,220,66473,2,0,P|200:220|248:248,1,107.999996704102,8|0,0:0|0:0,0:0:0:0:
312,306,66789,37,8,0:0:0:0:
457,146,66947,1,0,0:0:0:0:
296,158,67104,1,8,0:0:0:0:
479,272,67262,1,0,0:0:0:0:
312,306,67420,2,0,L|192:340,1,107.999996704102,8|0,0:0|0:0,0:0:0:0:
296,158,67736,2,0,L|440:180,1,107.999996704102,8|0,0:0|0:0,0:0:0:0:
255,15,68052,38,0,B|172:88|68:48|56:140,1,215.999993408203,8|8,0:0|0:0,0:0:0:0:
180,224,68525,1,0,0:0:0:0:
63,336,68683,1,8,0:0:0:0:
24,180,68841,1,0,0:0:0:0:
180,224,68999,2,0,P|256:228|304:268,1,107.999996704102,8|0,0:0|0:0,0:0:0:0:
166,355,69315,2,0,P|112:358|63:336,1,107.999996704102,8|0,0:0|0:0,0:0:0:0:
24,180,69631,2,0,P|88:216|136:216,1,107.999996704102,8|0,0:0|0:0,0:0:0:0:
290,83,69947,37,8,0:0:0:0:
450,58,70104,1,0,0:0:0:0:
391,208,70262,1,8,0:0:0:0:
229,233,70420,1,0,0:0:0:0:
290,83,70578,2,0,P|364:92|396:124,1,107.999996704102,8|0,0:0|0:0,0:0:0:0:
391,208,70894,2,0,B|320:156|320:156|256:172|204:120,1,215.999993408203,8|8,0:0|0:0,0:0:0:0:
136,35,71368,1,0,0:0:0:0:
67,118,71525,1,8,0:0:0:0:
138,197,71683,2,0,B|264:244|264:244|340:300,1,215.999993408203,2|0,0:0|0:0,0:0:0:0:
425,344,72157,1,8,0:0:0:0:
421,235,72315,2,2,B|351:176|351:176|369:105|459:140|461:164,1,215.999993408203,2|2,0:0|0:0,0:0:0:0:
472,164,73104,38,0,L|413:244,1,90,8|2,0:0|0:0,0:0:0:0:
255,20,73578,1,8,0:0:0:0:
48,193,73894,1,8,0:0:0:0:
301,99,74210,1,8,0:0:0:0:
96,276,74525,1,8,0:0:0:0:
198,363,74683,1,0,0:0:0:0:
215,229,74841,1,8,0:0:0:0:
315,320,74999,1,0,0:0:0:0:
330,185,75157,1,8,0:0:0:0:
215,229,75315,2,0,L|152:308,1,90,0|8,0:0|0:0,0:0:0:0:
330,185,75631,2,0,L|444:28,2,180,2|2|2,0:0|0:0|0:0,0:0:0:0:
256,135,76420,1,8,0:0:0:0:
181,185,76578,2,0,L|68:28,2,180,2|2|2,0:0|0:0|0:0,0:0:0:0:
432,288,77525,5,8,0:0:0:0:
420,316,77603,1,0,0:0:0:0:
396,336,77682,1,0,0:0:0:0:
368,356,77761,1,0,0:0:0:0:
332,356,77840,1,8,0:0:0:0:
304,336,77919,1,0,0:0:0:0:
280,312,77998,2,0,L|328:232,1,90,0|8,0:0|0:0,0:0:0:0:
232,72,78315,1,0,0:0:0:0:
232,72,78473,2,0,L|128:232,2,180,8|0|8,0:0|0:0|0:0,0:0:0:0:
256,192,79262,1,0,0:0:0:0:
280,312,79420,2,0,L|384:152,2,180,8|0|8,0:0|0:0|0:0,0:0:0:0:
252,332,80131,21,0,0:0:0:0:
220,344,80210,1,0,0:0:0:0:
184,344,80289,1,0,0:0:0:0:
156,332,80368,1,8,0:0:0:0:
120,312,80447,1,0,0:0:0:0:
96,288,80525,1,0,0:0:0:0:
84,256,80604,1,0,0:0:0:0:
100,224,80683,2,0,P|144:180|192:168,1,90,8|0,0:0|0:0,0:0:0:0:
284,99,80999,2,0,P|280:184|208:252,2,180,8|8|8,0:0|0:0|0:0,0:0:0:0:
348,35,81789,1,0,0:0:0:0:
411,99,81947,2,0,L|488:288,1,180,8|8,0:0|0:0,0:0:0:0:
448,300,82578,38,0,L|408:208,1,90,8|0,0:0|0:0,0:0:0:0:
290,158,82894,2,0,L|332:260,1,90,8|0,0:0|0:0,0:0:0:0:
255,357,83210,1,8,0:0:0:0:
180,194,83368,1,0,0:0:0:0:
315,313,83525,1,8,0:0:0:0:
144,260,83683,1,2,0:0:0:0:
253,63,83999,1,8,0:0:0:0:
253,63,84157,2,0,B|164:48|84:116|92:232|228:272|312:220|312:220|312:152|312:152|232:152,1,540,4|8,0:0|0:0,0:0:0:0:
62,274,85104,5,8,0:0:0:0:
172,335,85262,1,8,0:0:0:0:
339,335,85420,1,8,0:0:0:0:
449,274,85578,1,8,0:0:0:0:
136,64,86052,22,4,L|44:168,1,125.999996154785,4|4,0:0|0:0,0:0:0:0:
255,66,86368,2,4,L|256:196,1,125.999996154785
376,64,86683,2,4,L|468:168,1,125.999996154785
