osu file format v14

[General]
AudioFilename: animegataris.mp3
AudioLeadIn: 0
PreviewTime: 59799
Countdown: 0
SampleSet: Soft
StackLeniency: 0.6
Mode: 0
LetterboxInBreaks: 0
WidescreenStoryboard: 0

[Editor]
DistanceSpacing: 1
BeatDivisor: 4
GridSize: 4
TimelineZoom: 2

[Metadata]
Title:Aikotoba TV Size ver.
TitleUnicode:アイコトバ TV Size ver.
Artist:GARNiDELiA
ArtistUnicode:GARNiDELiA
Creator:Underforest
Version:Insane
Source:アニメガタリズ
Tags:animegataris anime gataris opening ガルニデリア 阿部 尚徳 Yoshinori Abe 水橋 舞 Mai Mizuhashi MARiA メイリア
BeatmapID:1441454
BeatmapSetID:681714

[Difficulty]
HPDrainRate:6
CircleSize:4
OverallDifficulty:7.5
ApproachRate:9
SliderMultiplier:1.8
SliderTickRate:1

[Events]
//Background and Video events
0,0,"bg.jpg",0,0
Video,-300,"video.avi"
//Break Periods
//Storyboard Layer 0 (Background)
//Storyboard Layer 1 (Fail)
//Storyboard Layer 2 (Pass)
//Storyboard Layer 3 (Foreground)
//Storyboard Sound Samples

[TimingPoints]
611,405.405405405405,4,2,1,20,1,0
1421,-100,4,2,1,25,0,0
2232,-100,4,2,1,30,0,0
3043,-100,4,2,1,35,0,0
3854,-100,4,2,1,40,0,0
4665,-100,4,2,1,45,0,0
5475,-100,4,2,1,50,0,0
6286,-100,4,2,1,55,0,0
6692,-100,4,2,1,60,0,0
7097,-100,4,2,1,70,0,0
20881,405.405405405405,4,2,1,60,1,0
33853,-100,4,2,1,70,0,0
46826,-133.333333333333,4,2,1,50,0,0
56556,-100,4,2,1,55,0,0
57367,-100,4,2,1,60,0,0
58178,-100,4,2,1,65,0,0
58989,-100,4,2,1,70,0,0
59799,-83.3333333333333,4,2,1,80,0,1
72367,-83.3333333333333,4,2,1,80,0,0
72772,-83.3333333333333,4,2,1,80,0,1
85340,-100,4,2,1,80,0,0
87164,-83.3333333333333,4,2,1,70,0,1
88178,-100,4,2,1,80,0,0

[Colours]
Combo1 : 165,16,245
Combo2 : 253,132,199
Combo3 : 55,186,236
Combo4 : 255,26,31
Combo5 : 245,180,24
Combo6 : 193,249,4

[HitObjects]
256,192,611,12,2,3854,0:0:0:0:
256,192,3955,12,4,6692,3:0:0:0:
104,98,7097,6,0,L|212:107,1,90,6|0,0:0|0:0,0:0:0:0:
326,214,7502,2,0,L|218:223,1,90,8|0,0:0|0:0,0:0:0:0:
105,202,7908,1,2,0:0:0:0:
278,134,8110,1,0,0:0:0:0:
240,327,8313,2,0,P|206:347|140:337,1,90,10|0,0:0|0:0,0:0:0:0:
0,220,8719,6,0,P|72:232|194:254,1,180,2|8,0:0|0:0,0:0:0:0:
359,225,9327,1,2,0:0:0:0:
239,101,9529,2,0,L|257:3,1,90,2|0,0:0|0:0,0:0:0:0:
343,137,9935,2,0,L|359:225,1,90,10|0,0:0|0:0,0:0:0:0:
346,304,10239,1,8,0:0:0:0:
346,304,10340,6,0,P|295:318|239:306,1,90,2|0,0:0|0:0,0:0:0:0:
157,188,10746,1,8,0:0:0:0:
40,290,10948,1,2,0:0:0:0:
40,290,11050,1,2,0:0:0:0:
40,290,11151,2,0,L|31:403,1,90,2|0,0:0|0:0,0:0:0:0:
151,278,11556,2,0,L|158:188,1,90,8|0,0:0|0:0,0:0:0:0:
242,68,11962,5,2,0:0:0:0:
434,114,12165,1,0,0:0:0:0:
283,198,12367,1,10,0:0:0:0:
372,18,12570,1,0,0:0:0:0:
468,206,12773,1,2,0:0:0:0:
355,89,12975,1,0,0:0:0:0:
355,254,13178,1,10,0:0:0:0:
476,117,13381,1,8,0:0:0:0:
476,117,13482,1,8,0:0:0:0:
476,117,13583,6,0,L|468:214,1,90,6|0,0:0|0:0,0:0:0:0:
362,343,13989,2,0,L|354:253,1,90,8|0,0:0|0:0,0:0:0:0:
317,122,14394,1,2,0:0:0:0:
179,223,14597,1,0,0:0:0:0:
171,69,14800,2,0,P|110:62|57:57,1,90,8|0,0:0|0:0,0:0:0:0:
0,242,15205,6,0,P|61:235|199:222,1,180,2|8,0:0|0:0,0:0:0:0:
240,384,15813,1,2,0:0:0:0:
334,229,16016,2,0,P|381:237|441:215,1,90,2|0,0:0|0:0,0:0:0:0:
400,53,16421,2,0,P|352:44|292:66,1,90,10|0,0:0|0:0,0:0:0:0:
239,85,16725,1,8,0:0:0:0:
239,85,16827,6,0,L|135:84,1,90,2|0,0:0|0:0,0:0:0:0:
15,207,17232,1,8,0:0:0:0:
184,284,17435,1,2,0:0:0:0:
184,284,17536,1,2,0:0:0:0:
184,284,17638,2,0,P|183:344|180:389,1,90,2|0,0:0|0:0,0:0:0:0:
95,240,18043,1,8,0:0:0:0:
276,334,18246,1,2,0:0:0:0:
286,152,19867,5,8,0:0:0:0:
286,152,19969,1,8,0:0:0:0:
286,152,20070,2,0,L|291:35,1,90,8|8,0:0|0:0,0:0:0:0:
363,223,20475,1,2,0:0:0:0:
363,223,20881,6,0,P|321:246|217:228,1,135,4|2,0:0|0:0,0:0:0:0:
214,239,21286,2,0,L|208:338,1,90,10|0,0:0|0:0,0:0:0:0:
65,383,21691,2,0,L|70:293,1,90,2|0,0:0|0:0,0:0:0:0:
70,115,22097,1,8,0:0:0:0:
0,218,22299,1,2,0:0:0:0:
141,191,22502,6,0,P|186:156|269:172,1,135,2|2,0:0|0:0,0:0:0:0:
277,181,22908,1,10,0:0:0:0:
372,288,23110,2,0,L|364:381,1,90,2|0,0:0|0:0,0:0:0:0:
274,301,23516,1,0,0:0:0:0:
423,207,23718,2,0,L|415:114,1,90,8|0,0:0|0:0,0:0:0:0:
374,54,24022,1,8,0:0:0:0:
374,54,24124,6,0,P|306:38|228:63,1,135,2|2,0:0|0:0,0:0:0:0:
225,66,24529,2,0,L|216:176,1,90,8|0,0:0|0:0,0:0:0:0:
163,321,24935,1,2,0:0:0:0:
332,283,25137,1,0,0:0:0:0:
134,203,25340,2,0,P|95:194|37:199,1,90,10|0,0:0|0:0,0:0:0:0:
163,321,25745,6,0,P|208:348|304:346,1,135,2|2,0:0|0:0,0:0:0:0:
311,346,26151,1,8,0:0:0:0:
408,240,26353,2,0,L|397:137,1,90,2|0,0:0|0:0,0:0:0:0:
318,44,26759,1,0,0:0:0:0:
245,192,26962,1,8,0:0:0:0:
145,36,27164,1,8,0:0:0:0:
145,36,27266,1,8,0:0:0:0:
145,36,27367,6,0,P|103:25|20:73,1,135,4|2,0:0|0:0,0:0:0:0:
13,83,27772,2,0,L|18:201,1,90,8|0,0:0|0:0,0:0:0:0:
146,251,28178,2,0,L|149:161,1,90,2|0,0:0|0:0,0:0:0:0:
51,257,28583,1,8,0:0:0:0:
144,81,28786,1,2,0:0:0:0:
243,213,28989,6,0,P|307:211|370:149,1,135,2|0,0:0|0:0,0:0:0:0:
369,147,29394,1,8,0:0:0:0:
278,41,29597,2,0,L|274:154,1,90,2|0,0:0|0:0,0:0:0:0:
178,275,30002,1,0,0:0:0:0:
352,288,30205,2,0,P|409:266|477:293,1,135,8|2,0:0|0:0,0:0:0:0:
487,310,30610,5,2,0:0:0:0:
333,368,30813,1,2,0:0:0:0:
333,368,30914,1,2,0:0:0:0:
333,368,31016,1,10,0:0:0:0:
416,178,31218,1,0,0:0:0:0:
413,353,31421,1,2,0:0:0:0:
309,212,31624,1,0,0:0:0:0:
205,321,31826,2,0,L|85:303,1,90,10|0,0:0|0:0,0:0:0:0:
40,177,32232,6,0,L|151:160,1,90,2|2,0:0|0:0,0:0:0:0:
208,153,32536,1,2,0:0:0:0:
208,153,32637,1,10,0:0:0:0:
302,342,32840,1,2,0:0:0:0:
302,342,32941,1,2,0:0:0:0:
302,342,33043,1,2,0:0:0:0:
372,103,33245,1,2,0:0:0:0:
372,103,33347,1,2,0:0:0:0:
372,103,33448,1,10,0:0:0:0:
155,251,33651,1,8,0:0:0:0:
155,251,33752,1,8,0:0:0:0:
155,251,33853,6,0,L|52:240,1,90,4|0,0:0|0:0,0:0:0:0:
120,167,34158,1,2,0:0:0:0:
120,167,34259,2,0,L|223:156,1,90,8|0,0:0|0:0,0:0:0:0:
230,314,34664,2,0,L|140:323,1,90,2|0,0:0|0:0,0:0:0:0:
37,170,35070,1,8,0:0:0:0:
212,91,35272,1,0,0:0:0:0:
212,91,35374,1,0,0:0:0:0:
212,91,35475,6,0,L|301:100,1,90,2|0,0:0|0:0,0:0:0:0:
390,111,35779,1,2,0:0:0:0:
390,111,35880,1,8,0:0:0:0:
427,239,36083,2,0,P|396:275|340:290,1,90,2|0,0:0|0:0,0:0:0:0:
256,181,36489,1,0,0:0:0:0:
231,362,36691,1,8,0:0:0:0:
110,222,36894,1,0,0:0:0:0:
110,222,36995,1,0,0:0:0:0:
110,222,37097,6,0,P|69:232|9:215,1,90,2|0,0:0|0:0,0:0:0:0:
67,140,37401,1,2,0:0:0:0:
67,140,37502,2,0,P|108:130|168:147,1,90,8|0,0:0|0:0,0:0:0:0:
368,115,37908,1,2,0:0:0:0:
233,59,38110,1,0,0:0:0:0:
300,228,38313,2,0,L|294:348,1,90,10|0,0:0|0:0,0:0:0:0:
150,229,38718,6,0,L|154:139,1,90,2|0,0:0|0:0,0:0:0:0:
216,82,39023,1,2,0:0:0:0:
216,82,39124,2,0,P|261:72|320:89,1,90,8|0,0:0|0:0,0:0:0:0:
489,155,39529,1,2,0:0:0:0:
381,11,39732,1,0,0:0:0:0:
314,173,39935,1,10,0:0:0:0:
416,105,40137,1,2,0:0:0:0:
416,105,40239,1,2,0:0:0:0:
416,105,40340,6,0,L|410:209,1,90,4|0,0:0|0:0,0:0:0:0:
383,272,40644,1,2,0:0:0:0:
383,272,40745,2,0,L|389:376,1,90,8|0,0:0|0:0,0:0:0:0:
310,222,41151,1,2,0:0:0:0:
474,272,41353,1,0,0:0:0:0:
302,319,41556,2,0,P|253:322|191:304,1,90,8|0,0:0|0:0,0:0:0:0:
70,196,41962,6,0,P|119:193|181:211,1,90,2|0,0:0|0:0,0:0:0:0:
232,241,42266,1,2,0:0:0:0:
232,241,42367,2,0,L|245:136,1,90,8|0,0:0|0:0,0:0:0:0:
403,106,42772,2,0,L|414:195,1,90,2|0,0:0|0:0,0:0:0:0:
322,326,43178,2,0,L|333:236,1,90,8|0,0:0|0:0,0:0:0:0:
414,195,43482,1,8,0:0:0:0:
414,195,43583,6,0,P|475:181|526:194,1,90,2|0,0:0|0:0,0:0:0:0:
470,299,43989,1,8,0:0:0:0:
333,236,44191,2,0,P|323:181|340:135,1,90,2|0,0:0|0:0,0:0:0:0:
468,212,44597,2,0,P|478:267|461:313,1,90,2|8,0:0|0:0,0:0:0:0:
322,380,45002,1,2,0:0:0:0:
192,250,45205,6,0,L|73:247,1,90,2|0,0:0|0:0,0:0:0:0:
32,219,45509,1,2,0:0:0:0:
32,219,45610,2,0,P|20:177|35:121,1,90,8|0,0:0|0:0,0:0:0:0:
67,17,46016,1,0,0:0:0:0:
151,175,46218,1,2,0:0:0:0:
265,30,46421,2,0,P|268:70|273:122,1,90,10|8,0:0|0:0,0:0:0:0:
288,201,46725,1,8,0:0:0:0:
288,201,46826,6,0,L|295:224,6,16.8750006437302,6|2|2|2|2|2|2,0:0|0:0|0:0|0:0|0:0|0:0|0:0,0:0:0:0:
358,265,47232,2,0,L|351:288,6,16.8750006437302,2|2|2|2|2|2|2,0:0|0:0|0:0|0:0|0:0|0:0|0:0,0:0:0:0:
374,186,47637,1,10,0:0:0:0:
508,210,47840,1,0,0:0:0:0:
375,171,48043,1,2,0:0:0:0:
505,224,48245,1,0,0:0:0:0:
397,322,48448,6,0,P|359:326|309:330,1,67.5000025749208,2|0,0:0|0:0,0:0:0:0:
201,229,48853,2,0,P|234:231|268:235,1,67.5000025749208,2|0,0:0|0:0,0:0:0:0:
434,210,49259,1,10,0:0:0:0:
329,328,49462,1,0,0:0:0:0:
445,211,49664,1,2,0:0:0:0:
327,100,49867,1,0,0:0:0:0:
232,220,50070,5,2,0:0:0:0:
230,236,50171,1,0,0:0:0:0:
227,253,50272,1,0,0:0:0:0:
224,269,50374,1,0,0:0:0:0:
205,297,50475,5,2,0:0:0:0:
203,313,50576,1,0,0:0:0:0:
200,330,50677,1,2,0:0:0:0:
197,346,50779,1,0,0:0:0:0:
168,363,50880,6,0,L|116:350,1,33.7500012874604,10|0,0:0|0:0,0:0:0:0:
62,281,51083,2,0,L|95:272,1,33.7500012874604,2|0,0:0|0:0,0:0:0:0:
203,227,51286,2,0,L|151:214,1,33.7500012874604,2|0,0:0|0:0,0:0:0:0:
97,145,51489,2,0,L|130:136,1,33.7500012874604,2|0,0:0|0:0,0:0:0:0:
218,97,51691,5,2,0:0:0:0:
235,99,51792,1,0,0:0:0:0:
252,101,51893,1,0,0:0:0:0:
269,103,51995,1,0,0:0:0:0:
300,91,52097,5,0,0:0:0:0:
317,93,52198,1,0,0:0:0:0:
334,95,52299,1,0,0:0:0:0:
351,97,52401,1,0,0:0:0:0:
382,85,52502,6,0,L|397:142,1,33.7500012874604,10|0,0:0|0:0,0:0:0:0:
490,163,52705,2,0,L|499:130,1,33.7500012874604,2|0,0:0|0:0,0:0:0:0:
389,205,52908,2,0,L|398:237,1,33.7500012874604,2|0,0:0|0:0,0:0:0:0:
492,285,53111,2,0,L|501:252,1,33.7500012874604,2|0,0:0|0:0,0:0:0:0:
410,330,53313,6,0,P|376:328|315:326,1,67.5000025749208,4|0,0:0|0:0,0:0:0:0:
217,218,53718,1,0,0:0:0:0:
214,201,53819,1,0,0:0:0:0:
213,184,53920,1,0,0:0:0:0:
212,167,54022,1,0,0:0:0:0:
213,150,54123,1,10,0:0:0:0:
291,283,54326,1,2,0:0:0:0:
132,271,54529,1,2,0:0:0:0:
311,177,54732,1,2,0:0:0:0:
215,340,54935,5,2,0:0:0:0:
118,188,55137,1,0,0:0:0:0:
116,171,55238,1,0,0:0:0:0:
115,154,55339,1,2,0:0:0:0:
113,137,55441,1,0,0:0:0:0:
112,120,55542,1,0,0:0:0:0:
200,254,55745,1,10,0:0:0:0:
35,247,55948,1,2,0:0:0:0:
207,154,56151,1,2,0:0:0:0:
223,148,56252,1,0,0:0:0:0:
239,144,56353,1,2,0:0:0:0:
256,142,56455,1,0,0:0:0:0:
273,143,56556,5,12,0:0:0:0:
447,197,56759,1,0,0:0:0:0:
228,289,56961,1,8,0:0:0:0:
419,355,57164,1,0,0:0:0:0:
249,215,57367,5,12,0:0:0:0:
318,48,57570,1,0,0:0:0:0:
342,268,57772,1,8,0:0:0:0:
188,104,57975,1,0,0:0:0:0:
405,137,58178,5,12,0:0:0:0:
125,204,58381,1,8,0:0:0:0:
347,269,58583,1,8,0:0:0:0:
242,28,58786,1,8,0:0:0:0:
192,267,58989,5,12,0:0:0:0:
156,293,59090,1,8,0:0:0:0:
112,300,59191,1,8,0:0:0:0:
70,285,59293,1,8,0:0:0:0:
41,251,59394,1,4,0:3:0:0:
41,251,59799,5,6,0:0:0:0:
150,65,60002,1,0,0:0:0:0:
245,263,60205,1,8,0:0:0:0:
136,151,60408,1,0,0:0:0:0:
67,336,60610,2,0,L|197:348,1,107.999996704102,2|0,0:0|0:0,0:0:0:0:
250,186,61016,5,10,0:0:0:0:
126,267,61218,1,0,0:0:0:0:
362,264,61421,1,2,0:0:0:0:
187,111,61624,1,0,0:0:0:0:
398,68,61826,2,0,P|409:113|395:185,1,107.999996704102,8|0,0:0|0:0,0:0:0:0:
354,367,62232,6,0,L|237:356,1,107.999996704102,4|0,0:0|0:0,0:0:0:0:
132,174,62637,2,0,L|249:163,1,107.999996704102,12|8,0:0|0:0,0:0:0:0:
328,158,62941,1,8,0:0:0:0:
328,158,63043,5,6,0:0:0:0:
232,272,63245,1,0,0:0:0:0:
328,75,63448,1,8,0:0:0:0:
429,264,63651,1,0,0:0:0:0:
239,163,63853,2,0,L|131:173,1,107.999996704102,2|0,0:0|0:0,0:0:0:0:
29,322,64259,5,10,0:0:0:0:
177,371,64462,2,0,P|202:305|193:248,1,107.999996704102,2|0,0:0|0:0,0:0:0:0:
202,100,64867,1,2,0:0:0:0:
342,216,65070,2,0,L|490:200,1,107.999996704102,8|0,0:0|0:0,0:0:0:0:
347,100,65475,5,6,0:0:0:0:
266,322,65678,1,0,0:0:0:0:
507,283,65880,1,10,0:0:0:0:
256,179,66083,1,8,0:0:0:0:
256,179,66185,1,8,0:0:0:0:
256,179,66286,5,6,0:0:0:0:
431,141,66489,1,0,0:0:0:0:
281,35,66691,1,10,0:0:0:0:
338,236,66894,1,0,0:0:0:0:
145,181,67097,2,0,P|139:233|132:305,1,107.999996704102,2|0,0:0|0:0,0:0:0:0:
285,341,67502,5,10,0:0:0:0:
428,234,67705,2,0,L|422:180|416:126,1,107.999996704102,2|2,0:0|0:0,0:0:0:0:
300,12,68110,1,0,0:0:0:0:
231,191,68313,1,10,0:0:0:0:
371,68,68516,1,2,0:0:0:0:
136,29,68718,2,0,P|83:31|26:59,1,107.999996704102,2|0,0:0|0:0,0:0:0:0:
20,209,69124,2,0,B|18:267|18:267|61:334,1,107.999996704102,4|8,0:0|0:0,0:0:0:0:
101,373,69428,1,8,0:0:0:0:
101,373,69529,5,6,0:0:0:0:
315,328,69732,1,0,0:0:0:0:
140,179,69935,1,8,0:0:0:0:
210,372,70138,1,0,0:0:0:0:
308,169,70340,2,0,L|323:41,1,107.999996704102,2|0,0:0|0:0,0:0:0:0:
380,260,70745,1,8,0:0:0:0:
201,199,70948,1,0,0:0:0:0:
434,165,71151,5,4,0:0:0:0:
295,355,71353,1,8,0:0:0:0:
295,355,71455,1,8,0:0:0:0:
295,355,71556,1,12,0:0:0:0:
215,85,71759,1,8,0:0:0:0:
215,85,71860,1,8,0:0:0:0:
215,85,71962,1,12,0:0:0:0:
126,328,72164,1,8,0:0:0:0:
126,328,72266,1,8,0:0:0:0:
126,328,72367,6,0,L|57:338,1,53.9999983520508,4|8,0:3|0:0,0:0:0:0:
0,145,72570,2,0,L|69:155,1,53.9999983520508,8|8,0:0|0:0,0:0:0:0:
236,214,72772,5,6,0:0:0:0:
409,154,72975,1,0,0:0:0:0:
269,320,73177,1,8,0:0:0:0:
209,103,73380,1,0,0:0:0:0:
340,245,73583,2,0,L|459:232,1,107.999996704102,2|0,0:0|0:0,0:0:0:0:
288,123,73989,5,10,0:0:0:0:
251,314,74191,1,0,0:0:0:0:
291,107,74394,1,2,0:0:0:0:
164,224,74597,1,0,0:0:0:0:
376,166,74799,2,0,P|392:108|376:46,1,107.999996704102,10|0,0:0|0:0,0:0:0:0:
183,60,75205,6,0,L|65:60,1,107.999996704102,4|0,0:0|0:0,0:0:0:0:
39,264,75610,2,0,L|147:262,1,107.999996704102,12|8,0:0|0:0,0:0:0:0:
236,265,75914,1,8,0:0:0:0:
236,265,76016,5,6,0:0:0:0:
301,112,76218,1,0,0:0:0:0:
503,255,76421,1,8,0:0:0:0:
452,107,76623,1,0,0:0:0:0:
372,265,76826,2,0,L|372:400,1,107.999996704102,2|0,0:0|0:0,0:0:0:0:
461,152,77232,5,10,0:0:0:0:
277,183,77435,2,0,L|154:193,1,107.999996704102,2|0,0:0|0:0,0:0:0:0:
94,59,77840,1,2,0:0:0:0:
261,74,78043,2,0,L|384:84,1,107.999996704102,8|0,0:0|0:0,0:0:0:0:
477,186,78448,5,6,0:0:0:0:
244,233,78651,1,0,0:0:0:0:
487,198,78853,1,10,0:0:0:0:
220,130,79056,1,8,0:0:0:0:
220,130,79158,1,8,0:0:0:0:
220,130,79259,5,6,0:0:0:0:
372,239,79462,1,0,0:0:0:0:
268,52,79664,1,10,0:0:0:0:
176,254,79867,1,0,0:0:0:0:
368,225,80070,2,0,L|483:196,1,107.999996704102,2|0,0:0|0:0,0:0:0:0:
391,88,80475,1,10,0:0:0:0:
289,242,80678,6,0,P|283:285|330:352,1,107.999996704102,2|2,0:0|0:0,0:0:0:0:
351,169,81083,1,0,0:0:0:0:
180,216,81286,1,10,0:0:0:0:
370,275,81489,1,2,0:0:0:0:
258,139,81691,2,0,P|252:84|248:26,1,107.999996704102,2|0,0:0|0:0,0:0:0:0:
95,143,82097,2,0,P|91:196|85:250,1,107.999996704102,4|8,0:0|0:0,0:0:0:0:
106,334,82401,1,8,0:0:0:0:
106,334,82502,5,6,0:0:0:0:
178,168,82705,1,0,0:0:0:0:
0,265,82907,1,8,0:0:0:0:
235,279,83110,1,0,0:0:0:0:
121,72,83313,5,6,0:0:0:0:
235,279,83515,1,0,0:0:0:0:
305,114,83718,1,8,0:0:0:0:
119,203,83921,1,0,0:0:0:0:
336,260,84124,6,0,L|447:247,1,107.999996704102,4|0,0:0|0:0,0:0:0:0:
234,150,84529,2,0,L|123:137,1,107.999996704102,4|0,0:0|0:0,0:0:0:0:
0,375,84935,1,12,0:0:0:0:
241,372,85137,1,8,0:0:0:0:
241,372,85239,1,8,0:0:0:0:
241,372,85340,1,2,0:3:0:0:
190,162,87164,6,0,L|168:30,1,107.999996704102,10|0,0:0|0:0,0:0:0:0:
315,176,87570,1,2,0:0:0:0:
101,256,87772,2,0,L|83:149,1,107.999996704102,10|0,0:0|0:0,0:0:0:0:
288,292,88178,6,2,B|326:283|376:300|376:300|422:246|387:188,1,180,4|0,0:0|0:0,0:0:0:0:
