osu file format v14

[General]
AudioFilename: animegataris.mp3
AudioLeadIn: 0
PreviewTime: 59799
Countdown: 0
SampleSet: Soft
StackLeniency: 0.6
Mode: 0
LetterboxInBreaks: 0
WidescreenStoryboard: 0

[Editor]
DistanceSpacing: 1.3
BeatDivisor: 4
GridSize: 4
TimelineZoom: 1

[Metadata]
Title:Aikotoba TV Size ver.
TitleUnicode:アイコトバ TV Size ver.
Artist:GARNiDELiA
ArtistUnicode:GARNiDELiA
Creator:Underforest
Version:Normal
Source:アニメガタリズ
Tags:animegataris anime gataris opening ガルニデリア 阿部 尚徳 Yoshinori Abe 水橋 舞 Mai Mizuhashi MARiA メイリア
BeatmapID:1443534
BeatmapSetID:681714

[Difficulty]
HPDrainRate:4
CircleSize:3.5
OverallDifficulty:4
ApproachRate:5
SliderMultiplier:1.2
SliderTickRate:1

[Events]
//Background and Video events
0,0,"bg.jpg",0,0
Video,-300,"video.avi"
//Break Periods
2,47026,55356
//Storyboard Layer 0 (Background)
//Storyboard Layer 1 (Fail)
//Storyboard Layer 2 (Pass)
//Storyboard Layer 3 (Foreground)
//Storyboard Sound Samples

[TimingPoints]
611,405.405405405405,4,2,1,20,1,0
6692,-100,4,2,1,60,0,0
7097,-100,4,2,1,70,0,0
20881,405.405405405405,4,2,1,60,1,0
33853,-100,4,2,1,70,0,0
46826,-100,4,2,1,50,0,0
56556,-100,4,2,1,55,0,0
57367,-100,4,2,1,60,0,0
58178,-100,4,2,1,65,0,0
58989,-100,4,2,1,70,0,0
59799,-100,4,2,1,80,0,1
72367,-100,4,2,1,80,0,0
72772,-100,4,2,1,80,0,1
85340,-100,4,2,1,80,0,0
87164,-100,4,2,1,70,0,1
88178,-100,4,2,1,80,0,0

[Colours]
Combo1 : 165,16,245
Combo2 : 253,132,199
Combo3 : 55,186,236
Combo4 : 255,26,31
Combo5 : 245,180,24
Combo6 : 193,249,4

[HitObjects]
79,107,6692,5,4,3:0:0:0:
79,107,7097,6,0,L|91:235,1,120,6|8,0:0|0:0,0:0:0:0:
138,287,7705,1,0,0:0:0:0:
194,340,7908,2,0,P|245:352|274:348,2,60,2|0|10,0:0|0:0|0:0,0:0:0:0:
264,200,8719,2,0,P|311:199|391:255,1,120,2|8,0:0|0:0,0:0:0:0:
476,350,9529,2,0,L|489:285,1,60,2|0,0:0|0:0,0:0:0:0:
497,213,9935,2,0,L|484:148,1,60,10|0,0:0|0:0,0:0:0:0:
466,78,10340,6,0,P|409:57|341:86,1,120,2|8,0:0|0:0,0:0:0:0:
283,106,10948,1,2,0:0:0:0:
211,137,11151,2,0,P|154:158|86:129,1,120,2|8,0:0|0:0,0:0:0:0:
83,296,11962,1,2,0:0:0:0:
83,296,12367,1,10,0:0:0:0:
234,334,12773,1,2,0:0:0:0:
234,334,13178,1,10,0:0:0:0:
374,265,13583,6,0,P|403:195|386:136,1,120,6|8,0:0|0:0,0:0:0:0:
330,110,14192,1,0,0:0:0:0:
258,80,14394,2,0,L|248:8,2,60,2|0|8,0:0|0:0|0:0,0:0:0:0:
147,190,15205,2,0,P|101:171|26:181,1,120,2|8,0:0|0:0,0:0:0:0:
113,311,16016,2,0,L|187:310,1,60,2|0,0:0|0:0,0:0:0:0:
246,282,16421,2,0,L|320:281,1,60,10|0,0:0|0:0,0:0:0:0:
383,271,16827,6,0,P|399:226|381:155,1,120,2|8,0:0|0:0,0:0:0:0:
330,99,17435,1,2,0:0:0:0:
265,54,17638,2,0,P|220:38|149:56,1,120,2|8,0:0|0:0,0:0:0:0:
85,99,18246,1,2,0:0:0:0:
85,99,20070,2,0,L|36:30,2,60,8|8|2,0:0|0:0|0:0,0:0:0:0:
174,230,20881,6,0,P|219:264|303:257,1,120,4|10,0:0|0:0,0:0:0:0:
327,117,21691,2,0,P|282:83|198:90,1,120,2|8,0:0|0:0,0:0:0:0:
66,105,22502,2,0,L|55:234,1,120,2|10,0:0|0:0,0:0:0:0:
43,301,23110,2,0,B|74:318|74:318|166:296,1,120,2|0,0:0|0:0,0:0:0:0:
222,257,23718,1,8,0:0:0:0:
370,207,24124,6,0,P|426:230|492:198,1,120,2|8,0:0|0:0,0:0:0:0:
460,134,24732,1,0,0:0:0:0:
408,74,24935,2,0,L|406:4,2,60,2|0|10,0:0|0:0|0:0,0:0:0:0:
253,95,25745,2,0,P|215:145|210:209,2,120,2|8|0,0:0|0:0|0:0,0:0:0:0:
96,90,26962,2,0,L|12:99,1,60,8|8,0:0|0:0,0:0:0:0:
42,174,27367,6,0,B|30:228|30:228|49:306,1,120,4|8,0:0|0:0,0:0:0:0:
191,346,28178,2,0,B|203:292|203:292|187:229,1,120,2|8,0:0|0:0,0:0:0:0:
155,76,28989,2,0,P|211:62|271:77,1,120,2|8,0:0|0:0,0:0:0:0:
331,126,29597,2,0,P|388:140|446:126,1,120,2|0,0:0|0:0,0:0:0:0:
498,68,30205,1,8,0:0:0:0:
479,222,30610,6,0,L|466:306,1,60,2|2,0:0|0:0,0:0:0:0:
396,310,31016,2,0,L|386:250,1,60,10|0,0:0|0:0,0:0:0:0:
312,226,31421,2,0,L|302:285,1,60,2|0,0:0|0:0,0:0:0:0:
283,361,31826,1,10,0:0:0:0:
164,296,32232,2,0,P|116:314|45:275,1,120,2|10,0:0|0:0,0:0:0:0:
114,237,32840,1,2,0:0:0:0:
178,192,33043,2,0,L|257:185,1,60,2|2,0:0|0:0,0:0:0:0:
307,150,33448,2,0,L|386:143,1,60,10|8,0:0|0:0,0:0:0:0:
435,182,33853,6,0,P|455:235|436:305,1,120,4|8,0:0|0:0,0:0:0:0:
291,338,34664,2,0,P|271:285|290:215,1,120,2|8,0:0|0:0,0:0:0:0:
307,150,35272,1,0,0:0:0:0:
354,87,35475,2,0,L|452:80,2,90,2|2|2,0:0|0:0|0:0,0:0:0:0:
205,38,36489,1,0,0:0:0:0:
137,76,36691,2,0,L|126:153,1,60,8|0,0:0|0:0,0:0:0:0:
148,211,37097,6,0,P|124:214|77:195,1,60,2|0,0:0|0:0,0:0:0:0:
22,164,37502,1,8,0:0:0:0:
53,317,37908,2,0,L|64:392,1,60,2|0,0:0|0:0,0:0:0:0:
139,371,38313,2,0,L|147:311,1,60,10|0,0:0|0:0,0:0:0:0:
221,286,38718,2,0,P|280:302|349:285,1,120,2|8,0:0|0:0,0:0:0:0:
345,214,39326,1,0,0:0:0:0:
349,135,39529,2,0,P|290:119|221:136,1,120,2|10,0:0|0:0,0:0:0:0:
86,183,40340,6,0,L|72:316,1,120,4|8,0:0|0:0,0:0:0:0:
221,352,41151,2,0,L|233:232,1,120,2|8,0:0|0:0,0:0:0:0:
322,104,41962,2,0,P|268:74|188:81,1,120,2|8,0:0|0:0,0:0:0:0:
65,129,42772,2,0,P|35:183|42:263,1,120,2|8,0:0|0:0,0:0:0:0:
93,290,43380,1,0,0:0:0:0:
166,316,43583,6,0,L|288:324,1,120,2|8,0:0|0:0,0:0:0:0:
332,261,44191,2,0,P|357:288|340:384,2,120,2|2|2,0:0|0:0|0:0,0:0:0:0:
302,188,45205,2,0,L|313:108,1,60,2|0,0:0|0:0,0:0:0:0:
325,51,45610,1,8,0:0:0:0:
168,53,46016,2,0,P|124:49|101:50,1,60,0|2,0:0|0:0,0:0:0:0:
83,123,46421,2,0,P|112:127|142:126,1,60,10|8,0:0|0:0,0:0:0:0:
219,112,46826,5,6,0:0:0:0:
57,62,56556,6,0,L|33:134,2,60,12|0|8,0:0|0:0|0:0,0:0:0:0:
193,137,57367,2,0,L|217:209,2,60,12|0|8,0:0|0:0|0:0,0:0:0:0:
333,68,58178,2,0,P|373:64|401:70,1,60,12|8,0:0|0:0,0:0:0:0:
436,131,58583,2,0,P|439:160|435:190,1,60,8|8,0:0|0:0,0:0:0:0:
472,259,58989,2,0,B|430:267|430:267|339:243,1,120,12|4,0:0|0:3,0:0:0:0:
225,160,59799,6,0,P|187:152|154:158,1,60,6|0,0:0|0:0,0:0:0:0:
104,202,60205,2,0,L|97:280,1,60,8|0,0:0|0:0,0:0:0:0:
33,305,60610,2,0,P|76:338|150:323,1,120,2|10,0:0|0:0,0:0:0:0:
208,297,61218,1,0,0:0:0:0:
275,257,61421,2,0,L|337:298,2,60,2|0|10,0:0|0:0|0:0,0:0:0:0:
135,187,62232,1,4,0:0:0:0:
265,102,62637,1,12,0:0:0:0:
275,257,63043,6,0,P|279:296|275:329,1,60,6|0,0:0|0:0,0:0:0:0:
201,335,63448,2,0,P|197:296|201:263,1,60,8|0,0:0|0:0,0:0:0:0:
157,209,63853,2,0,P|108:218|38:186,1,120,2|10,0:0|0:0,0:0:0:0:
56,114,64462,2,0,P|105:105|175:137,1,120,2|2,0:0|0:0,0:0:0:0:
229,179,65070,1,8,0:0:0:0:
378,140,65475,2,0,L|384:75,2,60,6|0|10,0:0|0:0|0:0,0:0:0:0:
353,294,66286,6,0,P|356:332|350:368,1,60,6|0,0:0|0:0,0:0:0:0:
277,370,66691,2,0,P|274:332|280:296,1,60,10|0,0:0|0:0,0:0:0:0:
210,268,67097,2,0,P|155:281|81:244,1,120,2|10,0:0|0:0,0:0:0:0:
44,201,67705,1,2,0:0:0:0:
71,128,67908,2,0,L|60:44,1,60,2|0,0:0|0:0,0:0:0:0:
135,37,68313,2,0,L|142:96,1,60,10|2,0:0|0:0,0:0:0:0:
217,117,68718,2,0,P|275:105|353:138,1,120,2|4,0:0|0:0,0:0:0:0:
382,270,69529,6,0,L|309:278,1,60,6|0,0:0|0:0,0:0:0:0:
248,303,69935,2,0,L|188:296,1,60,8|0,0:0|0:0,0:0:0:0:
110,288,70340,2,0,B|121:242|121:242|107:207|107:207|119:158,1,120,2|8,0:0|0:0,0:0:0:0:
263,122,71151,2,0,P|305:117|344:124,1,60,4|8,0:0|0:0,0:0:0:0:
347,44,71556,2,0,P|296:36|216:54,1,120,12|12,0:0|0:0,0:0:0:0:
143,179,72367,1,4,0:3:0:0:
295,212,72772,6,0,P|332:204|365:210,1,60,6|0,0:0|0:0,0:0:0:0:
429,226,73178,2,0,L|436:304,1,60,8|0,0:0|0:0,0:0:0:0:
500,329,73583,2,0,P|457:362|383:347,1,120,2|10,0:0|0:0,0:0:0:0:
327,314,74191,1,0,0:0:0:0:
259,274,74394,2,0,L|195:331,2,60,2|0|10,0:0|0:0|0:0,0:0:0:0:
382,178,75205,1,4,0:0:0:0:
237,119,75610,1,12,0:0:0:0:
259,274,76016,6,0,P|255:313|259:346,1,60,6|0,0:0|0:0,0:0:0:0:
333,345,76421,2,0,P|337:306|333:273,1,60,8|0,0:0|0:0,0:0:0:0:
355,209,76826,2,0,P|404:218|474:186,1,120,2|10,0:0|0:0,0:0:0:0:
459,114,77435,2,0,P|410:105|340:137,1,120,2|2,0:0|0:0,0:0:0:0:
285,178,78043,1,8,0:0:0:0:
134,140,78448,2,0,L|121:80,2,60,6|0|10,0:0|0:0|0:0,0:0:0:0:
159,294,79259,6,0,P|156:332|162:368,1,60,6|0,0:0|0:0,0:0:0:0:
235,370,79664,2,0,P|238:332|232:296,1,60,10|0,0:0|0:0,0:0:0:0:
302,268,80070,2,0,P|357:281|431:244,1,120,2|10,0:0|0:0,0:0:0:0:
446,187,80678,2,0,L|453:127,1,60,2|0,0:0|0:0,0:0:0:0:
454,49,81083,1,2,0:0:0:0:
377,37,81286,2,0,L|369:96,1,60,10|2,0:0|0:0,0:0:0:0:
295,117,81691,2,0,P|237:105|159:138,1,120,2|4,0:0|0:0,0:0:0:0:
130,270,82502,6,0,L|203:278,1,60,6|0,0:0|0:0,0:0:0:0:
264,303,82908,2,0,L|323:296,1,60,8|0,0:0|0:0,0:0:0:0:
384,246,83313,2,0,P|399:184|369:113,1,120,6|8,0:0|0:0,0:0:0:0:
243,61,84124,2,0,L|158:51,2,60,4|0|4,0:0|0:0|0:0,0:0:0:0:
148,185,84935,2,0,L|63:195,2,60,12|8|2,0:0|0:0|0:3,0:0:0:0:
148,185,87164,6,0,P|177:243|246:265,1,120,10|2,0:0|0:0,0:0:0:0:
303,266,87772,2,0,L|377:262,1,60,10|0,0:0|0:0,0:0:0:0:
441,256,88178,1,4,0:0:0:0:
