osu file format v14

[General]
AudioFilename: animegataris.mp3
AudioLeadIn: 0
PreviewTime: 59799
Countdown: 0
SampleSet: Soft
StackLeniency: 0.6
Mode: 0
LetterboxInBreaks: 0
WidescreenStoryboard: 0

[Editor]
DistanceSpacing: 1.6
BeatDivisor: 4
GridSize: 4
TimelineZoom: 1

[Metadata]
Title:Aikotoba TV Size ver.
TitleUnicode:アイコトバ TV Size ver.
Artist:GARNiDELiA
ArtistUnicode:GARNiDELiA
Creator:Underforest
Version:Hard
Source:アニメガタリズ
Tags:animegataris anime gataris opening ガルニデリア 阿部 尚徳 Yoshinori Abe 水橋 舞 Mai Mizuhashi MARiA メイリア
BeatmapID:1443533
BeatmapSetID:681714

[Difficulty]
HPDrainRate:5
CircleSize:4
OverallDifficulty:6
ApproachRate:7
SliderMultiplier:1.5
SliderTickRate:1

[Events]
//Background and Video events
0,0,"bg.jpg",0,0
Video,-300,"video.avi"
//Break Periods
//Storyboard Layer 0 (Background)
//Storyboard Layer 1 (Fail)
//Storyboard Layer 2 (Pass)
//Storyboard Layer 3 (Foreground)
//Storyboard Sound Samples

[TimingPoints]
611,405.405405405405,4,2,1,20,1,0
1421,-100,4,2,1,25,0,0
2232,-100,4,2,1,30,0,0
3043,-100,4,2,1,35,0,0
3854,-100,4,2,1,40,0,0
4665,-100,4,2,1,45,0,0
5475,-100,4,2,1,50,0,0
6286,-100,4,2,1,55,0,0
6692,-100,4,2,1,60,0,0
7097,-100,4,2,1,70,0,0
20881,405.405405405405,4,2,1,60,1,0
33853,-100,4,2,1,70,0,0
46826,-133.333333333333,4,2,1,50,0,0
56556,-100,4,2,1,55,0,0
57367,-100,4,2,1,60,0,0
58178,-100,4,2,1,65,0,0
58989,-100,4,2,1,70,0,0
59799,-90.9090909090909,4,2,1,80,0,1
72367,-100,4,2,1,80,0,0
72772,-90.9090909090909,4,2,1,80,0,1
85340,-100,4,2,1,80,0,0
87164,-90.9090909090909,4,2,1,70,0,1
88178,-100,4,2,1,80,0,0

[Colours]
Combo1 : 165,16,245
Combo2 : 253,132,199
Combo3 : 55,186,236
Combo4 : 255,26,31
Combo5 : 245,180,24
Combo6 : 193,249,4

[HitObjects]
256,192,611,12,2,3854,0:0:0:0:
256,192,3955,12,4,6692,3:0:0:0:
77,116,7097,6,0,L|179:105,1,75,6|0,0:0|0:0,0:0:0:0:
241,69,7502,2,0,L|315:77,1,75,8|0,0:0|0:0,0:0:0:0:
395,133,7908,1,2,0:0:0:0:
322,198,8111,1,0,0:0:0:0:
394,263,8313,2,0,L|387:365,1,75,10|0,0:0|0:0,0:0:0:0:
295,368,8719,6,0,P|251:377|153:342,1,150,2|8,0:0|0:0,0:0:0:0:
71,291,9327,1,2,0:0:0:0:
15,211,9529,2,0,L|7:106,1,75,2|0,0:0|0:0,0:0:0:0:
77,65,9935,1,10,0:0:0:0:
159,117,10138,1,0,0:0:0:0:
159,117,10239,1,8,0:0:0:0:
159,117,10340,6,0,P|201:119|247:99,1,75,2|0,0:0|0:0,0:0:0:0:
308,47,10746,1,8,0:0:0:0:
369,121,10948,1,2,0:0:0:0:
369,121,11050,1,2,0:0:0:0:
369,121,11151,2,0,P|378:160|370:199,1,75,2|0,0:0|0:0,0:0:0:0:
343,287,11556,2,0,P|334:326|342:365,1,75,8|0,0:0|0:0,0:0:0:0:
241,359,11962,6,0,L|166:349,1,75,2|0,0:0|0:0,0:0:0:0:
138,255,12367,2,0,L|212:264,1,75,10|0,0:0|0:0,0:0:0:0:
260,178,12773,2,0,L|185:168,1,75,2|0,0:0|0:0,0:0:0:0:
88,163,13178,1,10,0:0:0:0:
47,251,13381,1,8,0:0:0:0:
47,251,13482,1,8,0:0:0:0:
47,251,13583,6,0,P|43:294|55:335,1,75,6|0,0:0|0:0,0:0:0:0:
137,369,13989,2,0,P|174:373|210:365,1,75,8|0,0:0|0:0,0:0:0:0:
282,299,14394,1,2,0:0:0:0:
365,349,14597,1,0,0:0:0:0:
415,265,14800,2,0,L|427:174,1,75,8|0,0:0|0:0,0:0:0:0:
389,99,15205,6,0,B|341:91|341:91|239:106,1,150,2|8,0:0|0:0,0:0:0:0:
146,129,15813,1,2,0:0:0:0:
51,151,16016,2,0,P|40:198|46:237,1,75,2|0,0:0|0:0,0:0:0:0:
90,309,16421,1,10,0:0:0:0:
187,309,16624,1,0,0:0:0:0:
187,309,16725,1,8,0:0:0:0:
187,309,16827,6,0,L|281:305,1,75,2|0,0:0|0:0,0:0:0:0:
356,331,17232,1,8,0:0:0:0:
420,257,17435,1,2,0:0:0:0:
420,257,17536,1,2,0:0:0:0:
420,257,17638,2,0,P|426:198|413:154,1,75,2|0,0:0|0:0,0:0:0:0:
343,126,18043,1,8,0:0:0:0:
429,81,18246,1,2,0:0:0:0:
429,81,19867,5,8,0:0:0:0:
429,81,19969,1,8,0:0:0:0:
429,81,20070,2,0,L|336:72,1,75,8|8,0:0|0:0,0:0:0:0:
257,62,20475,1,2,0:0:0:0:
71,124,20881,6,0,P|141:184|176:185,1,112.5,4|2,0:0|0:0,0:0:0:0:
205,189,21286,2,0,L|300:205,1,75,10|0,0:0|0:0,0:0:0:0:
326,286,21691,2,0,L|252:273,1,75,2|0,0:0|0:0,0:0:0:0:
166,320,22097,2,0,L|92:307,1,75,8|2,0:0|0:0,0:0:0:0:
41,223,22502,6,0,B|19:163|19:163|38:90,1,112.5,2|2,0:0|0:0,0:0:0:0:
45,69,22907,1,10,0:0:0:0:
142,60,23110,2,0,P|200:34|301:61,1,150,2|0,0:0|0:0,0:0:0:0:
359,109,23718,2,0,L|348:229,1,112.5,8|8,0:0|0:0,0:0:0:0:
341,269,24124,6,0,P|295:254|229:275,1,112.5,2|2,0:0|0:0,0:0:0:0:
192,295,24529,2,0,L|194:383,1,75,8|0,0:0|0:0,0:0:0:0:
113,312,24935,2,0,L|111:237,1,75,2|0,0:0|0:0,0:0:0:0:
175,163,25340,2,0,P|221:149|280:161,1,75,10|0,0:0|0:0,0:0:0:0:
344,164,25745,6,0,P|351:210|308:284,1,112.5,2|2,0:0|0:0,0:0:0:0:
295,307,26151,1,8,0:0:0:0:
226,376,26353,1,2,0:0:0:0:
153,311,26556,2,0,L|63:306,1,75
39,216,26962,1,8,0:0:0:0:
65,122,27164,1,8,0:0:0:0:
65,122,27266,1,8,0:0:0:0:
65,122,27367,6,0,P|108:107|189:134,1,112.5,4|2,0:0|0:0,0:0:0:0:
202,158,27772,2,0,P|207:186|205:241,1,75,8|0,0:0|0:0,0:0:0:0:
304,235,28178,2,0,P|302:197|308:160,1,75,2|0,0:0|0:0,0:0:0:0:
378,93,28583,2,0,L|481:85,1,75,8|2,0:0|0:0,0:0:0:0:
462,185,28989,6,0,P|479:222|455:322,1,112.5,2|0,0:0|0:0,0:0:0:0:
446,332,29394,1,8,0:0:0:0:
348,337,29597,2,0,L|189:325,1,150,2|0,0:0|0:0,0:0:0:0:
105,294,30205,2,0,L|98:148,1,112.5,8|2,0:0|0:0,0:0:0:0:
101,133,30610,6,0,P|155:154|226:122,1,112.5,2|2,0:0|0:0,0:0:0:0:
238,103,31016,2,0,P|283:99|331:112,1,75,10|0,0:0|0:0,0:0:0:0:
382,172,31421,2,0,P|384:200|372:248,1,75,2|0,0:0|0:0,0:0:0:0:
320,327,31826,1,10,0:0:0:0:
239,272,32029,1,0,0:0:0:0:
153,318,32232,6,0,L|57:326,1,75,2|2,0:0|0:0,0:0:0:0:
29,327,32536,1,2,0:0:0:0:
29,327,32637,1,10,0:0:0:0:
10,231,32840,2,0,L|-5:178,2,37.5,2|2|2,0:0|0:0|0:0,0:0:0:0:
85,169,33245,2,0,L|100:116,2,37.5,2|2|10,0:0|0:0|0:0,0:0:0:0:
180,192,33651,1,8,0:0:0:0:
180,192,33752,1,8,0:0:0:0:
180,192,33853,6,0,P|230:207|302:167,1,112.5,4|2,0:0|0:0,0:0:0:0:
331,171,34259,2,0,L|330:261,1,75,8|0,0:0|0:0,0:0:0:0:
425,225,34664,2,0,L|425:150,1,75,2|0,0:0|0:0,0:0:0:0:
373,65,35070,2,0,P|328:56|295:62,1,75,8|0,0:0|0:0,0:0:0:0:
204,81,35475,6,0,P|152:97|93:75,1,112.5,2|2,0:0|0:0,0:0:0:0:
55,57,35880,1,8,0:0:0:0:
10,143,36083,2,0,L|24:315,1,150,2|0,0:0|0:0,0:0:0:0:
93,359,36691,1,8,0:0:0:0:
161,289,36894,1,0,0:0:0:0:
161,289,36995,1,0,0:0:0:0:
161,289,37097,6,0,L|263:294,1,75,2|0,0:0|0:0,0:0:0:0:
293,213,37502,2,0,L|218:209,1,75,8|0,0:0|0:0,0:0:0:0:
150,137,37908,2,0,P|144:96|159:52,1,75,2|0,0:0|0:0,0:0:0:0:
240,21,38313,2,0,P|281:15|325:30,1,75,10|0,0:0|0:0,0:0:0:0:
361,108,38718,6,0,B|382:144|382:144|366:234,1,112.5,2|2,0:0|0:0,0:0:0:0:
360,261,39124,1,8,0:0:0:0:
273,305,39326,1,0,0:0:0:0:
179,334,39529,2,0,L|71:321,1,75,2|0,0:0|0:0,0:0:0:0:
46,246,39935,1,10,0:0:0:0:
132,201,40137,1,2,0:0:0:0:
132,201,40239,1,2,0:0:0:0:
132,201,40340,6,0,P|125:144|154:88,1,112.5,4|2,0:0|0:0,0:0:0:0:
179,58,40745,2,0,L|282:68,1,75,8|0,0:0|0:0,0:0:0:0:
346,99,41151,2,0,L|420:91,1,75,2|0,0:0|0:0,0:0:0:0:
480,169,41556,2,0,P|489:197|475:264,1,75,8|0,0:0|0:0,0:0:0:0:
425,319,41962,6,0,P|374:310|302:337,1,112.5,2|2,0:0|0:0,0:0:0:0:
270,342,42367,1,8,0:0:0:0:
176,370,42570,1,0,0:0:0:0:
111,297,42772,2,0,L|101:190,1,75,2|0,0:0|0:0,0:0:0:0:
38,148,43178,1,8,0:0:0:0:
134,133,43380,1,0,0:0:0:0:
134,133,43482,1,8,0:0:0:0:
134,133,43583,6,0,P|182:118|251:132,1,112.5,2|0,0:0|0:0,0:0:0:0:
287,145,43988,1,8,0:0:0:0:
378,180,44191,2,0,L|389:284,1,75,2|0,0:0|0:0,0:0:0:0:
309,316,44597,2,0,L|301:241,1,75,2|8,0:0|0:0,0:0:0:0:
287,145,45002,1,2,0:0:0:0:
216,77,45205,6,0,P|149:57|89:78,1,112.5,2|2,0:0|0:0,0:0:0:0:
82,106,45610,2,0,L|77:212,1,75,8|0,0:0|0:0,0:0:0:0:
111,273,46016,2,0,P|160:288|216:281,1,75,0|2,0:0|0:0,0:0:0:0:
273,249,46421,1,10,0:0:0:0:
368,321,46624,1,8,0:0:0:0:
368,321,46725,1,8,0:0:0:0:
368,321,46826,6,0,P|433:333|417:212,1,225.000008583069,6|10,0:0|0:0,0:0:0:0:
350,168,47840,1,0,0:0:0:0:
264,140,48043,1,2,0:0:0:0:
264,140,48245,1,0,0:0:0:0:
182,177,48448,6,0,L|49:154,2,112.500004291535,2|2|8,0:0|0:0|0:0,0:0:0:0:
239,246,49462,1,0,0:0:0:0:
323,274,49664,1,2,0:0:0:0:
323,274,49867,1,0,0:0:0:0:
393,217,50070,6,0,B|401:181|401:181|386:141|386:141|400:98,1,112.500004291535,2|2,0:0|0:0,0:0:0:0:
333,46,50678,1,2,0:0:0:0:
243,42,50880,2,0,L|166:46,1,56.2500021457673,10|2,0:0|0:0,0:0:0:0:
141,123,51286,2,0,L|197:125,1,56.2500021457673,2|2,0:0|0:0,0:0:0:0:
287,125,51691,6,0,P|269:180|205:216,2,112.500004291535,2|0|10,0:0|0:0|0:0,0:0:0:0:
333,46,52705,1,2,0:0:0:0:
394,112,52908,2,0,L|410:189,1,56.2500021457673,2|2,0:0|0:0,0:0:0:0:
431,253,53313,6,0,L|186:293,1,225.000008583069,4|10,0:0|0:0,0:0:0:0:
128,329,54326,1,2,0:0:0:0:
116,239,54529,1,2,0:0:0:0:
116,239,54732,1,2,0:0:0:0:
183,179,54935,6,0,L|317:199,2,112.500004291535,2|2|8,0:0|0:0|0:0,0:0:0:0:
238,108,55948,1,2,0:0:0:0:
328,108,56151,2,0,P|365:139|373:168,1,56.2500021457673,2|2,0:0|0:0,0:0:0:0:
435,244,56556,6,0,L|427:338,1,75,12|0,0:0|0:0,0:0:0:0:
333,341,56962,2,0,L|340:267,1,75,8|0,0:0|0:0,0:0:0:0:
450,228,57367,6,0,L|441:323,1,75,12|0,0:0|0:0,0:0:0:0:
315,352,57773,2,0,L|322:278,1,75,8|0,0:0|0:0,0:0:0:0:
375,169,58178,5,12,0:0:0:0:
375,169,58380,1,8,0:0:0:0:
423,59,58583,1,8,0:0:0:0:
423,59,58786,1,8,0:0:0:0:
282,81,58989,2,0,L|220:108,3,37.5,12|8|8|8,0:0|0:0|0:0|0:0,0:0:0:0:
218,134,59394,1,4,0:3:0:0:
218,134,59799,6,0,L|211:216,1,82.5000025177003,6|0,0:0|0:0,0:0:0:0:
103,214,60205,2,0,L|110:132,1,82.5000025177003,8|0,0:0|0:0,0:0:0:0:
179,50,60610,2,0,P|223:42|269:57,1,82.5000025177003,2|0,0:0|0:0,0:0:0:0:
352,106,61016,5,10,0:0:0:0:
425,27,61218,1,0,0:0:0:0:
484,116,61421,2,0,L|470:215,1,82.5000025177003,2|0,0:0|0:0,0:0:0:0:
404,280,61826,2,0,L|415:361,1,82.5000025177003,10|0,0:0|0:0,0:0:0:0:
282,365,62232,6,0,P|241:372|181:365,1,82.5000025177003,4|0,0:0|0:0,0:0:0:0:
125,260,62637,2,0,L|121:173,1,82.5000025177003,12|8,0:0|0:0,0:0:0:0:
159,139,62941,1,8,0:0:0:0:
159,139,63043,6,0,P|201:128|258:139,1,82.5000025177003,6|0,0:0|0:0,0:0:0:0:
341,95,63448,2,0,P|381:98|421:88,1,82.5000025177003,8|0,0:0|0:0,0:0:0:0:
485,173,63853,2,0,L|477:286,1,82.5000025177003,2|0,0:0|0:0,0:0:0:0:
412,339,64259,5,10,0:0:0:0:
412,339,64462,2,0,L|318:331,1,82.5000025177003,2|0,0:0|0:0,0:0:0:0:
228,295,64867,1,2,0:0:0:0:
228,295,65070,2,0,L|134:287,1,82.5000025177003,8|0,0:0|0:0,0:0:0:0:
31,354,65475,5,6,0:0:0:0:
31,354,65678,1,0,0:0:0:0:
9,224,65880,1,10,0:0:0:0:
59,101,66083,1,8,0:0:0:0:
59,101,66185,1,8,0:0:0:0:
59,101,66286,6,0,L|149:88,1,82.5000025177003,6|0,0:0|0:0,0:0:0:0:
245,63,66691,2,0,L|326:74,1,82.5000025177003,10|0,0:0|0:0,0:0:0:0:
405,148,67097,2,0,P|417:190|404:251,1,82.5000025177003,2|0,0:0|0:0,0:0:0:0:
336,302,67502,5,10,0:0:0:0:
336,302,67705,2,0,L|219:292,1,82.5000025177003,2|2,0:0|0:0,0:0:0:0:
185,211,68110,1,0,0:0:0:0:
185,211,68313,2,0,L|302:201,1,82.5000025177003,10|2,0:0|0:0,0:0:0:0:
367,166,68718,2,0,P|373:120|358:69,1,82.5000025177003,2|0,0:0|0:0,0:0:0:0:
243,31,69124,2,0,P|182:21|137:43,1,82.5000025177003,4|8,0:0|0:0,0:0:0:0:
133,53,69428,1,0,0:0:0:0:
133,53,69529,6,0,L|131:147,1,82.5000025177003,6|0,0:0|0:0,0:0:0:0:
55,212,69935,1,8,0:0:0:0:
55,318,70137,1,0,0:0:0:0:
152,269,70340,2,0,P|193:279|249:266,1,82.5000025177003,2|0,0:0|0:0,0:0:0:0:
320,212,70745,2,0,P|360:206|400:216,1,82.5000025177003,8|0,0:0|0:0,0:0:0:0:
496,307,71151,5,4,0:0:0:0:
510,176,71353,2,0,L|498:135,2,41.2500012588501,8|8|12,0:0|0:0|0:0,0:0:0:0:
402,98,71759,2,0,L|413:57,2,41.2500012588501,8|8|12,0:0|0:0|0:0,0:0:0:0:
282,154,72164,1,8,0:0:0:0:
282,154,72266,1,8,0:0:0:0:
282,154,72367,2,0,L|232:149,3,37.5,4|8|8|8,0:3|0:0|0:0|0:0,0:0:0:0:
208,189,72772,6,0,L|215:271,1,82.5000025177003,6|0,0:0|0:0,0:0:0:0:
115,230,73178,2,0,L|108:148,1,82.5000025177003,8|0,0:0|0:0,0:0:0:0:
57,53,73583,2,0,P|96:41|136:46,1,82.5000025177003,2|0,0:0|0:0,0:0:0:0:
237,85,73989,5,10,0:0:0:0:
342,68,74191,1,0,0:0:0:0:
445,98,74394,2,0,L|459:197,1,82.5000025177003,2|0,0:0|0:0,0:0:0:0:
415,278,74799,2,0,L|403:359,1,82.5000025177003,10|0,0:0|0:0,0:0:0:0:
271,381,75205,6,0,P|236:364|209:328,1,82.5000025177003,4|0,0:0|0:0,0:0:0:0:
310,244,75610,2,0,P|313:204|314:162,1,82.5000025177003,12|8,0:0|0:0,0:0:0:0:
317,107,75914,1,8,0:0:0:0:
317,107,76016,6,0,P|275:96|218:107,1,82.5000025177003,6|0,0:0|0:0,0:0:0:0:
145,77,76421,2,0,P|104:80|64:70,1,82.5000025177003,8|0,0:0|0:0,0:0:0:0:
27,173,76826,2,0,L|35:286,1,82.5000025177003,2|0,0:0|0:0,0:0:0:0:
100,339,77232,5,10,0:0:0:0:
100,339,77435,2,0,L|194:331,1,82.5000025177003,2|0,0:0|0:0,0:0:0:0:
284,295,77840,1,2,0:0:0:0:
284,295,78043,2,0,L|378:287,1,82.5000025177003,8|0,0:0|0:0,0:0:0:0:
498,296,78448,5,6,0:0:0:0:
498,296,78651,1,0,0:0:0:0:
511,165,78853,1,10,0:0:0:0:
424,65,79056,1,8,0:0:0:0:
424,65,79158,1,8,0:0:0:0:
424,65,79259,6,0,L|334:52,1,82.5000025177003,6|0,0:0|0:0,0:0:0:0:
235,38,79664,2,0,L|153:49,1,82.5000025177003,10|0,0:0|0:0,0:0:0:0:
107,148,80070,2,0,P|95:190|108:251,1,82.5000025177003,2|0,0:0|0:0,0:0:0:0:
176,302,80475,5,10,0:0:0:0:
176,302,80678,2,0,L|293:292,1,82.5000025177003,2|2,0:0|0:0,0:0:0:0:
327,211,81083,1,0,0:0:0:0:
327,211,81286,2,0,L|210:201,1,82.5000025177003,10|2,0:0|0:0,0:0:0:0:
145,166,81691,2,0,P|139:120|154:69,1,82.5000025177003,2|0,0:0|0:0,0:0:0:0:
265,26,82097,2,0,P|326:16|376:43,1,82.5000025177003,4|8,0:0|0:0,0:0:0:0:
390,50,82401,1,8,0:0:0:0:
390,50,82502,6,0,L|392:144,1,82.5000025177003,6|0,0:0|0:0,0:0:0:0:
461,214,82908,1,8,0:0:0:0:
429,316,83110,1,0,0:0:0:0:
304,272,83313,6,0,P|263:282|207:269,1,82.5000025177003,6|0,0:0|0:0,0:0:0:0:
116,280,83718,1,8,0:0:0:0:
116,280,83922,2,0,P|75:273|35:283,1,82.5000025177003,0|4,0:0|0:0,0:0:0:0:
27,151,84326,5,0,0:0:0:0:
157,126,84530,2,0,L|240:128,1,82.5000025177003,12|0,0:0|0:0,0:0:0:0:
367,158,84935,1,12,0:0:0:0:
335,30,85137,1,0,0:0:0:0:
335,30,85239,1,8,0:0:0:0:
335,30,85340,1,2,0:3:0:0:
335,30,87164,6,0,L|351:114,1,82.5000025177003,10|0,0:0|0:0,0:0:0:0:
335,218,87570,1,2,0:0:0:0:
228,219,87772,2,0,L|212:137,1,82.5000025177003,10|0,0:0|0:0,0:0:0:0:
142,13,88178,6,0,P|91:36|79:122,1,150,4|0,0:0|0:0,0:0:0:0:
