osu file format v13

[General]
AudioFilename: ZxPmRKkFMGpZ.128.mp3
AudioLeadIn: 0
PreviewTime: 138405
Countdown: 0
SampleSet: Normal
StackLeniency: 0.7
Mode: 0
LetterboxInBreaks: 1
EpilepsyWarning: 1
WidescreenStoryboard: 1

[Editor]
Bookmarks: 10336,35434,38030,63124,69469,74661,79709,83314,87352,91967,96582,102351,111869,142732,147347,151961,161191,165806,176190,184555,213109,231569
DistanceSpacing: 1
BeatDivisor: 4
GridSize: 8
TimelineZoom: 1

[Metadata]
Title:My Secret
TitleUnicode:My Secret
Artist:G.E.M
ArtistUnicode:G.E.M
Creator:al2e10
Version:Normal
Source:
Tags:我的秘密
BeatmapID:364659
BeatmapSetID:116436

[Difficulty]
HPDrainRate:2
CircleSize:3
OverallDifficulty:3
ApproachRate:3
SliderMultiplier:1.8
SliderTickRate:1

[Events]
//Background and Video events
0,0,"al2e10bg.png",0,0
//Break Periods
2,35625,36293
2,63315,63983
2,102542,110421
2,137154,137822
2,176381,183106
2,192533,193201
2,210993,211661
//Storyboard Layer 0 (Background)
//Storyboard Layer 1 (Fail)
//Storyboard Layer 2 (Pass)
//Storyboard Layer 3 (Foreground)
//Storyboard Sound Samples
//Background Colour Transformations
3,100,163,162,255

[TimingPoints]
10044,576.867608883761,4,2,0,70,1,0
12215,-100,4,2,0,30,0,0
12504,-100,4,2,0,70,0,0
14523,-100,4,2,0,30,0,0
14811,-100,4,2,0,70,0,0
15388,-100,4,2,0,30,0,0
15677,-100,4,2,0,70,0,0
20003,-100,4,2,0,30,0,0
20291,-100,4,2,0,70,0,0
23753,-100,4,2,0,30,0,0
24041,-100,4,2,0,70,0,0
26349,-100,4,2,0,30,0,0
26637,-100,4,2,0,70,0,0
28368,-100,4,2,0,30,0,0
28656,-100,4,2,0,70,0,0
30675,-100,4,2,0,30,0,0
30964,-100,4,2,0,70,0,0
37597,-100,4,2,0,50,0,0
37886,-100,4,2,0,70,0,0
56923,-100,4,2,0,30,0,0
57211,-100,4,2,0,70,0,0
59230,-100,4,2,0,30,0,0
59518,-100,4,2,0,70,0,0
61538,-100,4,2,0,30,0,0
61826,-100,4,2,0,70,0,0
65287,-100,4,1,0,70,0,0
69614,-100,4,1,0,30,0,0
69902,-100,4,1,0,70,0,0
76536,-100,4,1,0,30,0,0
76824,-100,4,1,0,70,0,0
91535,-100,4,1,0,30,0,0
91823,-100,4,1,0,70,0,0
97303,-100,4,1,0,30,0,0
97592,-100,4,1,0,70,0,0
111725,-100,4,2,0,70,0,0
119513,-100,4,3,0,70,0,0
120955,-100,4,2,0,70,0,0
130762,-100,4,2,0,30,0,0
131050,-100,4,2,0,70,0,0
133069,-100,4,2,0,30,0,0
133358,-100,4,2,0,70,0,0
135377,-100,4,2,0,30,0,0
135665,-100,4,2,0,70,0,0
138397,-100,4,2,0,70,0,1
138549,-100,4,3,0,70,0,0
139415,-100,4,1,0,70,0,0
187150,-100,4,2,0,70,0,0
208639,-100,4,1,0,50,0,0
209504,-100,4,1,0,60,0,0
210658,-100,4,1,0,70,0,0
210946,-100,4,2,0,70,0,0
211523,-200,4,2,0,70,0,0
212388,-100,4,2,0,70,0,0
212965,-100,4,1,0,70,0,0

[Colours]
Combo1 : 64,0,64
Combo2 : 128,255,255
Combo3 : 18,124,255
Combo4 : 128,0,255

[HitObjects]
472,72,10332,6,0,P|376:48|280:80,1,180,0|2,0:0|0:0,0:0:0:0:
192,216,11486,1,0,0:0:0:0:
104,192,11774,1,2,0:0:0:0:
280,240,12351,2,0,P|373:320|463:236,2,270,2|2|2,0:0|0:0|0:0,0:0:0:0:
104,200,14658,5,2,0:0:0:0:
56,272,14947,2,0,P|16:192|72:120,1,180
240,120,16101,1,0,0:0:0:0:
328,120,16389,1,2,0:0:0:0:
328,300,16966,6,0,P|376:312|432:300,1,90,0|0,0:0|0:0,0:0:0:0:
488,256,17543,2,0,P|504:200|488:144,1,90,0|0,0:0|0:0,0:0:0:0:
256,280,18697,5,2,0:0:0:0:
168,280,18985,1,0,0:0:0:0:
80,280,19273,1,2,0:0:0:0:
80,96,19850,5,0,0:0:0:0:
168,96,20139,1,2,0:0:0:0:
352,96,20716,2,0,L|456:96,1,90,0|2,0:0|0:0,0:0:0:0:
408,272,21581,5,0,0:0:0:0:
328,304,21869,2,0,P|288:336|248:336,1,90,0|0,0:0|0:0,0:0:0:0:
168,336,22446,1,2,0:0:0:0:
40,192,23023,5,0,0:0:0:0:
40,104,23311,1,2,0:0:0:0:
128,104,23600,2,0,L|224:104,1,90,0|2,0:0|0:0,0:0:0:0:
488,104,24754,5,2,0:0:0:0:
400,256,25330,1,0,0:0:0:0:
432,336,25619,1,0,0:0:0:0:
248,336,26196,6,0,L|144:336,1,90,2|2,0:0|0:0,0:0:0:0:
56,184,27061,2,0,L|264:184,1,180,2|2,0:0|0:0,0:0:0:0:
328,184,27926,6,0,P|368:280|304:352,1,180,0|4,0:0|0:0,0:0:0:0:
152,336,29080,1,0,0:0:0:0:
64,336,29369,1,0,0:0:0:0:
64,160,29945,6,0,L|64:48,2,90,0|0|0,0:0|0:0|0:0,0:0:0:0:
144,112,30811,2,0,L|144:320,1,180,4|0,0:0|0:0,0:0:0:0:
232,320,31676,1,0,0:0:0:0:
416,320,32253,5,0,0:0:0:0:
416,232,32541,2,0,L|416:40,1,180,0|0,0:0|0:0,0:0:0:0:
232,48,33695,1,0,0:0:0:0:
144,48,33984,1,2,0:0:0:0:
40,192,34560,6,0,L|40:304,1,90,0|0,0:0|0:0,0:0:0:0:
128,296,35137,2,0,L|128:176,1,90,0|2,0:0|0:0,0:0:0:0:
64,64,37733,5,4,0:0:0:0:
64,152,38022,2,0,L|64:344,1,180,0|0,0:0|0:0,0:0:0:0:
184,88,39464,6,0,L|296:88,1,90,8|0,0:0|0:0,0:0:0:0:
368,88,40041,1,0,0:0:0:0:
488,328,40906,1,0,0:0:0:0:
488,240,41194,1,0,0:0:0:0:
312,192,41771,2,0,L|128:192,1,180,8|0,0:0|0:0,0:0:0:0:
376,56,43213,5,0,0:0:0:0:
464,56,43502,1,0,0:0:0:0:
472,232,44079,1,8,0:0:0:0:
320,136,44656,1,0,0:0:0:0:
64,56,45521,5,0,0:0:0:0:
64,144,45809,1,0,0:0:0:0:
176,288,46386,2,0,P|272:232|296:152,1,180,8|0,0:0|0:0,0:0:0:0:
472,288,47828,5,0,0:0:0:0:
384,280,48117,2,0,P|264:272|176:320,1,180,0|8,0:0|0:0,0:0:0:0:
32,296,49270,2,0,L|32:88,1,180,0|0,0:0|0:0,0:0:0:0:
120,96,50136,5,0,0:0:0:0:
120,96,50424,1,0,0:0:0:0:
304,96,51001,2,0,P|328:184|296:280,1,180,8|0,0:0|0:0,0:0:0:0:
48,176,52443,5,0,0:0:0:0:
128,128,52732,1,0,0:0:0:0:
288,56,53309,1,8,0:0:0:0:
472,56,53885,6,0,P|480:208|448:336,1,270,0|0,0:0|0:0,0:0:0:0:
360,328,55039,1,0,0:0:0:0:
176,328,55616,1,8,0:0:0:0:
56,192,56193,6,0,P|72:96|160:64,1,180,0|8,0:0|0:0,0:0:0:0:
320,64,57347,2,0,P|395:107|403:193,1,180,0|8,0:0|0:0,0:0:0:0:
488,352,58500,6,0,L|296:352,1,180,0|8,0:0|0:0,0:0:0:0:
128,352,59654,2,0,L|128:160,1,180,0|8,0:0|0:0,0:0:0:0:
280,72,60808,1,0,0:0:0:0:
448,128,61385,1,8,0:0:0:0:
424,272,61962,6,0,L|224:280,1,180,0|8,0:0|0:0,0:0:0:0:
64,296,63115,1,2,0:0:0:0:
384,96,65423,6,0,P|280:80|192:112,1,180,4|8,0:0|0:0,0:0:0:0:
96,248,66577,1,0,0:0:0:0:
176,288,66865,1,0,0:0:0:0:
256,320,67153,1,8,0:0:0:0:
440,320,67730,5,0,0:0:0:0:
440,136,68307,1,8,0:0:0:0:
264,128,68884,2,0,L|264:24,2,90,0|2|8,0:0|0:0|0:0,0:0:0:0:
96,192,70038,5,4,0:0:0:0:
224,320,70615,1,8,0:0:0:0:
312,320,70903,1,0,0:0:0:0:
400,320,71191,1,0,0:0:0:0:
408,144,71768,6,0,P|320:96|232:136,1,180,8|4,0:0|0:0,0:0:0:0:
104,232,72922,2,0,P|168:280|280:248,1,180,8|0,0:0|0:0,0:0:0:0:
432,312,74076,5,8,0:0:0:0:
408,224,74364,1,0,0:0:0:0:
384,136,74653,1,4,0:0:0:0:
208,88,75230,5,8,0:0:0:0:
40,160,75806,1,0,0:0:0:0:
88,232,76095,1,0,0:0:0:0:
144,304,76383,1,8,0:0:0:0:
320,312,76960,6,0,P|424:304|440:216,3,180,4|8|0|8,0:0|0:0|0:0|0:0,0:0:0:0:
416,160,78979,1,0,0:0:0:0:
384,72,79268,1,4,0:2:0:0:
224,152,79844,1,8,0:0:0:0:
144,184,80133,1,0,0:0:0:0:
288,296,80710,5,0,0:0:0:0:
376,312,80998,1,8,0:0:0:0:
192,312,81575,1,4,0:0:0:0:
72,184,82152,1,8,0:0:0:0:
56,96,82440,2,0,L|264:96,1,180,4|0,0:0|0:0,0:0:0:0:
72,312,83883,5,4,0:0:0:0:
248,256,84459,1,8,0:0:0:0:
328,224,84748,1,0,0:0:0:0:
408,256,85036,1,0,0:0:0:0:
408,72,85613,1,8,0:0:0:0:
232,32,86190,5,0,0:0:0:0:
96,144,86767,2,0,P|64:240|104:320,1,180,8|0,0:0|0:0,0:0:0:0:
256,232,87921,1,8,0:0:0:0:
418,308,88497,6,0,P|448:225|416:144,1,180,4|8,0:0|0:0,0:0:0:0:
328,120,89363,1,0,0:0:0:0:
240,104,89651,1,0,0:0:0:0:
64,72,90228,1,8,0:0:0:0:
144,232,90805,6,0,L|256:240,1,90
184,312,91382,2,0,L|95:306,2,90
344,328,92536,5,8,0:0:0:0:
400,256,92824,1,0,0:0:0:0:
448,184,93112,1,4,0:0:0:0:
312,64,93689,1,8,0:0:0:0:
144,120,94266,2,0,L|40:104,2,90,0|0|8,0:0|0:0|0:0,0:0:0:0:
320,160,95420,6,0,P|264:240|192:200,1,180
168,296,96285,2,0,B|256:360|384:312|400:208,1,270
240,72,97727,5,4,0:0:0:0:
112,192,98304,1,10,0:0:0:0:
80,280,98593,2,0,L|296:312,2,180
256,192,100035,12,4,102342,0:0:0:0:
80,288,111861,5,0,0:0:0:0:
256,240,112438,1,0,0:0:0:0:
336,272,112726,1,0,0:0:0:0:
504,240,113303,1,8,0:0:0:0:
392,96,113880,6,0,P|280:88|208:104,1,180,0|0,0:0|0:0,0:0:0:0:
128,72,114745,2,0,L|104:256,1,180,0|2,0:0|0:0,0:0:0:0:
368,320,116187,5,0,0:0:0:0:
96,312,117052,1,2,0:0:0:0:
64,224,117341,1,2,0:0:0:0:
232,152,117918,1,8,0:0:0:0:
56,136,118495,5,0,0:0:0:0:
80,48,118783,1,0,0:0:0:0:
256,64,119360,1,0,0:0:0:0:
344,40,119648,1,0,0:0:0:0:
496,136,120225,2,0,P|496:248|432:320,1,180,4|4,0:0|0:1,0:0:0:0:
368,304,121091,5,0,0:0:0:0:
192,288,121667,1,0,0:0:0:0:
104,296,121956,1,0,0:0:0:0:
56,120,122533,1,8,0:0:0:0:
216,48,123110,6,0,P|328:56|400:32,1,180,0|0,0:0|0:0,0:0:0:0:
480,40,123975,1,0,0:0:0:0:
472,312,124840,1,8,0:0:0:0:
296,304,125417,5,0,0:0:0:0:
208,312,125705,2,0,P|128:336|64:264,1,180,0|2,0:0|0:0,0:0:0:0:
24,192,126571,1,2,0:0:0:0:
152,64,127148,1,8,0:0:0:0:
336,64,127724,6,0,L|432:64,1,90,0|0,0:0|0:0,0:0:0:0:
296,192,128590,2,0,L|176:192,1,90,0|0,3:0|3:0,0:0:0:0:
160,272,129167,2,0,L|264:272,1,90,4|8,0:3|0:0,0:0:0:0:
424,328,130032,5,0,0:0:0:0:
424,152,130609,1,8,0:0:0:0:
240,152,131186,2,0,L|56:152,1,180,2|8,0:0|0:0,0:0:0:0:
64,336,132339,6,0,L|272:336,1,180,0|8,0:0|0:0,0:0:0:0:
424,328,133493,2,0,L|424:128,1,180,2|8,0:0|0:0,0:0:0:0:
256,72,134647,6,0,P|160:104|176:192,1,180,2|8,0:0|0:0,0:0:0:0:
272,312,135801,2,0,P|368:280|352:192,1,180,2|8,0:0|0:0,0:0:0:0:
256,72,136954,1,2,0:0:0:0:
256,64,139262,5,4,1:1:0:0:
440,64,139839,1,8,0:0:0:0:
440,248,140416,2,0,L|440:352,2,90,0|0|8,0:0|0:0|0:0,0:0:0:0:
272,320,141569,6,0,P|176:296|120:360,2,180,0|8|0,0:0|0:0|0:0,0:0:0:0:
48,168,143588,5,8,0:0:0:0:
48,80,143877,1,4,0:0:0:0:
232,80,144454,2,0,L|328:80,2,90,8|0|0,0:0|0:0|0:0,0:0:0:0:
232,264,145607,1,8,0:0:0:0:
416,264,146184,5,4,0:0:0:0:
256,184,146761,1,8,0:0:0:0:
176,144,147050,1,0,0:0:0:0:
248,96,147338,1,0,0:0:0:0:
416,40,147915,6,0,P|392:136|424:224,1,180,8|4,0:0|0:0,0:0:0:0:
256,288,149069,1,8,0:0:0:0:
88,216,149645,2,0,P|111:130|87:44,1,180,0|8,0:0|0:0,0:0:0:0:
256,104,150799,6,0,L|256:272,2,135,4|0|4,0:0|0:0|0:0,0:0:0:0:
256,16,151953,1,4,0:0:0:0:
448,248,152530,5,8,0:0:0:0:
368,288,152818,1,0,0:0:0:0:
288,328,153107,1,4,0:0:0:0:
104,328,153684,2,0,L|104:224,1,90,8|0,0:0|0:0,0:0:0:0:
104,56,154549,5,0,0:0:0:0:
280,56,155126,1,0,0:0:0:0:
368,56,155414,2,0,P|408:152|360:240,1,180,4|0,0:0|0:0,0:0:0:0:
296,224,156279,2,0,L|88:224,1,180,4|0,0:0|0:0,0:0:0:0:
256,112,157433,5,4,3:0:0:0:
344,112,157722,1,4,0:0:0:0:
488,224,158298,1,8,0:0:0:0:
400,232,158587,1,0,0:0:0:0:
312,240,158875,1,0,0:0:0:0:
152,312,159452,6,0,P|88:232|96:128,1,180,8|0,0:0|0:0,0:0:0:0:
256,88,160606,2,0,P|320:168|312:272,1,180,8|0,0:0|0:0,0:0:0:0:
496,280,161760,5,8,0:0:0:0:
408,304,162048,1,2,0:0:0:0:
328,264,162337,1,4,0:0:0:0:
208,128,162913,1,8,0:0:0:0:
128,80,163202,1,0,0:0:0:0:
56,136,163490,1,0,0:0:0:0:
136,296,164067,6,0,P|240:280|328:336,1,180,8|4,0:0|0:0,0:0:0:0:
480,288,165221,2,0,P|440:192|464:112,1,180,8|0,0:0|0:0,0:0:0:0:
280,96,166375,5,8,0:0:0:0:
192,112,166663,1,0,0:0:0:0:
104,128,166951,2,0,P|64:224|128:312,1,180,4|8,0:0|0:0,0:0:0:0:
256,192,168105,5,0,0:0:0:0:
344,192,168394,1,0,0:0:0:0:
432,192,168682,1,8,0:0:0:0:
296,80,169259,1,4,0:0:0:0:
120,80,169836,2,0,L|112:184,1,90,8|4,0:0|0:0,0:0:0:0:
360,280,170990,5,4,0:0:0:0:
272,272,171278,1,0,0:0:0:0:
184,280,171566,1,0,0:0:0:0:
32,176,172143,1,8,0:0:0:0:
24,88,172432,1,0,0:0:0:0:
200,48,173009,6,0,P|304:40|400:80,1,180,0|0,0:0|0:0,0:0:0:0:
400,152,173874,1,0,0:0:0:0:
376,240,174162,1,0,0:0:0:0:
312,312,174451,2,0,P|208:296|120:336,1,180,8|0,0:0|0:0,0:0:0:0:
48,336,175316,2,0,P|24:240|48:136,1,180,0|0,0:0|0:0,0:0:0:0:
72,80,176181,1,4,0:0:0:0:
168,72,184546,6,0,L|384:72,1,180,0|0,0:2|0:0,0:0:0:0:
440,72,185411,1,4,1:1:0:0:
440,256,185988,1,0,2:0:0:0:
440,344,186277,1,4,0:0:0:0:
80,344,187430,5,0,0:0:0:0:
80,256,187719,2,0,L|80:56,1,180,2|0,0:0|1:0,0:0:0:0:
168,72,188584,1,0,0:0:0:0:
344,72,189161,1,8,0:3:0:0:
344,264,189738,5,0,0:0:0:0:
416,320,190026,1,4,0:1:0:0:
240,328,190603,1,8,0:3:0:0:
168,272,190891,1,0,0:0:0:0:
336,64,191757,6,0,P|440:56|472:144,1,180,0|2,0:0|0:0,0:0:0:0:
256,64,194641,5,2,0:0:0:0:
472,224,195506,1,2,0:0:0:0:
216,320,196372,5,2,0:0:0:0:
96,184,196949,1,2,0:0:0:0:
336,64,197814,1,2,0:0:0:0:
424,224,198391,6,0,L|392:320,1,90,0|2,0:0|0:0,0:0:0:0:
216,296,199256,1,2,0:0:0:0:
88,168,199833,2,0,L|120:72,1,90,0|2,0:0|0:0,0:0:0:0:
336,64,200987,5,2,0:0:0:0:
408,232,201564,1,2,0:0:0:0:
232,272,202140,2,0,L|128:304,1,90,0|2,0:0|0:0,0:0:0:0:
80,128,203006,6,0,P|80:216|88:224,1,90,0|2,0:0|0:0,0:0:0:0:
224,312,203871,1,0,0:0:0:0:
496,312,204736,1,2,0:0:0:0:
312,112,205602,5,2,0:0:0:0:
368,280,206178,1,0,0:0:0:0:
256,192,206467,12,0,210793,0:0:0:0:
256,64,213101,5,4,0:0:0:0:
408,160,213678,1,8,0:0:0:0:
440,248,213966,1,0,0:0:0:0:
400,328,214255,1,0,0:0:0:0:
216,328,214832,1,8,0:0:0:0:
32,328,215408,5,4,0:2:0:0:
32,240,215697,1,0,0:0:0:0:
32,152,215985,1,8,0:0:0:0:
200,96,216562,1,0,0:0:0:0:
376,48,217139,1,8,0:0:0:0:
384,224,217716,6,0,L|360:328,2,90,4|0|8,0:0|0:0|0:0,0:0:0:0:
256,96,218870,1,0,0:0:0:0:
128,224,219446,2,0,L|152:328,2,90,8|0|0,0:0|0:0|0:0,0:0:0:0:
64,56,220600,5,8,0:0:0:0:
144,96,220889,1,0,0:0:0:0:
224,128,221177,1,0,0:0:0:0:
408,128,221754,2,0,P|464:216|432:296,1,180,4|0,0:0|0:0,0:0:0:0:
360,328,222619,1,0,0:0:0:0:
176,328,223196,6,0,P|120:240|152:160,1,180,0|0,0:0|0:0,0:0:0:0:
224,136,224061,1,8,0:0:0:0:
392,88,224638,1,4,0:0:0:0:
440,264,225215,2,0,L|360:320,2,90,0|4|0,0:0|0:0|0:0,0:0:0:0:
272,336,226369,6,0,P|256:224|288:136,1,180,8|4,0:0|0:0,0:0:0:0:
128,56,227523,1,8,0:0:0:0:
128,144,227811,1,4,0:0:0:0:
128,328,228388,1,0,0:0:0:0:
256,192,228965,12,4,231561,0:0:0:0:
112,80,232138,5,0,0:0:0:0:
128,168,232426,1,0,0:0:0:0:
256,296,233003,1,0,0:0:0:0:
304,224,233291,1,0,0:0:0:0:
408,80,233868,6,0,P|456:208|392:328,1,270
256,192,235022,12,4,240791,0:0:0:0:
