osu file format v13

[General]
AudioFilename: ZxPmRKkFMGpZ.128.mp3
AudioLeadIn: 0
PreviewTime: 138405
Countdown: 0
SampleSet: Soft
StackLeniency: 0.7
Mode: 0
LetterboxInBreaks: 1
EpilepsyWarning: 1
WidescreenStoryboard: 1

[Editor]
Bookmarks: 10336,35434,38030,63124,69469,74661,79709,83314,87352,91967,96582,102351,111869,142732,147347,151961,161191,165806,176190,184555,213109,231569
DistanceSpacing: 1
BeatDivisor: 4
GridSize: 8
TimelineZoom: 1

[Metadata]
Title:My Secret
TitleUnicode:My Secret
Artist:G.E.M
ArtistUnicode:G.E.M
Creator:al2e10
Version:Alarmable
Source:
Tags:我的秘密
BeatmapID:300446
BeatmapSetID:116436

[Difficulty]
HPDrainRate:7
CircleSize:4
OverallDifficulty:8
ApproachRate:8
SliderMultiplier:1.8
SliderTickRate:1

[Events]
//Background and Video events
0,0,"al2e10bg.png",0,0
//Break Periods
2,35626,36983
2,63315,64384
2,103407,111111
2,178689,183796
//Storyboard Layer 0 (Background)
//Storyboard Layer 1 (Fail)
//Storyboard Layer 2 (Pass)
//Storyboard Layer 3 (Foreground)
//Storyboard Sound Samples
//Background Colour Transformations
3,100,163,162,255

[TimingPoints]
10044,576.867608883761,4,2,0,70,1,0
12215,-100,4,2,0,30,0,0
12504,-100,4,2,0,70,0,0
14523,-100,4,2,0,30,0,0
14811,-100,4,2,0,70,0,0
15388,-100,4,2,0,30,0,0
15677,-100,4,2,0,70,0,0
20003,-100,4,2,0,30,0,0
20291,-100,4,2,0,70,0,0
23753,-100,4,2,0,30,0,0
24041,-100,4,2,0,70,0,0
26349,-100,4,2,0,30,0,0
26637,-100,4,2,0,70,0,0
28368,-100,4,2,0,30,0,0
28656,-100,4,2,0,70,0,0
30675,-100,4,2,0,30,0,0
30964,-100,4,2,0,70,0,0
37597,-100,4,2,0,50,0,0
37886,-100,4,2,0,70,0,0
56923,-100,4,2,0,30,0,0
57211,-100,4,2,0,70,0,0
59230,-100,4,2,0,30,0,0
59518,-100,4,2,0,70,0,0
61538,-100,4,2,0,30,0,0
61826,-100,4,2,0,70,0,0
65287,-100,4,1,0,70,0,0
69614,-100,4,1,0,30,0,0
69902,-100,4,1,0,70,0,0
76536,-100,4,1,0,30,0,0
76824,-100,4,1,0,70,0,0
91535,-100,4,1,0,30,0,0
91823,-100,4,1,0,70,0,0
97303,-100,4,1,0,30,0,0
97592,-100,4,1,0,70,0,0
111725,-100,4,2,0,70,0,0
119513,-100,4,3,0,70,0,0
120955,-100,4,2,0,70,0,0
130762,-100,4,2,0,30,0,0
131050,-100,4,2,0,70,0,0
133069,-100,4,2,0,30,0,0
133358,-100,4,2,0,70,0,0
135377,-100,4,2,0,30,0,0
135665,-100,4,2,0,70,0,0
138397,-100,4,2,0,70,0,1
138549,-100,4,3,0,70,0,0
139415,-100,4,1,0,70,0,0
187150,-100,4,2,0,70,0,0
208639,-100,4,1,0,50,0,0
209504,-100,4,1,0,60,0,0
210658,-100,4,1,0,70,0,0
210946,-100,4,2,0,70,0,0
211523,-200,4,2,0,70,0,0
212388,-100,4,2,0,70,0,0
212965,-100,4,1,0,70,0,0

[Colours]
Combo1 : 64,0,64
Combo2 : 0,255,255
Combo3 : 18,124,255
Combo4 : 128,0,255

[HitObjects]
456,120,10332,5,0,0:0:0:0:
376,80,10620,1,0,0:0:0:0:
296,112,10909,2,0,P|232:112|208:96,1,90,2|0,0:0|0:0,0:0:0:0:
136,64,11486,1,0,0:0:0:0:
56,96,11774,2,0,L|48:192,1,90,2|0,0:0|0:0,0:0:0:0:
104,368,12351,1,2,0:0:0:0:
176,304,12639,2,0,P|256:264|336:312,1,180,0|2,0:0|0:0,0:0:0:0:
432,72,13793,5,0,0:0:0:0:
432,72,14082,2,0,P|352:136|280:112,1,180,2|2,0:0|0:0,0:0:0:0:
208,64,14947,1,0,0:0:0:0:
128,112,15235,1,0,0:0:0:0:
48,72,15524,1,2,0:0:0:0:
128,24,15812,5,0,0:0:0:0:
80,104,16101,1,0,0:0:0:0:
72,192,16389,1,2,0:0:0:0:
96,280,16677,2,0,P|176:336|280:336,1,180,0|0,0:0|0:0,0:0:0:0:
344,320,17543,1,0,0:0:0:0:
432,336,17831,1,0,0:0:0:0:
432,56,18697,5,2,0:0:0:0:
320,120,18985,1,0,0:0:0:0:
200,96,19273,1,2,0:0:0:0:
112,48,19562,6,0,P|48:56|32:88,1,90
24,176,20139,1,2,0:0:0:0:
32,280,20427,2,0,L|136:296,1,90
200,360,21004,1,2,0:0:0:0:
304,368,21292,2,0,B|368:336|344:264|440:240,2,180,0|0|2,0:0|0:0|0:0,0:0:0:0:
56,136,23311,5,2,0:0:0:0:
184,72,23600,1,0,0:0:0:0:
328,104,23888,1,2,0:0:0:0:
416,48,24177,5,0,0:0:0:0:
416,152,24465,1,0,0:0:0:0:
432,256,24754,2,0,L|456:344,1,90,2|0,0:0|0:0,0:0:0:0:
368,344,25330,2,0,P|256:336|176:368,1,180
96,240,26196,5,2,0:0:0:0:
136,344,26484,1,2,0:0:0:0:
192,144,26773,1,0,0:0:0:0:
200,256,27061,1,2,0:0:0:0:
296,72,27350,1,0,0:0:0:0:
280,192,27638,1,2,0:0:0:0:
384,272,27926,6,0,P|400:224|400:168,1,90
432,48,28503,2,0,P|440:160|480:248,1,180,4|0,0:0|0:0,0:0:0:0:
432,336,29369,2,0,L|320:352,1,90
80,336,29945,6,0,L|192:352,1,90
192,248,30522,2,0,P|183:203|165:162,1,90,0|4,0:0|0:0,0:0:0:0:
96,80,31099,1,0,0:0:0:0:
200,64,31388,2,0,P|248:56|312:64,1,90
432,344,32253,6,0,L|408:256,1,90
224,344,32830,2,0,P|320:288|328:216,1,180
128,344,33695,2,0,L|96:248,1,90,0|2,0:0|0:0,0:0:0:0:
32,72,34560,5,0,0:0:0:0:
128,96,34849,1,0,0:0:0:0:
240,112,35137,1,0,0:0:0:0:
408,120,35426,1,2,0:0:0:0:
408,328,37733,5,4,0:0:0:0:
312,304,38022,1,0,0:0:0:0:
208,328,38310,2,0,L|152:320,2,45
112,248,38887,5,8,0:3:0:0:
8,296,39175,1,0,0:0:0:0:
16,192,39464,1,8,0:0:0:0:
64,104,39752,2,0,P|104:48|160:24,2,90
256,104,40617,2,0,P|216:48|160:24,2,90
224,328,41771,5,8,0:0:0:0:
336,352,42060,1,0,0:0:0:0:
440,320,42348,1,0,0:0:0:0:
464,216,42637,5,0,0:0:0:0:
472,184,42781,1,0,0:0:0:0:
472,144,42925,1,0,0:0:0:0:
440,56,43213,1,0,0:0:0:0:
336,32,43502,2,0,P|256:24|224:32,1,90
128,24,44079,2,0,L|160:120,1,90,8|0,0:0|0:0,0:0:0:0:
48,128,44656,5,0,0:0:0:0:
144,336,45232,1,0,0:0:0:0:
256,320,45521,1,0,0:0:0:0:
368,336,45809,1,0,0:0:0:0:
320,176,46386,1,8,0:0:0:0:
192,176,46675,1,0,0:0:0:0:
256,80,46963,1,0,0:0:0:0:
144,96,47251,5,0,0:0:0:0:
112,88,47396,1,0,0:0:0:0:
80,88,47540,1,0,0:0:0:0:
16,16,47828,1,0,0:0:0:0:
32,160,48117,2,0,P|56:224|56:280,1,90
48,344,48694,1,8,0:0:0:0:
48,344,48982,2,0,P|160:328|264:352,1,180
448,128,50136,5,0,0:0:0:0:
384,40,50424,1,0,0:0:0:0:
336,136,50713,1,0,0:0:0:0:
144,80,51001,2,0,P|224:88|256:112,1,90,8|0,0:0|0:0,0:0:0:0:
248,200,51578,2,0,P|168:192|136:168,1,90
64,120,52155,5,0,0:0:0:0:
80,224,52443,2,0,P|88:288|104:328,1,90
24,352,53020,1,0,0:0:0:0:
192,336,53309,1,8,0:0:0:0:
296,344,53597,1,0,0:0:0:0:
392,304,53885,2,0,P|408:224|408:168,2,135
480,360,55039,1,0,0:0:0:0:
320,264,55328,6,0,P|280:224|216:216,1,90,0|8,0:0|0:0,0:0:0:0:
144,264,55904,2,0,P|128:168|144:64,1,180
56,56,56770,1,8,0:0:0:0:
240,88,57058,1,8,0:0:0:0:
328,56,57347,5,0,0:0:0:0:
312,144,57635,2,0,L|320:240,1,90,0|8,0:0|0:0,0:0:0:0:
424,312,58212,2,0,B|336:304|264:336|208:312,1,180
136,352,59077,1,8,0:0:0:0:
40,296,59366,1,8,0:0:0:0:
8,96,59943,6,0,P|72:88|104:56,1,90,0|8,0:0|0:0,0:0:0:0:
176,32,60519,2,0,P|224:120|224:200,1,180
184,280,61385,1,8,0:0:0:0:
112,344,61673,2,0,P|64:352|24:320,1,90,8|0,0:0|0:0,0:0:0:0:
88,256,62250,1,0,0:0:0:0:
232,352,62538,1,8,0:0:0:0:
248,184,62827,2,0,P|272:144|288:96,1,90,0|2,0:0|0:0,0:0:0:0:
256,192,65134,5,0,0:0:0:0:
256,192,65423,1,4,0:0:0:0:
208,72,65711,1,0,0:0:0:0:
176,88,65855,1,0,0:0:0:0:
160,120,66000,1,8,0:0:0:0:
136,232,66288,1,0,0:0:0:0:
80,336,66577,2,0,L|192:320,1,90
432,336,67153,6,0,L|320:320,1,90,8|0,0:0|0:0,0:0:0:0:
152,280,67730,1,0,0:0:0:0:
152,280,68019,1,0,0:0:0:0:
96,176,68307,2,0,L|208:192,1,90,8|0,0:0|0:0,0:0:0:0:
376,232,68884,1,0,0:0:0:0:
456,80,69172,5,2,0:0:0:0:
304,96,69461,1,8,0:0:0:0:
216,160,69749,1,2,0:0:0:0:
176,224,70038,1,4,0:0:0:0:
104,248,70326,5,0,0:0:0:0:
72,232,70470,1,0,0:0:0:0:
56,200,70615,1,8,0:0:0:0:
56,104,70903,2,0,P|80:56|144:32,1,90
216,32,71480,2,0,L|344:32,1,90,0|8,0:0|0:0,0:0:0:0:
408,32,72057,1,0,0:0:0:0:
408,32,72345,1,4,0:0:0:0:
408,224,72634,6,0,L|408:112,1,90,0|8,0:0|0:0,0:0:0:0:
312,272,73211,2,0,L|312:152,1,90
312,168,73643,1,0,0:0:0:0:
312,152,73787,1,0,0:0:0:0:
208,128,74076,2,0,L|208:240,1,90,8|0,0:0|0:0,0:0:0:0:
96,280,74653,2,0,L|96:96,1,180,4|8,0:0|0:0,0:0:0:0:
24,72,75518,5,4,0:2:0:0:
168,32,75806,1,0,0:0:0:0:
136,176,76095,1,0,0:0:0:0:
104,312,76383,2,8,P|168:328|216:312,1,90
336,352,76960,6,0,P|328:256|304:200,1,135,4|0,0:0|0:0,0:0:0:0:
296,192,77537,1,8,0:0:0:0:
304,24,77825,1,4,0:2:0:0:
456,104,78114,1,0,0:0:0:0:
472,136,78258,1,0,0:0:0:0:
472,168,78402,1,0,0:0:0:0:
448,272,78691,6,0,P|400:320|368:320,1,90,8|0,0:0|0:0,0:0:0:0:
264,336,79268,1,4,0:2:0:0:
152,304,79556,1,0,0:0:0:0:
40,336,79844,2,0,L|24:232,1,90,8|0,0:0|0:0,0:0:0:0:
136,40,80710,5,0,0:0:0:0:
248,72,80998,2,0,P|200:104|168:160,1,90,8|0,0:0|0:0,0:0:0:0:
128,216,81575,1,4,0:0:0:0:
280,320,81864,1,0,0:0:0:0:
384,168,82152,1,8,0:0:0:0:
232,64,82440,2,0,P|248:128|248:208,1,135,4|0,0:0|0:0,0:0:0:0:
240,232,83017,1,0,0:0:0:0:
184,336,83306,5,8,0:0:0:0:
152,336,83450,1,0,0:0:0:0:
120,344,83594,1,0,0:0:0:0:
32,256,83883,1,4,0:0:0:0:
56,136,84171,1,0,0:0:0:0:
152,56,84459,2,0,P|208:56|272:32,1,90,8|0,0:0|0:0,0:0:0:0:
352,16,85036,2,0,L|376:128,1,90
472,128,85613,5,8,0:0:0:0:
288,104,85902,1,0,0:0:0:0:
456,208,86190,1,0,0:0:0:0:
296,184,86478,1,0,0:0:0:0:
440,280,86767,1,8,0:0:0:0:
304,264,87055,1,0,0:0:0:0:
416,352,87344,1,0,0:0:0:0:
384,360,87488,1,0,0:0:0:0:
280,352,87776,1,0,0:0:0:0:
248,360,87921,1,8,0:0:0:0:
144,336,88209,1,0,0:0:0:0:
40,352,88497,5,4,0:0:0:0:
176,256,88786,1,0,0:0:0:0:
32,192,89074,1,8,0:0:0:0:
128,40,89363,2,0,P|112:104|72:152,1,90
256,168,89940,2,0,L|256:72,1,90,0|8,0:0|0:0,0:0:0:0:
384,40,90517,2,0,P|400:104|440:152,1,90,0|2,0:0|0:0,0:0:0:0:
480,216,91093,5,0,0:0:0:0:
376,328,91382,1,8,0:0:0:0:
224,336,91670,1,8,0:0:0:0:
64,320,91959,1,4,0:0:0:0:
88,48,92247,5,0,0:0:0:0:
88,48,92391,1,0,0:0:0:0:
88,48,92536,2,0,P|128:112|136:160,1,90,8|0,0:0|0:0,0:0:0:0:
184,256,93112,1,4,0:0:0:0:
216,224,93257,1,0,0:0:0:0:
344,72,93545,1,0,0:0:0:0:
312,96,93689,2,0,P|280:144|280:192,1,90,8|0,0:0|0:0,0:0:0:0:
384,176,94266,2,0,P|416:224|416:272,1,90
440,368,94843,1,8,0:0:0:0:
328,336,95131,1,0,0:0:0:0:
176,344,95420,6,0,L|80:296,1,90,4|0,0:0|0:0,0:0:0:0:
96,288,95853,1,0,0:0:0:0:
96,272,95997,1,8,0:0:0:0:
160,192,96285,2,0,L|160:88,1,90,4|0,0:0|0:0,0:0:0:0:
160,88,96718,1,0,0:0:0:0:
160,72,96862,1,0,0:0:0:0:
64,48,97151,5,8,0:0:0:0:
248,72,97439,1,8,0:0:0:0:
248,88,97583,1,0,0:0:0:0:
248,104,97727,1,4,0:0:0:0:
336,48,98016,1,0,0:0:0:0:
376,144,98304,1,10,0:0:0:0:
472,96,98593,2,0,L|472:224,1,90,2|0,0:0|0:0,0:0:0:0:
472,200,99025,1,0,0:0:0:0:
304,224,99314,1,0,0:0:0:0:
304,240,99458,2,0,L|304:336,1,90,8|0,0:0|0:0,0:0:0:0:
192,320,100035,6,0,P|120:304|80:320,1,90,4|0,0:0|0:0,0:0:0:0:
16,336,100612,2,0,L|40:224,1,90,4|0,0:2|0:0,0:0:0:0:
32,128,101189,1,4,0:2:0:0:
136,56,101477,1,0,0:0:0:0:
240,120,101765,1,4,0:2:0:0:
256,128,101910,1,0,0:0:0:0:
272,128,102054,1,0,0:0:0:0:
376,80,102342,2,0,P|456:208|392:328,1,270,4|0,0:0|0:0,0:0:0:0:
448,96,111861,6,0,L|320:64,1,90
248,48,112438,1,0,0:0:0:0:
136,24,112726,2,0,P|120:96|128:144,1,90
120,224,113303,1,8,0:0:0:0:
64,328,113591,2,0,P|168:320|272:344,2,180
464,328,115322,6,2,L|360:344,1,90,2|8,0:0|0:0,0:0:0:0:
288,232,115899,2,0,L|408:264,1,90,2|0,0:0|0:0,0:0:0:0:
312,112,116476,5,0,0:0:0:0:
216,112,116764,1,0,0:0:0:0:
128,64,117052,1,2,0:0:0:0:
32,48,117341,2,0,L|56:152,1,90,2|0,0:0|0:0,0:0:0:0:
32,248,117918,1,8,0:0:0:0:
104,336,118206,2,0,B|152:288|232:352|280:272,1,180
464,336,119360,5,0,0:0:0:0:
360,320,119648,1,0,0:0:0:0:
328,312,119793,1,8,0:2:0:0:
304,288,119937,1,0,0:0:0:0:
272,304,120081,1,2,0:0:0:0:
240,304,120225,1,4,0:0:0:0:
208,288,120369,1,0,2:0:0:0:
192,256,120514,1,4,0:2:0:0:
176,168,120802,1,4,0:1:0:0:
96,96,121091,6,0,P|160:56|216:56,1,90
304,24,121667,1,0,0:0:0:0:
256,120,121956,1,0,0:0:0:0:
320,200,122244,1,0,0:0:0:0:
416,208,122533,1,8,0:0:0:0:
480,280,122821,2,0,P|376:288|312:344,2,180
416,360,124263,5,0,0:0:0:0:
256,280,124552,1,0,0:0:0:0:
168,272,124840,1,8,0:0:0:0:
88,296,125129,1,0,0:0:0:0:
40,368,125417,1,0,0:0:0:0:
56,160,125705,6,0,L|40:264,1,90
184,343,126282,2,0,L|160:247,1,90
296,168,126859,2,0,L|264:272,1,90,0|8,0:0|0:0,0:0:0:0:
408,344,127436,2,0,P|400:240|424:144,1,180
456,64,128590,5,0,3:0:0:0:
456,64,128878,1,0,3:0:0:0:
344,80,129167,1,4,0:3:0:0:
264,152,129455,1,8,0:0:0:0:
192,64,129744,6,0,P|144:152|144:256,1,180
64,304,130609,1,8,0:0:0:0:
176,312,130897,2,0,L|272:328,1,90,8|2,0:0|0:0,0:0:0:0:
480,288,131474,6,0,P|432:256|376:256,1,90,0|8,0:0|0:0,0:0:0:0:
312,312,132051,2,0,P|296:200|312:112,1,180
392,48,132916,1,8,0:0:0:0:
264,80,133205,1,8,0:0:0:0:
144,48,133493,1,2,0:0:0:0:
48,24,133782,6,0,P|64:96|56:136,1,90,0|8,0:0|0:0,0:0:0:0:
32,208,134358,1,0,0:0:0:0:
72,312,134647,2,0,P|184:304|264:336,1,180,2|8,0:0|0:0,0:0:0:0:
368,344,135512,2,0,L|352:224,1,90,8|2,0:0|0:0,0:0:0:0:
416,208,136089,5,0,0:0:0:0:
304,136,136378,1,8,0:0:0:0:
176,128,136666,1,0,0:0:0:0:
64,56,136954,1,2,0:0:0:0:
400,32,138397,5,4,0:0:0:0:
256,104,138685,1,0,0:0:0:0:
256,136,138829,1,8,0:2:0:0:
255,168,138973,1,2,0:3:0:0:
256,200,139118,1,0,0:0:0:0:
256,232,139262,1,4,1:1:0:0:
72,312,139550,6,0,L|184:296,1,90,0|8,0:0|0:0,0:0:0:0:
296,320,140127,1,0,0:0:0:0:
432,344,140416,1,0,0:0:0:0:
480,216,140704,1,0,0:0:0:0:
480,96,140992,5,8,0:0:0:0:
384,280,141281,1,0,0:0:0:0:
408,64,141569,1,0,0:0:0:0:
352,200,141858,1,0,0:0:0:0:
328,56,142146,1,8,0:0:0:0:
288,144,142435,1,0,0:0:0:0:
248,72,142723,1,0,0:0:0:0:
200,16,143011,5,2,0:0:0:0:
112,136,143300,1,8,0:0:0:0:
80,280,143588,1,2,0:0:0:0:
72,360,143877,2,0,L|176:344,1,90,4|0,0:0|0:0,0:0:0:0:
256,192,144454,2,0,L|256:320,1,90,8|0,0:0|0:0,0:0:0:0:
440,360,145031,2,0,L|336:344,1,90
352,272,145607,1,8,0:0:0:0:
160,272,145896,1,0,0:0:0:0:
104,208,146184,5,4,0:0:0:0:
112,96,146473,1,0,0:0:0:0:
200,24,146761,1,8,0:0:0:0:
312,16,147050,1,0,0:0:0:0:
424,32,147338,2,0,L|480:56,1,45
480,160,147771,2,0,L|424:176,1,45
368,256,148203,1,0,0:0:0:0:
456,344,148492,6,0,L|344:352,1,90,4|0,0:0|0:0,0:0:0:0:
248,312,149069,1,8,0:0:0:0:
128,344,149357,2,0,P|104:280|104:224,1,90
56,152,149934,1,0,0:0:0:0:
120,56,150222,2,0,L|232:32,1,90,8|0,0:0|0:0,0:0:0:0:
320,24,150799,6,0,P|352:88|360:136,1,90,4|0,0:0|0:0,0:0:0:0:
360,144,151232,1,0,0:0:0:0:
352,176,151376,1,8,0:0:0:0:
440,248,151664,1,4,0:0:0:0:
352,312,151953,1,4,0:2:0:0:
264,248,152241,1,0,0:0:0:0:
168,304,152530,5,8,0:0:0:0:
64,312,152818,1,0,0:0:0:0:
48,280,152962,1,0,0:0:0:0:
48,248,153107,1,4,0:0:0:0:
80,160,153395,1,0,0:0:0:0:
48,64,153684,2,0,L|176:32,2,90,8|0|0,0:0|0:0|0:0,0:0:0:0:
248,56,154549,5,0,0:0:0:0:
360,96,154837,1,8,0:0:0:0:
456,40,155126,1,0,0:0:0:0:
456,152,155414,2,0,P|448:216|464:280,1,90,4|0,0:0|0:0,0:0:0:0:
480,336,155991,1,0,0:0:0:0:
480,336,156279,2,0,P|360:320|272:344,1,180,4|0,0:0|0:0,0:0:0:0:
192,336,157145,5,0,0:0:0:0:
152,336,157289,1,2,0:3:0:0:
120,344,157433,1,4,3:0:0:0:
120,312,157577,1,4,2:1:0:0:
112,280,157722,1,4,0:0:0:0:
56,192,158010,1,0,0:0:0:0:
104,32,158298,2,0,P|104:104|88:144,1,90,8|0,0:0|0:0,0:0:0:0:
192,208,158875,5,0,0:0:0:0:
184,32,159164,1,0,0:0:0:0:
272,192,159452,1,8,0:0:0:0:
256,56,159741,1,0,0:0:0:0:
344,168,160029,1,0,0:0:0:0:
328,80,160318,1,0,0:0:0:0:
416,144,160606,1,8,0:0:0:0:
400,112,160894,1,0,0:0:0:0:
440,120,161183,1,0,0:0:0:0:
472,32,161471,5,2,0:0:0:0:
472,200,161760,1,8,0:0:0:0:
384,344,162048,1,2,0:0:0:0:
280,360,162337,2,0,P|216:344|152:352,1,90,4|0,0:0|0:0,0:0:0:0:
88,352,162913,1,8,0:0:0:0:
88,352,163058,1,0,0:0:0:0:
88,352,163202,1,0,0:0:0:0:
48,256,163490,2,0,P|64:192|64:136,1,90
40,56,164067,5,8,0:0:0:0:
152,112,164356,1,0,0:0:0:0:
264,48,164644,1,4,0:0:0:0:
440,88,164932,2,2,P|384:88|344:56,1,90,0|8,0:0|0:0,0:0:0:0:
320,168,165509,2,0,L|328:296,1,90
328,296,165942,1,0,0:0:0:0:
464,328,166230,1,0,0:0:0:0:
432,328,166375,2,0,P|312:336|248:360,2,180,8|4|8,0:0|0:0|0:0,0:0:0:0:
464,248,167817,5,0,0:0:0:0:
368,248,168105,1,0,0:0:0:0:
272,208,168394,1,0,0:0:0:0:
192,136,168682,1,8,0:0:0:0:
160,40,168971,1,0,0:0:0:0:
192,40,169115,1,0,0:0:0:0:
224,48,169259,1,4,0:0:0:0:
328,24,169547,2,0,L|352:120,1,90,0|8,0:0|0:0,0:0:0:0:
472,168,170124,2,0,L|448:72,1,90,4|4,0:0|0:2,0:0:0:0:
384,176,170701,5,0,0:0:0:0:
200,208,170990,1,4,0:0:0:0:
80,272,171278,1,0,0:0:0:0:
32,344,171566,2,0,L|144:352,1,90
232,336,172143,5,8,0:0:0:0:
352,360,172432,1,0,0:0:0:0:
464,320,172720,1,0,0:0:0:0:
448,288,172864,1,0,0:0:0:0:
456,256,173009,2,0,P|464:192|456:144,1,90,0|8,0:0|0:0,0:0:0:0:
480,72,173585,1,0,0:0:0:0:
376,96,173874,2,0,P|304:88|272:64,1,90
168,32,174451,5,8,0:0:0:0:
168,32,174739,1,0,0:0:0:0:
72,112,175028,2,0,L|16:96,2,45
192,152,175605,2,0,L|240:184,2,45,8|0|0,0:0|0:0|0:0,0:0:0:0:
256,192,176037,12,4,178489,0:0:0:0:
432,56,184546,5,0,0:0:0:0:
440,88,184690,1,2,2:3:0:0:
432,120,184834,1,8,3:3:0:0:
408,144,184979,1,4,3:3:0:0:
376,152,185123,1,0,0:0:0:0:
280,136,185411,2,0,P|184:112|88:136,1,180,4|0,1:1|2:0,0:0:0:0:
24,56,186277,2,0,L|48:240,1,180,4|4,0:0|2:3,0:0:0:0:
448,328,187430,5,0,0:0:0:0:
344,320,187719,2,0,P|280:320|232:336,1,90,2|0,0:0|0:0,0:0:0:0:
160,336,188296,1,0,1:0:0:0:
56,344,188584,2,0,L|80:248,1,90
72,152,189161,5,8,0:3:0:0:
440,56,189738,1,0,0:0:0:0:
368,184,190026,2,0,P|384:264|384:336,1,135,4|0,0:1|0:0,0:0:0:0:
376,352,190603,1,8,0:3:0:0:
272,328,190891,2,0,L|80:336,1,180
56,264,191757,2,0,P|32:152|48:56,1,180,0|2,0:0|0:0,0:0:0:0:
440,88,194353,5,0,0:0:0:0:
336,56,194641,1,2,0:0:0:0:
56,112,195506,1,2,0:0:0:0:
448,312,196372,5,2,0:0:0:0:
344,288,196660,1,0,0:0:0:0:
240,288,196949,1,2,0:0:0:0:
48,336,197525,5,0,0:0:0:0:
64,240,197814,1,2,0:0:0:0:
192,40,198391,2,0,P|208:96|192:168,1,90,0|2,0:0|0:0,0:0:0:0:
168,256,198968,5,0,0:0:0:0:
248,336,199256,1,2,0:0:0:0:
488,248,199833,1,0,0:0:0:0:
488,248,200121,1,2,0:0:0:0:
80,56,200987,5,2,0:0:0:0:
112,160,201275,2,0,P|120:224|112:264,1,90,0|2,0:0|0:0,0:0:0:0:
48,344,201852,1,0,0:0:0:0:
144,312,202140,1,0,0:0:0:0:
240,344,202429,2,0,P|312:344|352:368,1,90,2|0,0:0|0:0,0:0:0:0:
384,48,203294,6,0,P|256:88|104:48,1,270,2|0,0:0|0:0,0:0:0:0:
48,240,204736,5,2,0:0:0:0:
80,336,205025,1,0,0:0:0:0:
184,352,205313,1,0,0:0:0:0:
264,288,205602,2,0,L|288:184,1,90,2|0,0:0|0:0,0:0:0:0:
312,112,206178,2,0,P|392:88|464:104,2,135,0|0|2,0:0|0:0|0:0,0:0:0:0:
384,192,207332,1,2,0:0:0:0:
464,328,207909,5,2,0:0:0:0:
368,296,208198,1,0,0:0:0:0:
272,304,208486,1,2,0:0:0:0:
192,352,208774,1,0,0:0:0:0:
144,272,209063,1,0,0:0:0:0:
64,224,209351,1,0,0:0:0:0:
32,128,209640,6,0,L|106:78,1,90
248,80,210217,2,0,L|152:144,1,90
128,240,210793,5,0,0:0:0:0:
304,320,211082,1,0,0:0:0:0:
384,144,211370,1,0,0:0:0:0:
208,64,211659,6,0,P|224:120|216:160,1,90,0|0,0:0|0:0,0:0:0:0:
72,320,212812,5,0,0:0:0:0:
72,320,213101,2,0,L|192:288,1,90,4|0,0:0|0:0,0:0:0:0:
440,224,213678,2,0,L|320:256,1,90,4|0,0:0|0:0,0:0:0:0:
136,240,214255,5,0,0:0:0:0:
304,160,214543,1,0,0:0:0:0:
152,160,214832,1,8,0:0:0:0:
328,88,215120,1,0,0:0:0:0:
200,104,215408,1,4,0:2:0:0:
392,48,215697,1,0,0:0:0:0:
264,64,215985,1,8,0:0:0:0:
464,24,216274,1,0,0:0:0:0:
328,40,216562,1,0,0:0:0:0:
184,32,216851,6,0,P|120:40|80:88,1,90,0|8,0:0|0:0,0:0:0:0:
136,192,217427,2,0,P|200:184|240:136,1,90,0|4,0:0|0:0,0:0:0:0:
48,128,218004,1,0,0:0:0:0:
32,240,218293,1,8,0:0:0:0:
80,336,218581,1,0,0:0:0:0:
256,320,218870,2,0,L|160:328,1,90
304,248,219446,2,0,L|400:240,1,90
424,320,220023,5,0,0:0:0:0:
376,176,220312,1,0,0:0:0:0:
232,208,220600,1,8,0:0:0:0:
264,352,220889,1,0,0:0:0:0:
128,304,221177,2,0,L|64:264,1,45
48,168,221610,5,0,0:0:0:0:
80,144,221754,1,8,0:0:0:0:
128,40,222042,1,0,0:0:0:0:
160,56,222187,1,0,0:0:0:0:
192,72,222331,1,4,0:0:0:0:
304,48,222619,1,0,0:0:0:0:
400,104,222908,1,8,0:0:0:0:
480,32,223196,5,0,0:0:0:0:
488,152,223485,2,0,P|496:224|488:256,1,90
472,328,224061,2,0,L|352:352,1,90,8|0,0:0|0:0,0:0:0:0:
352,352,224494,1,0,0:0:0:0:
320,360,224638,1,4,0:0:0:0:
216,320,224927,1,0,0:0:0:0:
112,312,225215,1,8,0:0:0:0:
32,248,225504,2,0,P|24:176|32:128,1,90,4|0,0:0|0:0,0:0:0:0:
40,128,225936,1,0,0:0:0:0:
64,104,226080,1,0,0:0:0:0:
24,16,226369,5,8,0:0:0:0:
144,48,226657,1,0,0:0:0:0:
160,80,226802,1,0,0:0:0:0:
160,112,226946,1,4,0:0:0:0:
128,224,227234,1,0,0:0:0:0:
160,328,227523,1,8,0:0:0:0:
192,344,227667,1,0,0:0:0:0:
224,344,227811,1,4,0:0:0:0:
328,328,228099,6,0,L|336:256,1,45
336,248,228388,1,0,0:0:0:0:
376,152,228676,1,8,0:0:0:0:
456,88,228965,1,0,0:0:0:0:
376,16,229253,2,0,L|264:48,1,90,2|0,0:0|0:0,0:0:0:0:
184,32,229830,2,0,P|192:120|200:128,1,90,10|0,0:0|0:0,0:0:0:0:
264,192,230407,2,0,P|267:194|292:272,1,90,2|0,0:0|0:0,0:0:0:0:
72,336,230984,5,10,0:0:0:0:
80,224,231272,1,0,0:0:0:0:
168,296,231561,2,0,B|272:280|352:320|464:280,1,270,4|4,0:0|0:0,0:0:0:0:
440,200,232714,6,0,L|448:144,2,45
328,168,233291,1,8,0:0:0:0:
216,208,233580,2,0,L|200:264,2,45,0|0|4,0:0|0:0|0:0,0:0:0:0:
104,176,234157,1,0,0:0:0:0:
0,208,234445,1,0,0:0:0:0:
32,104,234733,1,2,0:2:0:0:
136,72,235022,6,8,P|184:96|208:144,1,90
376,312,235599,2,0,P|328:288|304:240,1,90
256,192,236176,1,4,0:0:0:0:
256,192,236464,12,4,240791,0:0:0:0:
