osu file format v9

[General]
AudioFilename: G.Addict -monochrome.mp3
AudioLeadIn: 2000
PreviewTime: 68001
Countdown: 0
SampleSet: Normal
StackLeniency: 0.7
Mode: 1
LetterboxInBreaks: 1

[Editor]
DistanceSpacing: 1
BeatDivisor: 4
GridSize: 4

[Metadata]
Title:monochrome (Short Ver.)
Artist:G.Addict
Creator:kanpakyin
Version:Taiko
Source:Goulart Knights
Tags:Kazuma Horie Abe Atsushi Takuma Terashima Kaji Yuuki

[Difficulty]
HPDrainRate:5
CircleSize:5
OverallDifficulty:5
ApproachRate:5
SliderMultiplier:1.4
SliderTickRate:1

[Events]
//Background and Video events
0,0,"Taiko BG.jpg"
//Break Periods
//Storyboard Layer 0 (Background)
//Storyboard Layer 1 (Fail)
//Storyboard Layer 2 (Pass)
//Storyboard Layer 3 (Foreground)
//Storyboard Sound Samples
//Background Colour Transformations
3,100,163,162,255

[TimingPoints]
456,444.444444444444,4,1,0,60,1,0
68011,-100,4,1,0,60,0,1
98233,-100,4,1,0,60,0,0

[Colours]
Combo1 : 255,128,0
Combo2 : 40,205,31
Combo3 : 45,88,228

[HitObjects]
365,117,455,1,0
365,117,678,1,0
365,117,900,1,8
365,117,1122,1,0
365,117,1344,1,8
365,117,1567,1,0
365,117,1678,1,0
365,117,1789,1,8
365,117,2011,1,8
365,117,2122,1,0
365,117,2344,1,0
365,117,2456,1,8
365,117,2678,1,0
365,117,2900,1,8
365,117,3122,1,8
365,117,3344,1,0
365,117,3567,1,8
365,117,3789,1,0
365,117,4011,1,4
365,117,4233,1,0
365,117,4344,1,0
365,117,4456,1,0
365,117,4678,1,0
365,117,4900,1,8
365,117,5122,1,0
365,117,5344,1,8
365,117,5567,1,0
365,117,5678,1,0
365,117,5789,1,8
365,117,6011,1,8
365,117,6233,1,0
365,117,6456,1,8
365,117,6678,1,8
365,117,6900,1,8
365,117,7011,1,0
365,117,7122,1,0
365,117,7233,1,8
365,117,7344,1,0
365,117,7456,1,0
365,117,7567,1,8
365,117,7789,1,0
365,117,7900,1,0
365,117,8011,1,8
365,117,8233,1,0
365,117,8456,1,0
365,117,8678,1,8
365,117,8900,1,8
365,117,9122,1,0
365,117,9344,1,8
365,117,9567,1,0
365,117,9678,1,0
365,117,9789,1,0
365,117,10011,1,8
365,117,10122,1,8
365,117,10233,1,0
365,117,10456,1,0
365,117,10678,1,8
365,117,10900,1,8
365,117,11122,1,0
365,117,11344,1,0
365,117,11456,1,0
365,117,11567,1,8
365,117,11789,1,0
365,117,12011,1,8
365,117,12233,1,0
365,117,12344,1,8
365,117,12456,1,0
365,117,12678,1,0
365,117,12900,1,8
365,117,13122,1,8
365,117,13233,1,0
365,117,13344,1,8
365,117,13567,1,8
365,117,13789,2,0,B|267:119,2,70
365,117,14678,1,4
365,117,14900,1,0
365,117,15011,1,0
365,117,15122,1,8
365,117,15344,1,0
365,117,15567,1,8
365,117,15789,1,0
365,117,15900,1,0
365,117,16011,1,0
365,117,16233,1,0
365,117,16344,1,0
365,117,16456,1,8
365,117,16678,1,8
365,117,16900,1,8
365,117,17122,1,8
365,117,17344,1,0
365,117,17567,1,0
365,117,17678,1,0
365,117,17789,1,8
365,117,17900,1,8
365,117,18011,1,0
365,117,18233,1,8
365,117,18344,1,0
365,117,18455,1,8
365,117,18678,1,0
365,117,18900,1,8
365,117,19011,1,0
365,117,19122,1,0
365,117,19344,1,0
365,117,19567,1,8
365,117,19789,1,0
365,117,19900,1,0
365,117,20011,1,8
365,117,20233,1,0
365,117,20455,1,0
365,117,20567,1,0
365,117,20678,1,8
365,117,20789,1,8
365,117,20900,1,0
365,117,21122,1,8
365,117,21233,1,0
365,117,21455,1,0
365,117,21567,1,0
365,117,21789,1,4
365,117,22233,5,8
365,117,22455,1,8
365,117,22567,1,8
365,117,22678,1,0
365,117,22900,1,8
365,117,23122,1,0
365,117,23344,1,0
365,117,23567,1,8
365,117,24011,1,0
365,117,24233,1,8
365,117,24678,1,0
365,117,24900,1,8
365,117,25122,1,0
365,117,25233,1,0
365,117,25344,1,8
365,117,25567,1,0
365,117,25789,1,8
365,117,26011,1,0
365,117,26122,1,0
365,117,26233,1,8
365,117,26455,1,0
365,117,26678,1,8
365,117,26789,1,0
365,117,27011,1,0
365,117,27122,1,8
365,117,27344,1,0
365,117,27567,1,8
365,117,27789,1,0
365,117,27900,1,0
365,117,28011,1,8
365,117,28233,1,0
365,117,28344,1,8
365,117,28455,1,0
365,117,28678,1,0
365,117,28900,1,8
365,117,29233,1,0
365,117,29344,1,8
365,117,29567,1,0
365,117,29789,1,0
365,117,29900,1,8
365,117,30122,1,0
365,117,30233,1,8
365,117,30455,1,0
365,117,30678,1,8
365,117,31011,1,0
365,117,31122,1,0
365,117,31344,1,8
365,117,31567,1,0
365,117,31678,1,0
365,117,31789,1,8
365,117,31900,1,0
365,117,32011,1,8
365,117,32233,1,0
365,117,32455,1,8
365,117,32678,1,0
365,117,32789,1,0
365,117,32900,1,0
365,117,33122,1,0
365,117,33344,1,8
365,117,33567,1,0
365,117,33678,1,8
365,117,33900,1,8
365,117,34011,1,0
365,117,34122,1,0
365,117,34233,1,8
365,117,34455,1,0
365,117,34567,1,0
365,117,34678,1,8
365,117,34900,1,0
365,117,35122,1,0
365,117,35567,1,0
365,117,35678,1,0
365,117,35789,1,0
365,117,35900,1,0
365,117,36011,1,8
365,117,36233,1,0
365,117,36344,1,0
365,117,36455,1,8
365,117,36678,1,0
365,117,36900,1,8
365,117,37122,1,8
365,117,37233,1,8
365,117,37344,1,0
365,117,37567,1,0
365,117,37789,1,8
365,117,38122,1,0
365,117,38233,1,8
365,117,38455,1,0
365,117,38678,1,8
365,117,38900,1,0
365,117,39011,1,0
365,117,39122,1,8
365,117,39344,1,8
365,117,39455,1,8
365,117,39567,1,0
365,117,39789,1,0
365,117,40011,1,0
365,117,40233,1,8
365,117,40344,1,0
365,117,40567,1,0
365,117,40678,1,8
365,117,40900,1,8
365,117,41122,1,0
365,117,41233,1,0
365,117,41344,1,8
365,117,41567,1,0
365,117,41789,1,0
365,117,42011,1,0
365,117,42233,1,8
365,117,42344,1,0
365,117,42567,1,8
365,117,42678,1,0
365,117,42900,1,0
365,117,43011,1,0
365,117,43122,1,8
365,117,43344,1,0
365,117,43567,1,8
365,117,44011,1,8
365,117,44233,1,0
365,117,44455,1,8
365,117,44678,1,0
365,117,44789,1,0
365,117,44900,1,8
365,117,45011,1,8
365,117,45122,1,0
365,117,45344,1,8
365,117,45567,1,0
365,117,45678,1,0
365,117,45789,1,8
365,117,46011,1,0
365,117,46233,1,8
365,117,46344,1,0
365,117,46455,1,0
365,117,46678,1,8
365,117,46789,1,0
365,117,47011,1,8
365,117,47122,1,0
365,117,47344,1,0
365,117,47455,1,8
365,117,47678,1,8
365,117,47789,1,0
365,117,48011,1,8
365,117,48122,1,0
365,117,48233,1,8
365,117,48344,1,8
365,117,48455,1,0
365,117,48678,1,0
365,117,48900,1,8
365,117,49122,1,0
365,117,49233,1,0
365,117,49344,1,0
365,117,49455,1,0
365,117,49567,1,8
365,117,49678,1,8
365,117,49789,1,8
365,117,49900,1,8
365,117,50011,1,0
365,117,50122,1,0
365,117,50233,1,8
365,117,50678,1,0
365,117,50900,1,0
365,117,51122,1,8
365,117,51344,1,0
365,117,51455,1,0
365,117,51567,1,8
365,117,52011,1,0
365,117,52455,1,0
365,117,52678,1,0
365,117,52900,1,8
365,117,53344,1,8
365,117,53789,1,8
365,117,54233,1,0
365,117,54455,1,8
365,117,54900,1,0
365,117,55122,1,8
365,117,55567,1,8
365,117,56011,1,0
365,117,56233,1,0
365,117,56344,1,0
365,117,56455,1,8
365,117,56678,1,0
365,117,56900,1,8
365,117,57344,1,8
365,117,57789,1,8
365,117,58011,1,0
365,117,58233,1,0
365,117,58678,1,8
365,117,59122,1,8
365,117,59567,1,0
365,117,59789,1,0
365,117,60011,1,8
365,117,60455,1,0
365,117,60678,1,0
365,117,60900,1,8
365,117,61011,1,0
365,117,61233,1,8
365,117,61344,1,0
365,117,61567,1,0
365,117,61789,1,8
365,117,62233,1,0
365,117,62455,1,0
365,117,62678,1,8
365,117,63122,1,0
365,117,63344,1,0
365,117,63455,1,0
365,117,63567,1,8
365,117,63789,1,0
365,117,64011,1,0
365,117,64233,1,0
365,117,64455,1,8
365,117,64678,1,0
365,117,64789,1,8
365,117,65011,1,0
365,117,65122,1,8
365,117,65344,1,0
365,117,65455,1,0
365,117,65567,1,8
365,117,65678,1,8
365,117,65789,1,0
365,117,65900,1,8
365,117,66011,1,0
256,192,66233,12,0,67567
363,121,68011,5,4
363,121,68455,1,8
363,121,68678,1,0
363,121,68789,1,0
363,121,68900,1,8
363,121,69122,1,0
363,121,69344,1,8
363,121,69567,1,0
363,121,69678,1,0
363,121,69789,1,8
363,121,70011,1,0
363,121,70122,1,8
363,121,70233,1,0
363,121,70344,1,0
363,121,70455,1,8
363,121,70678,1,8
363,121,71122,1,0
363,121,71344,1,8
363,121,71567,1,8
363,121,71789,1,0
363,121,71900,1,0
363,121,72122,1,0
363,121,72233,1,8
363,121,72455,1,0
363,121,72567,1,0
363,121,72678,1,0
363,121,72789,1,0
363,121,72900,1,8
363,121,73122,1,0
363,121,73344,1,8
363,121,73567,1,8
363,121,73789,1,0
363,121,74011,1,8
363,121,74233,1,0
363,121,74455,1,0
363,121,74567,1,8
363,121,74678,1,0
363,121,74789,1,0
363,121,74900,1,8
363,121,75011,1,0
363,121,75122,1,8
363,121,75344,1,0
363,121,75455,1,0
363,121,75567,1,8
363,121,75789,1,0
363,121,76011,1,8
363,121,76233,1,0
363,121,76344,1,8
363,121,76567,1,0
363,121,76678,1,0
363,121,76789,1,8
363,121,76900,1,0
363,121,77122,1,0
363,121,77344,1,8
363,121,77567,1,0
363,121,77678,1,8
363,121,77900,1,8
363,121,78011,1,8
363,121,78122,1,0
363,121,78233,1,8
363,121,78455,1,0
363,121,78567,1,8
363,121,78678,1,8
363,121,78900,1,0
363,121,79122,1,8
363,121,79344,1,0
363,121,79455,1,8
363,121,79678,1,0
363,121,79789,1,8
363,121,80011,1,0
363,121,80233,1,8
363,121,80455,1,8
363,121,80678,1,0
363,121,80789,1,8
363,121,80900,1,0
363,121,81122,1,0
363,121,81344,1,8
363,121,81567,1,0
363,121,81678,1,8
363,121,81900,1,8
363,121,82011,1,0
363,121,82233,1,0
363,121,82455,1,0
363,121,82567,1,0
363,121,82678,1,8
363,121,82900,1,8
363,121,83122,1,8
363,121,83344,1,0
363,121,83567,1,8
363,121,83789,1,0
363,121,83900,1,0
363,121,84011,1,8
363,121,84233,1,8
363,121,84344,1,8
363,121,84455,1,8
363,121,84678,1,0
363,121,84900,1,8
363,121,85344,1,0
363,121,85567,1,8
363,121,85678,1,0
363,121,85789,1,0
363,121,85900,1,0
363,121,86011,1,0
363,121,86233,1,8
363,121,86344,1,8
363,121,86455,1,0
363,121,86678,1,0
363,121,86900,1,0
363,121,87122,1,8
363,121,87344,1,0
363,121,87567,1,8
363,121,87900,1,0
363,121,88011,1,8
363,121,88233,1,0
363,121,88455,1,8
363,121,88678,1,8
363,121,88789,1,8
363,121,88900,1,8
363,121,89344,1,8
363,121,89567,1,0
363,121,89789,1,8
363,121,90011,1,0
363,121,90455,1,0
363,121,90678,1,8
363,121,90900,1,0
363,121,91011,1,0
363,121,91122,1,8
363,121,91344,1,0
363,121,91567,1,0
363,121,91789,1,8
363,121,92233,1,0
363,121,92455,1,8
363,121,92678,1,8
363,121,92789,1,8
363,121,92900,1,0
363,121,93011,1,0
363,121,93122,1,8
363,121,93344,1,0
363,121,93567,1,0
363,121,93678,1,0
363,121,93789,1,8
363,121,94011,1,0
363,121,94233,1,8
363,121,94455,1,8
363,121,94678,1,4
256,192,94900,12,0,96455
364,113,96900,5,8
364,113,97344,1,8
364,113,97789,1,8
364,113,98011,1,0
364,113,98233,1,8
364,113,98455,1,0
364,113,98567,1,0
364,113,98678,1,0
364,113,98900,1,0
364,113,99122,1,8
364,113,99344,1,0
364,113,99455,1,8
364,113,99567,1,8
364,113,99789,1,0
364,113,100011,1,8
364,113,100233,1,0
364,113,100344,1,8
364,113,100567,1,0
364,113,100678,1,8
364,113,100900,1,0
364,113,101122,1,8
364,113,101233,1,0
364,113,101344,1,0
364,113,101567,1,0
364,113,101789,1,8
364,113,102011,1,0
364,113,102233,1,8
364,113,102455,1,0
364,113,102678,1,8
364,113,102900,1,0
364,113,103011,1,0
364,113,103122,1,8
364,113,103344,1,0
364,113,103567,1,8
364,113,103789,1,0
364,113,103900,1,0
364,113,104011,1,8
364,113,104233,1,8
364,113,104455,1,8
364,113,104678,1,0
364,113,104789,1,0
364,113,104900,1,8
364,113,105011,1,8
364,113,105122,1,0
364,113,105344,1,8
364,113,105567,1,0
364,113,105678,1,0
364,113,105789,1,8
364,113,106011,1,0
364,113,106233,1,8
364,113,106567,1,0
364,113,106678,1,8
364,113,106900,1,0
364,113,107122,1,8
256,192,107344,12,0,110678
