osu file format v9

[General]
AudioFilename: G.Addict -monochrome.mp3
AudioLeadIn: 2000
PreviewTime: 68001
Countdown: 0
SampleSet: Normal
StackLeniency: 0.7
Mode: 0
LetterboxInBreaks: 1

[Editor]
DistanceSpacing: 0.8
BeatDivisor: 4
GridSize: 8

[Metadata]
Title:monochrome (Short Ver.)
Artist:G.Addict
Creator:kanpakyin
Version:Normal
Source:Goulart Knights
Tags:Kazuma Horie Abe Atsushi Takuma Terashima Kaji Yuuki

[Difficulty]
HPDrainRate:4
CircleSize:4
OverallDifficulty:5
ApproachRate:5
SliderMultiplier:1.1
SliderTickRate:1

[Events]
//Background and Video events
0,0,"BG.jpg"
//Break Periods
//Storyboard Layer 0 (Background)
//Storyboard Layer 1 (Fail)
//Storyboard Layer 2 (Pass)
//Storyboard Layer 3 (Foreground)
//Storyboard Sound Samples
//Background Colour Transformations
3,100,163,162,255

[TimingPoints]
456,444.444444444444,4,1,1,40,1,0
6900,-100,4,1,1,60,0,0
7122,-100,4,1,1,70,0,0
7344,-100,4,1,1,79,0,0
7567,-100,4,1,1,90,0,0
7789,-100,4,1,1,50,0,0
14567,-100,4,2,1,62,0,0
14789,-100,4,1,1,41,0,0
28011,-100,4,2,1,40,0,0
28900,-100,4,1,1,40,0,0
36011,-100,4,1,2,40,0,0
64455,-100,4,1,2,50,0,0
64678,-100,4,1,1,41,0,0
66233,-100,4,2,1,62,0,0
68011,-100,4,1,1,50,0,1
73344,-100,4,1,1,58,0,1
74011,-100,4,1,1,50,0,1
82208,-100,4,1,1,50,0,0
82233,-100,4,1,1,50,0,1
95789,-100,4,1,1,59,0,1
96011,-100,4,1,1,71,0,1
96233,-100,4,1,1,81,0,1
96455,-100,4,1,1,50,0,0
98122,-100,4,2,1,50,0,0
98455,-100,4,1,2,30,0,0
101678,-100,4,2,2,50,0,0
101900,-100,4,1,2,50,0,0
105567,-100,4,1,1,21,0,0
108011,-100,4,1,1,9,0,0
108900,-100,4,2,1,0,0,0

[Colours]
Combo1 : 255,128,0
Combo2 : 40,205,31
Combo3 : 45,88,228

[HitObjects]
204,256,455,1,4
204,256,678,1,0
204,256,900,2,0,B|86:256,2,110,2|8|2
227,218,2011,2,4,B|271:217|271:217|298:202|298:202|347:200,1,110
333,200,2678,1,2
313,114,3122,6,0,B|432:114,2,110,0|2|4
338,198,4455,2,0,B|284:198|305:231|211:235,2,110,0|8|2
364,233,5567,2,4,B|483:233,1,110
463,320,6455,1,0
463,320,6678,1,8
463,320,6900,2,0,B|465:366,6,27.5,0|0|0|0|0|0|8
384,280,8011,5,2
384,280,8233,1,0
384,280,8455,2,0,B|384:162,1,110,0|2
469,149,9344,2,0,B|442:100|442:100|385:74,1,110,0|2
304,77,10233,1,0
304,77,10678,2,0,B|189:77,2,110,2|0|2
345,154,12011,5,0
345,154,12233,1,0
345,154,12455,2,0,B|376:208|351:262,1,110,2|0
274,210,13344,1,2
274,210,13567,1,0
274,210,13789,2,0,B|243:270|287:331,2,110,0|2|4
191,178,15122,5,2
191,178,15567,2,0,B|149:219|65:215,2,110,0|2|0
252,115,16900,2,0,B|252:3,2,110,2|0|2
311,180,18233,5,0
311,180,18678,2,0,B|311:294,2,110,2|0|2
223,186,20011,2,0,B|210:222|210:222|187:240,1,55
153,228,20455,2,0,B|39:230,2,110,6|0|2
198,303,21789,5,4
198,303,22233,2,0,B|328:303,2,110,8|0|8
173,265,23344,1,0
187,223,23567,1,0
148,144,24011,5,8
148,144,24455,2,0,B|116:100|116:100|54:76,2,110,0|8|0
148,144,25567,1,0
148,144,25789,1,8
230,112,26233,1,0
210,198,26678,2,0,B|210:310,2,110,8|0|8
241,166,27789,1,0
241,166,28011,2,0,B|240:134|240:134|254:104|254:104|254:80,2,82.5,2|2|2
274,194,28900,6,0,B|274:320,2,110,0|8|0
355,225,30233,1,8
355,225,30455,1,0
355,225,30678,2,0,B|360:158|443:150,2,110,0|8|0
442,234,32011,2,0,B|450:283|450:283|499:327,2,110,8|0|8
405,203,33122,1,0
367,225,33344,2,0,B|352:279|352:279|295:311,1,110,0|8
281,221,34233,6,0,B|246:270|174:274,1,110,0|8
192,184,35122,2,0,B|68:185,2,110,0|2|4
247,114,36455,5,2
247,114,36678,1,0
308,176,37122,1,0
308,176,37344,1,2
308,176,37567,1,0
308,176,37789,2,0,B|308:294,2,110,0|2|0
226,209,39122,5,2
226,209,39344,1,0
226,209,39567,2,0,B|226:88,2,110,0|2|0
313,213,40900,2,0,B|312:258|312:258|325:281|325:281|325:338,2,110,2|0|2
399,220,42233,2,0,B|497:221,2,82.5,0|0|0
399,220,43122,1,4
355,143,43567,6,0,B|365:76|295:37,1,110,2|0
257,117,44455,2,0,B|215:72|144:65,1,110,2|0
161,155,45344,2,0,B|99:155|50:189,1,110,2|0
127,237,46233,2,0,B|75:273|77:345,2,110,2|0|2
165,257,47344,1,0
204,236,47567,6,0,B|318:236,2,110,0|2|0
232,152,48900,2,0,B|176:153|189:123|107:121,2,110,2|0|2
236,64,50233,5,0
236,64,50455,2,0,B|351:63,1,110
352,146,51344,1,0
352,146,51567,2,0,B|466:146,2,110,2|0|2
346,233,52900,2,0,B|278:244|270:301,1,110,0|2
358,305,53789,6,0,B|170:304,1,165,4|0
219,220,54900,1,0
219,220,55122,2,0,B|89:221,2,110,2|4|2
279,155,56455,2,0,B|396:155,2,110,0|2|4
236,77,57789,5,2
236,77,58011,1,0
236,77,58233,2,0,B|181:98|181:98|127:99,1,110,0|2
134,186,59122,2,0,B|214:192|215:265,1,110,0|2
128,271,60011,2,0,B|10:271,2,110,0|2|4
178,342,61344,1,2
178,342,61567,1,0
221,265,62011,1,0
221,265,62233,2,0,B|353:267,1,110,2|0
256,192,62900,12,2,64455
256,192,64900,5,2
256,192,65344,2,0,B|197:202|197:202|153:234,1,110,0|2
233,274,66233,2,0,B|185:304|185:304|157:359,2,110,6|2|2
256,359,67567,2,0,B|379:359,1,110,4|4
427,296,68455,5,2
369,229,68900,2,0,B|387:172|387:172|367:112,1,110,0|2
299,175,69789,1,0
299,175,70011,1,0
299,175,70233,2,0,B|166:175,2,110,2|0|2
268,257,71567,1,0
268,257,72011,2,0,B|200:275|197:341,2,110,2|0|2
284,343,73344,6,0,B|357:344,3,55,0|2|2|0
305,262,74455,1,0
305,262,74678,2,0,B|359:266|366:231|427:233,2,110,2|4|2
313,174,76011,5,0
313,174,76233,1,0
313,174,76455,2,0,B|181:174,1,110,2|4
172,256,77344,2,0,B|121:237|121:237|102:176,1,110,2|0
34,130,78233,5,2
34,130,78455,1,0
34,130,78678,2,0,B|34:247,2,110,4|2|0
121,134,80011,2,0,B|125:197|192:228,1,110,2|0
225,146,80900,2,0,B|270:176|339:169,1,110,2|0
322,81,81789,6,0,B|375:70|405:12,2,110,2|4|2
343,119,82900,1,0
324,158,83122,2,0,B|324:272,1,110,0|2
236,276,84011,1,0
236,276,84233,1,0
236,276,84455,2,0,B|236:340,2,55,2|0|0
160,230,85344,1,2
160,230,85567,1,0
160,230,85789,6,0,B|188:176|153:111,1,110,4|2
87,175,86678,2,0,B|269:175,1,165,0|8
273,213,87567,2,0,B|311:215|311:215|344:227|344:227|386:228,2,110,4|2|0
231,135,88900,5,2
231,135,89122,1,0
231,135,89344,2,0,B|197:136|197:136|163:118|163:118|124:118,2,110,4|2|0
241,47,90678,2,0,B|355:47,2,110,2|4|2
152,43,92011,2,0,B|117:100|163:164,1,110,0|2
230,106,92900,5,4
230,106,93122,1,0
230,106,93344,2,0,B|259:165|220:231,1,110,2|0
155,164,94233,1,2
155,164,94455,1,0
155,164,94678,2,0,B|43:164,2,110,4|12|0
167,206,95789,2,0,B|201:207,6,27.5,0|0|8|0|0|0|2
256,192,96900,12,4,98233
253,187,98678,6,0,B|222:172|222:172|182:166,2,55,2|0|0
318,245,99567,2,0,B|318:360,2,110,2|0|2
402,270,100900,2,0,B|402:206,2,55,0|0|2
317,293,101789,2,0,B|201:290|118:197,1,220,4|0
204,168,103122,2,0,B|170:265|35:312,2,220,2|2|2
288,192,105344,5,4
288,192,105789,2,0,B|298:138|286:75,2,110,2|0|2
375,196,107122,2,0,B|383:259|373:318,1,110,0|2
293,271,108011,2,0,B|282:338|214:347,1,110,0|2
256,192,108900,12,2,110678
