osu file format v7

[General]
AudioFilename: G-Dragon - Heartbreaker.mp3
AudioLeadIn: 0
PreviewTime: 46171
Countdown: 0
SampleSet: Normal
StackLeniency: 0.4
Mode: 0
LetterboxInBreaks: 0

[Editor]
DistanceSpacing: 1.5
BeatDivisor: 3
GridSize: 4

[Metadata]
Title:Heartbreaker
Artist:G-Dragon
Creator:Shinde
Version:Heart Stopping!
Source:
Tags:Kwon Ji-Yong Big Bang

[Difficulty]
HPDrainRate:5
CircleSize:4
OverallDifficulty:6
SliderMultiplier:1.6
SliderTickRate:3

[Events]
//Background and Video events
Video,-2950,"G-Dragon - Heartbreaker HQ.AVI"
0,0,"Heartbreaker.jpg"
//Break Periods
2,43265,45572
2,75266,77572
2,107265,109572
2,137044,138016
2,153488,166461
//Storyboard Layer 0 (Background)
//Storyboard Layer 1 (Fail)
//Storyboard Layer 2 (Pass)
//Storyboard Layer 3 (Foreground)
//Storyboard Sound Samples
//Background Colour Transformations
3,100,0,0,0

[TimingPoints]
400,444.444444444444,4,2,1,100,1,0
14474,-100,4,1,0,60,0,0
28251,-100,4,1,1,60,0,0
28548,-100,4,1,0,60,0,0
46622,-100,4,1,0,60,0,1
59066,-100,4,1,0,60,0,0
66177,-100,4,2,0,100,0,0
67807,-100,4,1,0,60,0,0
92251,-100,4,1,1,60,0,0
92548,-100,4,1,0,60,0,0
110622,-100,4,1,0,60,0,1
123066,-100,4,1,0,60,0,0
130177,-100,4,2,0,100,0,0
131807,-100,4,1,0,60,0,0
138177,-100,4,2,0,100,0,0
142177,-100,4,2,1,100,0,0
142474,-100,4,2,0,100,0,0
145733,-100,4,2,1,100,0,0
146029,-100,4,2,0,100,0,0
149288,-100,4,2,1,100,0,0
149585,-100,4,2,0,100,0,0
151437,-100,4,2,0,40,0,0
167066,-100,4,1,0,60,0,0
167511,-100,4,1,0,60,0,1
179955,-100,4,1,0,60,0,0
182770,-100,4,1,1,30,0,0
183066,-100,4,1,0,60,0,0
183214,-100,4,1,1,30,0,0
183511,-100,4,1,0,60,0,0
183659,-100,4,1,1,30,0,0
183955,-100,4,1,0,60,0,0
184103,-100,4,1,1,30,0,0
184399,-100,4,1,0,60,0,0
189140,-100,4,2,0,60,0,0
189437,-100,4,1,0,60,0,0
190029,-100,4,2,0,60,0,0
190325,-100,4,1,0,60,0,0
190918,-100,4,2,0,60,0,0
191214,-100,4,1,0,60,0,0
191807,-100,4,2,0,60,0,0
192103,-100,4,1,0,60,0,0

[Colours]
Combo1 : 0,87,130
Combo2 : 168,0,0
Combo3 : 255,255,255

[HitObjects]
44,55,7511,2,0,B|120:8|194:55,1,160
331,138,8399,2,0,B|256:185|180:137,1,160
317,55,9288,2,0,B|392:8|467:55,1,160
392,192,10177,5,0
392,192,10325,1,2
392,192,10474,1,2
392,192,10622,1,0
296,320,11066,1,0
296,320,11214,1,2
296,320,11362,1,2
296,320,11511,1,0
256,164,11955,6,0,B|256:108,3,53.3333333333333,0|2|2|0
216,320,12844,5,0
216,320,12993,1,2
216,320,13141,1,2
216,320,13289,1,0
120,192,13733,1,0
120,192,13881,1,2
120,192,14030,1,2
120,192,14178,1,0
88,40,14622,6,0,B|196:40,1,106.666666666667
228,112,15066,2,0,B|121:112,1,106.666666666667,8|0
84,184,15511,2,0,B|192:184,1,106.666666666667
272,184,15955,1,8
429,54,16399,5,0
428,160,16696,1,0
428,160,16844,1,8
340,100,17140,1,0
340,100,17288,1,0
340,208,17585,2,0,B|340:264,1,53.3333333333333,0|8
256,348,18177,5,0
100,192,18622,1,8
256,36,19066,1,0
412,192,19511,1,8
204,100,19955,6,0,B|104:52,1,106.666666666667
56,68,20399,2,0,B|152:114,1,106.666666666667,8|0
104,136,20844,1,0
64,168,20992,1,0
104,204,21140,1,0
64,236,21288,1,8
173,353,21733,6,0,B|240:352|240:288,1,106.666666666667
240,288,22177,2,0,B|239:352|307:352,1,106.666666666667,8|0
307,352,22622,2,0,B|374:351|374:287,1,106.666666666667
374,287,23066,2,0,B|373:351|441:351,1,106.666666666667,2|2
456,184,23807,5,0
456,184,23955,2,0,B|456:76,1,106.666666666667,8|0
456,24,24399,1,0
316,100,24844,1,2
316,100,25140,1,2
132,212,25733,6,0,B|240:236,1,106.666666666667,8|0
288,248,26177,2,0,B|180:272,1,106.666666666667
132,280,26622,2,0,B|240:304,1,106.666666666667,8|0
288,316,27066,2,0,B|180:340,1,106.666666666667,2|2
0,288,27807,5,0
52,276,27955,2,0,B|156:252,2,106.666666666667,2|0|0
0,288,28696,1,0
0,288,28844,1,2
144,32,29288,6,0,B|144:100|212:100,1,106.666666666667,8|0
308,64,29733,2,0,B|308:132|240:132,1,106.666666666667
144,100,30177,2,0,B|144:168|212:168,1,106.666666666667,8|0
308,132,30622,2,0,B|308:200|240:200,1,106.666666666667
172,236,31066,5,8
84,176,31362,1,0
84,176,31511,1,0
76,284,31807,1,0
76,284,31955,1,2
432,60,32696,5,0
432,60,32844,2,0,B|432:168,1,106.666666666667
356,196,33288,2,0,B|356:88,1,106.666666666667,8|0
356,8,33733,1,0
204,60,34029,5,0
204,60,34177,1,8
204,60,34325,1,0
204,60,34474,1,0
204,60,34622,6,0,B|128:148,1,106.666666666667,2|0
60,172,35066,2,0,B|130:252,1,106.666666666667,8|0
130,252,35511,1,2
332,312,36399,6,0,B|408:232,1,106.666666666667
416,180,36844,2,0,B|342:257,1,106.666666666667,8|0
272,220,37288,6,0,B|348:140,1,106.666666666667
356,88,37733,2,0,B|282:165,1,106.666666666667,8|0
204,152,38177,6,0,B|130:229,1,106.666666666667
76,228,38622,2,0,B|149:150,1,106.666666666667,4|0
149,97,39066,1,0
64,328,39511,5,8
64,328,39659,1,0
64,328,39807,1,0
136,296,39955,1,0
136,296,40103,1,0
136,296,40251,1,0
208,264,40399,6,0,B|208:208,5,53.3333333333333,8|0|0|0|0|0
208,132,41288,2,0,B|208:16,1,106.666666666667,8|0
280,60,41733,2,0,B|280:166,1,106.666666666667
356,192,42177,2,0,B|376:112|376:112|352:36,2,160,8|0|4
148,88,46622,6,2,B|116:60|88:112|104:160|148:200,1,160
360,88,47511,2,2,B|392:60|420:112|404:160|360:200,1,160
256,288,48399,6,2,L|220:176|292:208|256:89,1,320
256,89,49585,1,4
140,308,50622,6,0,L|140:200,1,106.666666666667,8|0
140,308,51066,2,0,L|32:308,1,106.666666666667,8|0
140,308,51511,2,0,L|248:308,1,106.666666666667,8|0
328,308,51955,5,4
460,108,52399,1,0
452,348,52844,1,4
300,56,53288,5,0
300,56,53585,1,0
300,56,53733,2,0,B|236:56|216:112,1,106.666666666667,2|0
288,144,54177,2,0,B|352:144|372:200,1,106.666666666667,2|0
296,228,54622,2,0,B|341:273|315:326,1,106.666666666667,2|0
244,292,55066,2,0,B|243:356|188:376,1,106.666666666667,2|0
164,300,55511,5,2
164,300,55955,2,0,B|96:152,2,160,0|4|0
256,192,57140,12,0,58622
256,192,58918,12,4,60844
208,64,61140,6,0,B|224:116,1,53.3333333333333
328,104,61585,2,0,B|344:156,1,53.3333333333333,0|8
472,340,62177,5,0
368,368,62474,2,0,B|352:317,1,53.3333333333333,0|4
248,328,62919,2,0,B|232:277,1,53.3333333333333
128,288,63362,2,0,B|112:237,1,53.3333333333333,0|8
64,48,63955,5,0
168,24,64251,2,0,B|228:24,1,53.3333333333333,0|4
204,128,64696,1,0
204,128,64844,1,0
312,128,65140,1,0
312,128,65288,1,8
256,308,65733,5,4
44,212,66474,5,0
44,212,66622,2,0,B|24:268|56:316,1,106.666666666667,2|0
124,272,67066,2,0,B|144:328|112:376,1,106.666666666667,0|4
384,20,67955,6,0,B|324:120,1,106.666666666667,8|0
329,111,68399,2,0,B|384:208,1,106.666666666667,8|0
381,204,68844,2,0,B|332:304,1,106.666666666667,8|0
256,196,69288,5,2
128,20,69733,6,0,B|188:120,1,106.666666666667,8|0
182,111,70177,2,0,B|128:208,1,106.666666666667,8|0
130,204,70622,2,0,B|180:304,1,106.666666666667,8|0
256,196,71066,5,2
16,80,71511,5,0
52,180,71807,1,0
76,228,71955,1,8
124,132,72251,1,0
148,84,72399,1,0
188,184,72696,1,0
212,232,72844,1,8
256,192,73733,12,4,75066
44,52,78622,5,0
144,84,78918,1,0
192,108,79066,2,0,B|80:108,1,106.666666666667,8|0
32,108,79511,1,0
100,252,79807,5,0
52,276,79955,2,0,B|164:276,1,106.666666666667,8|0
212,276,80400,1,0
328,164,80696,5,0
376,188,80844,2,0,B|264:188,1,106.666666666667,8|0
216,188,81289,1,0
256,12,81585,5,0
256,12,81733,1,2
408,80,82029,5,0
336,116,82177,2,0,B|368:172|428:156,1,106.666666666667
504,164,82622,2,0,B|496:228|434:236,1,106.666666666667,8|0
360,248,83066,2,0,B|360:304,2,53.3333333333333
292,204,83511,1,8
192,364,83955,6,0,B|92:316,1,106.666666666667
140,284,84399,2,0,B|40:236,1,106.666666666667,8|0
0,208,84844,1,0
44,176,84992,1,0
0,144,85140,1,0
44,116,85288,1,2
136,60,85584,1,0
324,16,86029,5,0
324,16,86177,2,0,B|324:128,1,106.666666666667
368,92,86622,2,2,B|368:204,1,106.666666666667,2|0
324,176,87066,2,0,B|324:288,1,106.666666666667,8|0
188,368,87807,5,0
188,368,87955,2,0,B|188:256,1,106.666666666667
144,292,88400,2,2,B|144:180,1,106.666666666667,2|0
188,208,88844,2,0,B|188:96,1,106.666666666667,8|0
380,172,89733,6,0,B|272:148,1,106.666666666667,8|0
224,136,90177,2,0,B|332:112,1,106.666666666667
380,104,90622,2,0,B|272:80,1,106.666666666667,8|0
224,68,91066,2,2,B|332:44,1,106.666666666667,2|2
512,96,91807,5,0
460,108,91955,2,2,B|356:132,2,106.666666666667,0|2|2
512,96,92696,1,0
512,96,92844,1,4
384,300,93288,5,0
224,300,93733,1,8
332,300,94029,2,0,B|388:300,1,53.3333333333333
404,32,94918,5,0
404,32,95066,1,0
256,96,95362,1,0
256,96,95511,1,8
108,32,95807,1,0
108,32,95955,1,4
80,324,96696,5,0
80,324,96844,2,0,B|80:216,1,106.666666666667
156,188,97288,2,0,B|156:296,1,106.666666666667,8|0
156,376,97733,1,0
308,324,98029,5,0
308,324,98177,1,8
308,324,98325,1,0
308,324,98474,1,0
308,324,98622,6,0,B|384:236,1,106.666666666667
452,212,99066,2,0,B|382:132,1,106.666666666667,8|0
382,132,99511,1,2
72,32,100251,5,0
72,32,100399,1,8
156,96,100696,1,0
156,96,100844,2,0,B|180:147|156:200,1,106.666666666667,0|0
128,244,101288,1,8
16,356,101585,5,0
16,356,101733,1,0
176,352,102029,5,0
176,352,102177,2,0,B|300:352,1,106.666666666667,8|0
336,352,102622,1,0
444,348,102918,1,0
444,348,103066,1,2
508,128,103511,6,0,B|476:176|416:176,1,106.666666666667
364,176,103955,1,8
316,156,104103,1,0
284,116,104251,1,0
256,72,104399,6,0,B|212:32,1,53.3333333333333
188,80,104696,2,0,B|144:40,1,53.3333333333333,0|8
120,88,104992,2,0,B|76:48,1,53.3333333333333
44,16,105288,2,0,B|0:92|44:172,1,160,0|8
204,176,106177,2,0,B|248:252|204:332,2,160,0|8|4
148,224,110622,6,2,B|116:196|88:248|104:296|148:336,1,160
360,224,111511,2,2,B|392:196|420:248|404:296|360:336,1,160
180,92,112399,6,2,B|256:44|332:92,4,160,2|8|2|8|4
256,348,114622,5,2
152,228,114918,5,0
204,292,115066,1,8
348,224,115362,5,0
304,292,115511,1,2
256,72,115807,5,0
204,132,115955,2,0,B|208:200|304:200|308:132,2,160,8|2|4
24,44,117288,5,0
24,44,117585,1,0
24,120,117733,2,0,B|92:212,1,106.666666666667,2|0
156,164,118177,2,0,B|134:59,1,106.666666666667,2|0
204,20,118622,1,2
256,80,118770,1,0
308,20,118918,1,0
377,59,119066,2,0,B|356:164,1,106.666666666667,2|0
340,244,119511,1,0
132,352,119955,5,4
372,352,120399,1,4
256,140,120844,1,8
256,192,121140,12,0,122622
256,192,122918,12,4,124844
256,200,125140,5,0
256,200,125288,1,8
364,196,125585,1,0
364,196,125733,1,0
476,84,126177,6,0,B|400:44|400:128|324:84,1,160,4|0
220,60,126918,2,0,B|200:112,3,53.3333333333333,0|8|0|0
180,160,127511,1,0
36,32,127955,6,0,B|0:108|36:188,1,160,4|0
16,292,128696,1,0
16,292,128844,1,8
35,186,129140,1,0
35,186,129288,2,0,B|128:180|164:264,1,160,0|4
468,212,130474,5,0
468,212,130622,2,0,B|488:268|456:316,1,106.666666666667,2|0
388,272,131066,2,0,B|368:328|400:376,1,106.666666666667
280,40,131955,6,0,B|348:40|348:108,1,106.666666666667
404,160,132399,1,8
404,160,132696,1,0
348,220,132844,2,0,B|348:284|280:284,1,106.666666666667
236,216,133288,2,0,L|204:260|176:216|144:260,1,160,8|0
100,352,134029,5,0
100,352,134177,2,0,B|36:352|36:284,1,106.666666666667,8|0
108,248,134622,1,0
108,248,134918,1,0
36,212,135066,2,0,B|36:148|104:148,1,106.666666666667,8|0
172,108,135511,6,0,B|280:108,1,106.666666666667
278,108,135955,1,8
340,20,136251,1,0
340,20,136399,1,0
400,108,136696,1,0
400,108,136844,1,2
80,96,139066,5,2
224,24,139511,2,0,B|268:96|224:180,1,160,0|4
80,96,140399,1,8
188,96,140696,1,8
392,28,141140,5,2
440,92,141288,2,0,B|464:144|440:200,1,106.666666666667
380,144,141733,2,0,B|356:196|380:252,1,106.666666666667,2|0
452,272,142177,2,0,B|476:324|452:380,1,106.666666666667
392,324,142622,5,2
256,244,143066,1,0
120,324,143511,1,4
256,244,143955,1,8
256,244,144251,1,8
36,244,144696,5,2
36,244,144844,2,0,B|36:136,1,106.666666666667
104,92,145288,2,0,B|104:198,1,106.666666666667,2|0
172,156,145733,2,0,B|172:48,1,106.666666666667
172,49,146177,5,2
172,49,146622,1,0
172,49,147066,1,4
332,52,147511,1,8
332,52,147807,1,8
432,200,148251,5,2
432,200,148399,2,0,B|416:235|362:235|344:200,1,106.666666666667
299,267,148844,2,0,B|283:302|229:302|211:267,1,106.666666666667,2|0
168,200,149288,2,0,B|152:235|98:235|80:200,1,106.666666666667
32,264,149733,5,2
168,348,150177,1,0
304,264,150622,1,4
440,348,151066,1,8
440,348,151362,1,8
256,192,151511,12,0,153288
24,92,167511,5,2
256,24,167955,1,2
488,92,168399,1,2
256,24,168844,1,2
256,188,169288,5,2
256,188,169437,1,0
256,188,169585,1,0
256,188,169733,1,2
256,188,169881,1,0
256,188,170029,1,0
256,188,170177,6,0,L|240:248|276:248|256:308,1,160,2|4
40,332,171511,6,0,L|148:332,1,106.666666666667,8|0
91,240,171955,2,0,L|146:332,1,106.666666666667,2|0
201,240,172399,2,0,L|146:332,1,106.666666666667,8|0
146,332,172844,5,2
304,352,173288,1,0
464,332,173733,1,4
428,144,174177,5,0
481,51,174474,1,0
481,51,174622,2,0,L|373:51,1,106.666666666667,2|0
374,51,175066,2,0,L|266:51,1,106.666666666667,8|0
267,51,175511,2,0,L|159:51,1,106.666666666667,2|0
160,51,175955,2,0,L|52:51,1,106.666666666667,8|0
53,51,176399,5,2
52,212,176844,1,0
180,116,177288,1,4
180,276,177733,1,8
256,192,178029,12,0,179511
256,192,179807,12,4,181733
328,324,182622,6,0,B|252:372|176:324,4,160,8|8|8|8|2
420,272,184696,1,0
420,272,184844,1,4
492,192,185140,1,0
492,192,185288,1,2
256,16,186177,6,0,B|256:184,1,160,2|0
332,100,186918,1,0
332,100,187066,2,0,B|168:100,1,160,4|0
64,36,187955,5,2
40,140,188251,1,0
26,191,188399,1,8
36,296,188696,1,0
22,347,188844,5,8
256,292,189288,1,8
490,237,189733,5,2
256,292,190177,1,2
22,147,190622,5,4
256,92,191066,1,4
490,37,191511,5,8
256,92,191955,1,8
80,128,192399,6,0,B|80:188,2,53.3333333333333
128,156,192844,2,0,B|128:216,2,53.3333333333333,8|0|0
172,184,193288,2,0,B|172:244,2,53.3333333333333
220,212,193733,2,0,B|220:272,2,53.3333333333333,8|0|0
268,240,194177,2,0,B|268:300,2,53.3333333333333
320,260,194622,1,2
256,192,194918,12,4,195955
