osu file format v14

[General]
AudioFilename: Furries in a Blender - Storm World - 02 Storm World.mp3
AudioLeadIn: 0
PreviewTime: 71420
Countdown: 0
SampleSet: Normal
StackLeniency: 0.7
Mode: 1
LetterboxInBreaks: 0
WidescreenStoryboard: 0

[Editor]
Bookmarks: 43991
DistanceSpacing: 1
BeatDivisor: 4
GridSize: 32
TimelineZoom: 1.1

[Metadata]
Title:Storm World
TitleUnicode:Storm World
Artist:Furries in a Blender
ArtistUnicode:Furries in a Blender
Creator:Firce777
Version:Oni
Source:
Tags:MBC9 monthly beatmapping contest LapFox Trax Renard
BeatmapID:711061
BeatmapSetID:319473

[Difficulty]
HPDrainRate:6
CircleSize:5
OverallDifficulty:6
ApproachRate:5
SliderMultiplier:1.4
SliderTickRate:1

[Events]
//Background and Video events
0,0,"Cataclysm-3D-Tornado-l.jpg",0,0
//Break Periods
//Storyboard Layer 0 (Background)
//Storyboard Layer 1 (Fail)
//Storyboard Layer 2 (Pass)
//Storyboard Layer 3 (Foreground)
//Storyboard Sound Samples

[TimingPoints]
106,342.857142857143,4,1,0,70,1,0
54963,-100,4,1,0,70,0,1
65934,-100,4,1,0,70,0,0
71420,-100,4,1,0,70,0,1
115306,-100,4,1,0,70,0,0

[HitObjects]
256,192,106,5,4,0:0:0:0:
256,192,448,1,2,0:0:0:0:
256,192,963,1,0,0:0:0:0:
256,192,1134,1,2,0:0:0:0:
256,192,1477,1,0,0:0:0:0:
256,192,1820,1,2,0:0:0:0:
256,192,2334,1,0,0:0:0:0:
256,192,2506,1,2,0:0:0:0:
256,192,2677,1,0,0:0:0:0:
256,192,2848,1,0,0:0:0:0:
256,192,3191,1,2,0:0:0:0:
256,192,3706,1,0,0:0:0:0:
256,192,3877,1,2,0:0:0:0:
256,192,4220,1,0,0:0:0:0:
256,192,4563,1,2,0:0:0:0:
256,192,4734,1,2,0:0:0:0:
256,192,4820,1,2,0:0:0:0:
256,192,5077,1,0,0:0:0:0:
256,192,5248,1,2,0:0:0:0:
256,192,5334,1,2,0:0:0:0:
256,192,5420,1,0,0:0:0:0:
256,192,5591,1,0,0:0:0:0:
256,192,5934,1,2,0:0:0:0:
256,192,6448,1,0,0:0:0:0:
256,192,6620,1,2,0:0:0:0:
256,192,6963,1,0,0:0:0:0:
256,192,7306,1,2,0:0:0:0:
256,192,7820,1,0,0:0:0:0:
256,192,7991,1,2,0:0:0:0:
256,192,8163,1,0,0:0:0:0:
256,192,8334,1,0,0:0:0:0:
256,192,8677,1,2,0:0:0:0:
256,192,9191,1,0,0:0:0:0:
256,192,9363,1,2,0:0:0:0:
256,192,9706,1,0,0:0:0:0:
256,192,10048,1,2,0:0:0:0:
256,192,10220,1,2,0:0:0:0:
256,192,10306,1,2,0:0:0:0:
256,192,10563,1,0,0:0:0:0:
256,192,10734,1,2,0:0:0:0:
256,192,10820,1,2,0:0:0:0:
256,192,10906,1,0,0:0:0:0:
256,192,11077,1,0,0:0:0:0:
256,192,11420,1,2,0:0:0:0:
256,192,11677,1,0,0:0:0:0:
256,192,11848,1,2,0:0:0:0:
256,192,11934,1,0,0:0:0:0:
256,192,12106,1,2,0:0:0:0:
256,192,12277,1,0,0:0:0:0:
256,192,12448,1,0,0:0:0:0:
256,192,12791,1,2,0:0:0:0:
256,192,13048,1,0,0:0:0:0:
256,192,13220,1,2,0:0:0:0:
256,192,13306,1,0,0:0:0:0:
256,192,13477,1,2,0:0:0:0:
256,192,13563,1,2,0:0:0:0:
256,192,13648,1,0,0:0:0:0:
256,192,13820,1,0,0:0:0:0:
256,192,14163,1,2,0:0:0:0:
256,192,14420,1,0,0:0:0:0:
256,192,14591,1,2,0:0:0:0:
256,192,14677,1,0,0:0:0:0:
256,192,14848,1,2,0:0:0:0:
256,192,15020,1,0,0:0:0:0:
256,192,15191,1,0,0:0:0:0:
256,192,15534,1,2,0:0:0:0:
256,192,15706,1,0,0:0:0:0:
256,192,15791,1,2,0:0:0:0:
256,192,15963,1,2,0:0:0:0:
256,192,16048,1,0,0:0:0:0:
256,192,16220,1,2,0:0:0:0:
256,192,16306,1,2,0:0:0:0:
256,192,16391,1,0,0:0:0:0:
256,192,16563,1,0,0:0:0:0:
256,192,16906,1,2,0:0:0:0:
256,192,17163,1,0,0:0:0:0:
256,192,17334,1,2,0:0:0:0:
256,192,17420,1,0,0:0:0:0:
256,192,17591,1,2,0:0:0:0:
256,192,17763,1,0,0:0:0:0:
256,192,17934,1,0,0:0:0:0:
256,192,18277,1,2,0:0:0:0:
256,192,18534,1,2,0:0:0:0:
256,192,18706,1,2,0:0:0:0:
256,192,18791,1,0,0:0:0:0:
256,192,18963,1,2,0:0:0:0:
256,192,19048,1,2,0:0:0:0:
256,192,19134,1,0,0:0:0:0:
256,192,19306,1,0,0:0:0:0:
256,192,19648,1,2,0:0:0:0:
256,192,19906,1,0,0:0:0:0:
256,192,20077,1,2,0:0:0:0:
256,192,20163,1,0,0:0:0:0:
256,192,20334,1,2,0:0:0:0:
256,192,20506,1,0,0:0:0:0:
256,192,20677,1,0,0:0:0:0:
256,192,21020,1,2,0:0:0:0:
256,192,21191,1,0,0:0:0:0:
256,192,21277,1,2,0:0:0:0:
256,192,21448,1,2,0:0:0:0:
256,192,21534,1,0,0:0:0:0:
256,192,21706,1,2,0:0:0:0:
256,192,21791,1,2,0:0:0:0:
256,192,21877,1,0,0:0:0:0:
256,192,22048,1,4,0:0:0:0:
256,192,22306,1,0,0:0:0:0:
256,192,22391,1,2,0:0:0:0:
256,192,22563,1,0,0:0:0:0:
256,192,22648,1,2,0:0:0:0:
256,192,22906,1,0,0:0:0:0:
256,192,23077,1,2,0:0:0:0:
256,192,23420,1,0,0:0:0:0:
256,192,23591,1,2,0:0:0:0:
256,192,23677,1,0,0:0:0:0:
256,192,23848,1,0,0:0:0:0:
256,192,23934,1,0,0:0:0:0:
256,192,24020,1,2,0:0:0:0:
256,192,24277,1,0,0:0:0:0:
256,192,24448,1,2,0:0:0:0:
256,192,24791,1,0,0:0:0:0:
256,192,25048,1,0,0:0:0:0:
256,192,25134,1,2,0:0:0:0:
256,192,25306,1,0,0:0:0:0:
256,192,25391,1,2,0:0:0:0:
256,192,25648,1,0,0:0:0:0:
256,192,25820,1,2,0:0:0:0:
256,192,26163,1,0,0:0:0:0:
256,192,26248,1,2,0:0:0:0:
256,192,26334,1,0,0:0:0:0:
256,192,26420,1,0,0:0:0:0:
256,192,26506,1,2,0:0:0:0:
256,192,26677,1,0,0:0:0:0:
256,192,26763,1,2,0:0:0:0:
256,192,26934,1,2,0:0:0:0:
256,192,27020,1,0,0:0:0:0:
256,192,27191,1,2,0:0:0:0:
256,192,27277,1,0,0:0:0:0:
256,192,27363,1,2,0:0:0:0:
256,192,27448,1,2,0:0:0:0:
256,192,27534,1,0,0:0:0:0:
256,192,27791,1,0,0:0:0:0:
256,192,27877,1,2,0:0:0:0:
256,192,28048,1,0,0:0:0:0:
256,192,28134,1,2,0:0:0:0:
256,192,28391,1,0,0:0:0:0:
256,192,28563,1,2,0:0:0:0:
256,192,28906,1,0,0:0:0:0:
256,192,29077,1,2,0:0:0:0:
256,192,29163,1,0,0:0:0:0:
256,192,29334,1,0,0:0:0:0:
256,192,29420,1,0,0:0:0:0:
256,192,29506,1,2,0:0:0:0:
256,192,29763,1,0,0:0:0:0:
256,192,29934,1,2,0:0:0:0:
256,192,30277,1,0,0:0:0:0:
256,192,30534,1,0,0:0:0:0:
256,192,30620,1,2,0:0:0:0:
256,192,30791,1,0,0:0:0:0:
256,192,30877,1,2,0:0:0:0:
256,192,31134,1,0,0:0:0:0:
256,192,31306,1,2,0:0:0:0:
256,192,31648,1,0,0:0:0:0:
256,192,31734,1,2,0:0:0:0:
256,192,31820,1,0,0:0:0:0:
256,192,31906,1,0,0:0:0:0:
256,192,31991,1,2,0:0:0:0:
256,192,32163,1,0,0:0:0:0:
256,192,32248,1,2,0:0:0:0:
256,192,32420,1,2,0:0:0:0:
256,192,32506,1,0,0:0:0:0:
256,192,32677,1,2,0:0:0:0:
256,192,32763,1,0,0:0:0:0:
256,192,32848,1,2,0:0:0:0:
256,192,32934,1,2,0:0:0:0:
256,192,33020,1,0,0:0:0:0:
256,192,33277,1,0,0:0:0:0:
256,192,33363,1,2,0:0:0:0:
256,192,33534,1,2,0:0:0:0:
256,192,33620,1,0,0:0:0:0:
256,192,33706,1,2,0:0:0:0:
256,192,33791,1,2,0:0:0:0:
256,192,33877,1,0,0:0:0:0:
256,192,34048,1,0,0:0:0:0:
256,192,34220,1,2,0:0:0:0:
256,192,34306,1,2,0:0:0:0:
256,192,34391,1,0,0:0:0:0:
256,192,34648,1,0,0:0:0:0:
256,192,34734,1,2,0:0:0:0:
256,192,34906,1,0,0:0:0:0:
256,192,34991,1,0,0:0:0:0:
256,192,35077,1,2,0:0:0:0:
256,192,35163,1,2,0:0:0:0:
256,192,35248,1,0,0:0:0:0:
256,192,35334,1,0,0:0:0:0:
256,192,35420,1,2,0:0:0:0:
256,192,35506,1,0,0:0:0:0:
256,192,35591,1,0,0:0:0:0:
256,192,35677,1,2,0:0:0:0:
256,192,35763,1,0,0:0:0:0:
256,192,36020,1,0,0:0:0:0:
256,192,36106,1,2,0:0:0:0:
256,192,36277,1,2,0:0:0:0:
256,192,36363,1,0,0:0:0:0:
256,192,36448,1,2,0:0:0:0:
256,192,36534,1,2,0:0:0:0:
256,192,36620,1,0,0:0:0:0:
256,192,36791,1,0,0:0:0:0:
256,192,36963,1,2,0:0:0:0:
256,192,37048,1,2,0:0:0:0:
256,192,37134,1,0,0:0:0:0:
256,192,37391,1,0,0:0:0:0:
256,192,37477,1,2,0:0:0:0:
256,192,37648,1,2,0:0:0:0:
256,192,37734,1,2,0:0:0:0:
256,192,37820,1,0,0:0:0:0:
256,192,37991,1,0,0:0:0:0:
256,192,38163,1,2,0:0:0:0:
256,192,38248,1,2,0:0:0:0:
256,192,38334,1,0,0:0:0:0:
256,192,38420,1,2,0:0:0:0:
256,192,38506,1,0,0:0:0:0:
256,192,38763,1,0,0:0:0:0:
256,192,38848,1,2,0:0:0:0:
256,192,39020,1,2,0:0:0:0:
256,192,39106,1,0,0:0:0:0:
256,192,39191,1,2,0:0:0:0:
256,192,39277,1,2,0:0:0:0:
256,192,39363,1,0,0:0:0:0:
256,192,39534,1,0,0:0:0:0:
256,192,39706,1,2,0:0:0:0:
256,192,39791,1,2,0:0:0:0:
256,192,39877,1,0,0:0:0:0:
256,192,40134,1,0,0:0:0:0:
256,192,40220,1,2,0:0:0:0:
256,192,40391,1,0,0:0:0:0:
256,192,40477,1,0,0:0:0:0:
256,192,40563,1,2,0:0:0:0:
256,192,40648,1,2,0:0:0:0:
256,192,40734,1,0,0:0:0:0:
256,192,40820,1,0,0:0:0:0:
256,192,40906,1,2,0:0:0:0:
256,192,40991,1,0,0:0:0:0:
256,192,41077,1,0,0:0:0:0:
256,192,41163,1,2,0:0:0:0:
256,192,41248,1,0,0:0:0:0:
256,192,41506,1,0,0:0:0:0:
256,192,41591,1,2,0:0:0:0:
256,192,41763,1,2,0:0:0:0:
256,192,41848,1,0,0:0:0:0:
256,192,41934,1,2,0:0:0:0:
256,192,42020,1,2,0:0:0:0:
256,192,42106,1,0,0:0:0:0:
256,192,42277,1,0,0:0:0:0:
256,192,42448,1,2,0:0:0:0:
256,192,42534,1,2,0:0:0:0:
256,192,42620,1,0,0:0:0:0:
256,192,42877,1,0,0:0:0:0:
256,192,42963,1,2,0:0:0:0:
256,192,43134,1,2,0:0:0:0:
256,192,43220,1,2,0:0:0:0:
256,192,43306,1,0,0:0:0:0:
256,192,43391,1,2,0:0:0:0:
256,192,43477,1,0,0:0:0:0:
256,192,43563,1,0,0:0:0:0:
256,192,43648,1,2,0:0:0:0:
256,192,43734,1,2,0:0:0:0:
256,192,43820,1,0,0:0:0:0:
256,192,43906,1,2,0:0:0:0:
256,192,43991,1,0,0:0:0:0:
256,192,44506,1,2,0:0:0:0:
256,192,44848,1,2,0:0:0:0:
256,192,45020,1,2,0:0:0:0:
256,192,45363,1,2,0:0:0:0:
256,192,45877,1,2,0:0:0:0:
256,192,46220,1,2,0:0:0:0:
256,192,46391,1,2,0:0:0:0:
256,192,46563,1,2,0:0:0:0:
256,192,46648,1,2,0:0:0:0:
256,192,46734,1,2,0:0:0:0:
256,192,47248,1,2,0:0:0:0:
256,192,47591,1,2,0:0:0:0:
256,192,47763,1,2,0:0:0:0:
256,192,48106,1,2,0:0:0:0:
256,192,48620,1,2,0:0:0:0:
256,192,48963,1,2,0:0:0:0:
256,192,49134,1,2,0:0:0:0:
256,192,49306,1,2,0:0:0:0:
256,192,49391,1,2,0:0:0:0:
256,192,49477,1,0,0:0:0:0:
256,192,49820,1,2,0:0:0:0:
256,192,49991,1,2,0:0:0:0:
256,192,50334,1,2,0:0:0:0:
256,192,50506,1,2,0:0:0:0:
256,192,50677,1,2,0:0:0:0:
256,192,50848,1,0,0:0:0:0:
256,192,51191,1,2,0:0:0:0:
256,192,51363,1,2,0:0:0:0:
256,192,51706,1,2,0:0:0:0:
256,192,51877,1,2,0:0:0:0:
256,192,52048,1,2,0:0:0:0:
256,192,52134,1,2,0:0:0:0:
256,192,52220,1,0,0:0:0:0:
256,192,52563,1,2,0:0:0:0:
256,192,52734,1,2,0:0:0:0:
256,192,53077,1,2,0:0:0:0:
256,192,53248,1,2,0:0:0:0:
256,192,53420,1,2,0:0:0:0:
256,192,53591,1,0,0:0:0:0:
256,192,53934,1,0,0:0:0:0:
256,192,54106,1,2,0:0:0:0:
256,192,54277,1,2,0:0:0:0:
256,192,54448,1,0,0:0:0:0:
256,192,54534,1,0,0:0:0:0:
256,192,54620,1,2,0:0:0:0:
256,192,54963,1,4,0:0:0:0:
256,192,55306,1,2,0:0:0:0:
256,192,55477,1,0,0:0:0:0:
256,192,55563,1,2,0:0:0:0:
256,192,55648,1,0,0:0:0:0:
256,192,55820,1,0,0:0:0:0:
256,192,55991,1,2,0:0:0:0:
256,192,56077,1,2,0:0:0:0:
256,192,56163,1,0,0:0:0:0:
256,192,56334,1,0,0:0:0:0:
256,192,56677,1,2,0:0:0:0:
256,192,56848,1,0,0:0:0:0:
256,192,56934,1,2,0:0:0:0:
256,192,57020,1,2,0:0:0:0:
256,192,57191,1,0,0:0:0:0:
256,192,57363,1,2,0:0:0:0:
256,192,57448,1,2,0:0:0:0:
256,192,57534,1,0,0:0:0:0:
256,192,57706,1,0,0:0:0:0:
256,192,58048,1,2,0:0:0:0:
256,192,58220,1,0,0:0:0:0:
256,192,58306,1,2,0:0:0:0:
256,192,58391,1,0,0:0:0:0:
256,192,58563,1,0,0:0:0:0:
256,192,58734,1,2,0:0:0:0:
256,192,58820,1,2,0:0:0:0:
256,192,58906,1,0,0:0:0:0:
256,192,59077,1,0,0:0:0:0:
256,192,59420,1,2,0:0:0:0:
256,192,59591,1,0,0:0:0:0:
256,192,59677,1,2,0:0:0:0:
256,192,59763,1,2,0:0:0:0:
256,192,59934,1,0,0:0:0:0:
256,192,60106,1,2,0:0:0:0:
256,192,60191,1,2,0:0:0:0:
256,192,60277,1,0,0:0:0:0:
256,192,60363,1,0,0:0:0:0:
256,192,60448,1,0,0:0:0:0:
256,192,60791,1,2,0:0:0:0:
256,192,60963,1,0,0:0:0:0:
256,192,61048,1,2,0:0:0:0:
256,192,61134,1,0,0:0:0:0:
256,192,61306,1,0,0:0:0:0:
256,192,61477,1,2,0:0:0:0:
256,192,61563,1,2,0:0:0:0:
256,192,61648,1,0,0:0:0:0:
256,192,61820,1,0,0:0:0:0:
256,192,62163,1,2,0:0:0:0:
256,192,62334,1,0,0:0:0:0:
256,192,62420,1,2,0:0:0:0:
256,192,62506,1,2,0:0:0:0:
256,192,62677,1,0,0:0:0:0:
256,192,62848,1,2,0:0:0:0:
256,192,62934,1,2,0:0:0:0:
256,192,63020,1,0,0:0:0:0:
256,192,63191,1,0,0:0:0:0:
256,192,63534,1,2,0:0:0:0:
256,192,63706,1,0,0:0:0:0:
256,192,63791,1,2,0:0:0:0:
256,192,63877,1,0,0:0:0:0:
256,192,64048,1,0,0:0:0:0:
256,192,64220,1,2,0:0:0:0:
256,192,64306,1,2,0:0:0:0:
256,192,64391,1,0,0:0:0:0:
256,192,64563,1,0,0:0:0:0:
256,192,64906,1,2,0:0:0:0:
256,192,65077,1,0,0:0:0:0:
256,192,65163,1,2,0:0:0:0:
256,192,65248,1,2,0:0:0:0:
256,192,65420,1,0,0:0:0:0:
256,192,65591,1,2,0:0:0:0:
256,192,65677,1,0,0:0:0:0:
256,192,65934,1,4,0:0:0:0:
256,192,66191,1,2,0:0:0:0:
256,192,66448,1,0,0:0:0:0:
256,192,66534,1,2,0:0:0:0:
256,192,66620,1,0,0:0:0:0:
256,192,66791,1,0,0:0:0:0:
256,192,66877,1,2,0:0:0:0:
256,192,67134,1,0,0:0:0:0:
256,192,67220,1,2,0:0:0:0:
256,192,67306,1,0,0:0:0:0:
256,192,67477,1,0,0:0:0:0:
256,192,67563,1,2,0:0:0:0:
256,192,67820,1,0,0:0:0:0:
256,192,67906,1,2,0:0:0:0:
256,192,67991,1,0,0:0:0:0:
256,192,68163,1,0,0:0:0:0:
256,192,68248,1,2,0:0:0:0:
256,192,68506,1,0,0:0:0:0:
256,192,68591,1,2,0:0:0:0:
256,192,68677,1,0,0:0:0:0:
256,192,68934,1,2,0:0:0:0:
256,192,69191,1,0,0:0:0:0:
256,192,69277,1,2,0:0:0:0:
256,192,69363,1,0,0:0:0:0:
256,192,69534,1,2,0:0:0:0:
256,192,69706,1,0,0:0:0:0:
256,192,69791,1,0,0:0:0:0:
256,192,69877,1,2,0:0:0:0:
256,192,69963,1,2,0:0:0:0:
256,192,70048,1,0,0:0:0:0:
256,192,70220,1,2,0:0:0:0:
256,192,70306,1,0,0:0:0:0:
256,192,70391,1,2,0:0:0:0:
256,192,70563,1,2,0:0:0:0:
256,192,70648,1,0,0:0:0:0:
256,192,70734,1,2,0:0:0:0:
256,192,70906,1,2,0:0:0:0:
256,192,70991,1,0,0:0:0:0:
256,192,71077,1,2,0:0:0:0:
256,192,71420,1,4,0:0:0:0:
256,192,71677,1,0,0:0:0:0:
256,192,71763,1,2,0:0:0:0:
256,192,71934,1,0,0:0:0:0:
256,192,72106,1,0,0:0:0:0:
256,192,72191,1,0,0:0:0:0:
256,192,72277,1,2,0:0:0:0:
256,192,72448,1,0,0:0:0:0:
256,192,72620,1,0,0:0:0:0:
256,192,72706,1,0,0:0:0:0:
256,192,72791,1,2,0:0:0:0:
256,192,73048,1,0,0:0:0:0:
256,192,73134,1,2,0:0:0:0:
256,192,73306,1,0,0:0:0:0:
256,192,73477,1,2,0:0:0:0:
256,192,73563,1,2,0:0:0:0:
256,192,73648,1,0,0:0:0:0:
256,192,73820,1,2,0:0:0:0:
256,192,73991,1,0,0:0:0:0:
256,192,74077,1,2,0:0:0:0:
256,192,74163,1,0,0:0:0:0:
256,192,74420,1,0,0:0:0:0:
256,192,74506,1,2,0:0:0:0:
256,192,74677,1,0,0:0:0:0:
256,192,74848,1,0,0:0:0:0:
256,192,74934,1,0,0:0:0:0:
256,192,75020,1,2,0:0:0:0:
256,192,75191,1,0,0:0:0:0:
256,192,75363,1,0,0:0:0:0:
256,192,75448,1,0,0:0:0:0:
256,192,75534,1,2,0:0:0:0:
256,192,75791,1,0,0:0:0:0:
256,192,75877,1,2,0:0:0:0:
256,192,76048,1,2,0:0:0:0:
256,192,76134,1,0,0:0:0:0:
256,192,76220,1,2,0:0:0:0:
256,192,76391,1,0,0:0:0:0:
256,192,76563,1,2,0:0:0:0:
256,192,76648,1,2,0:0:0:0:
256,192,76734,1,0,0:0:0:0:
256,192,76820,1,2,0:0:0:0:
256,192,76906,1,0,0:0:0:0:
256,192,77163,1,0,0:0:0:0:
256,192,77248,1,2,0:0:0:0:
256,192,77420,1,0,0:0:0:0:
256,192,77591,1,0,0:0:0:0:
256,192,77677,1,0,0:0:0:0:
256,192,77763,1,2,0:0:0:0:
256,192,77934,1,0,0:0:0:0:
256,192,78106,1,0,0:0:0:0:
256,192,78191,1,0,0:0:0:0:
256,192,78277,1,2,0:0:0:0:
256,192,78534,1,0,0:0:0:0:
256,192,78620,1,2,0:0:0:0:
256,192,78791,1,0,0:0:0:0:
256,192,78963,1,2,0:0:0:0:
256,192,79048,1,2,0:0:0:0:
256,192,79134,1,0,0:0:0:0:
256,192,79306,1,2,0:0:0:0:
256,192,79477,1,0,0:0:0:0:
256,192,79563,1,2,0:0:0:0:
256,192,79648,1,0,0:0:0:0:
256,192,79906,1,0,0:0:0:0:
256,192,79991,1,2,0:0:0:0:
256,192,80163,1,0,0:0:0:0:
256,192,80334,1,0,0:0:0:0:
256,192,80420,1,0,0:0:0:0:
256,192,80506,1,2,0:0:0:0:
256,192,80677,1,0,0:0:0:0:
256,192,80848,1,0,0:0:0:0:
256,192,80934,1,0,0:0:0:0:
256,192,81020,1,2,0:0:0:0:
256,192,81277,1,0,0:0:0:0:
256,192,81363,1,2,0:0:0:0:
256,192,81534,1,2,0:0:0:0:
256,192,81620,1,0,0:0:0:0:
256,192,81706,1,2,0:0:0:0:
256,192,81877,1,0,0:0:0:0:
256,192,82048,1,2,0:0:0:0:
256,192,82134,1,2,0:0:0:0:
256,192,82220,1,0,0:0:0:0:
256,192,82306,1,2,0:0:0:0:
256,192,82391,1,0,0:0:0:0:
256,192,82648,1,0,0:0:0:0:
256,192,82734,1,2,0:0:0:0:
256,192,82906,1,0,0:0:0:0:
256,192,83077,1,2,0:0:0:0:
256,192,83163,1,0,0:0:0:0:
256,192,83248,1,2,0:0:0:0:
256,192,83420,1,0,0:0:0:0:
256,192,83591,1,0,0:0:0:0:
256,192,83677,1,0,0:0:0:0:
256,192,83763,1,2,0:0:0:0:
256,192,84020,1,0,0:0:0:0:
256,192,84106,1,2,0:0:0:0:
256,192,84277,1,2,0:0:0:0:
256,192,84363,1,2,0:0:0:0:
256,192,84448,1,0,0:0:0:0:
256,192,84620,1,0,0:0:0:0:
256,192,84791,1,2,0:0:0:0:
256,192,84963,1,0,0:0:0:0:
256,192,85048,1,2,0:0:0:0:
256,192,85134,1,0,0:0:0:0:
256,192,85391,1,0,0:0:0:0:
256,192,85477,1,2,0:0:0:0:
256,192,85648,1,0,0:0:0:0:
256,192,85820,1,2,0:0:0:0:
256,192,85906,1,0,0:0:0:0:
256,192,85991,1,2,0:0:0:0:
256,192,86163,1,0,0:0:0:0:
256,192,86334,1,0,0:0:0:0:
256,192,86420,1,0,0:0:0:0:
256,192,86506,1,2,0:0:0:0:
256,192,86763,1,0,0:0:0:0:
256,192,86848,1,2,0:0:0:0:
256,192,87020,1,2,0:0:0:0:
256,192,87106,1,0,0:0:0:0:
256,192,87191,1,2,0:0:0:0:
256,192,87363,1,0,0:0:0:0:
256,192,87534,1,2,0:0:0:0:
256,192,87620,1,2,0:0:0:0:
256,192,87706,1,0,0:0:0:0:
256,192,87791,1,2,0:0:0:0:
256,192,87877,1,0,0:0:0:0:
256,192,88134,1,0,0:0:0:0:
256,192,88220,1,2,0:0:0:0:
256,192,88391,1,0,0:0:0:0:
256,192,88563,1,2,0:0:0:0:
256,192,88648,1,0,0:0:0:0:
256,192,88734,1,2,0:0:0:0:
256,192,88906,1,0,0:0:0:0:
256,192,89077,1,0,0:0:0:0:
256,192,89163,1,0,0:0:0:0:
256,192,89248,1,2,0:0:0:0:
256,192,89506,1,0,0:0:0:0:
256,192,89591,1,2,0:0:0:0:
256,192,89763,1,2,0:0:0:0:
256,192,89848,1,2,0:0:0:0:
256,192,89934,1,0,0:0:0:0:
256,192,90106,1,0,0:0:0:0:
256,192,90277,1,2,0:0:0:0:
256,192,90448,1,0,0:0:0:0:
256,192,90534,1,2,0:0:0:0:
256,192,90620,1,0,0:0:0:0:
256,192,90877,1,0,0:0:0:0:
256,192,90963,1,2,0:0:0:0:
256,192,91134,1,0,0:0:0:0:
256,192,91306,1,2,0:0:0:0:
256,192,91391,1,0,0:0:0:0:
256,192,91477,1,2,0:0:0:0:
256,192,91648,1,0,0:0:0:0:
256,192,91820,1,0,0:0:0:0:
256,192,91906,1,0,0:0:0:0:
256,192,91991,1,2,0:0:0:0:
256,192,92248,1,0,0:0:0:0:
256,192,92334,1,2,0:0:0:0:
256,192,92506,1,2,0:0:0:0:
256,192,92591,1,0,0:0:0:0:
256,192,92677,1,2,0:0:0:0:
256,192,92848,1,0,0:0:0:0:
256,192,93020,1,2,0:0:0:0:
256,192,93363,1,4,0:0:0:0:
256,192,93620,1,0,0:0:0:0:
256,192,93706,1,2,0:0:0:0:
256,192,93877,1,2,0:0:0:0:
256,192,93963,1,0,0:0:0:0:
256,192,94048,1,0,0:0:0:0:
256,192,94134,1,0,0:0:0:0:
256,192,94220,1,2,0:0:0:0:
256,192,94391,1,0,0:0:0:0:
256,192,94563,1,0,0:0:0:0:
256,192,94648,1,2,0:0:0:0:
256,192,94734,1,0,0:0:0:0:
256,192,94991,1,0,0:0:0:0:
256,192,95077,1,2,0:0:0:0:
256,192,95163,1,2,0:0:0:0:
256,192,95248,1,0,0:0:0:0:
256,192,95420,1,2,0:0:0:0:
256,192,95506,1,2,0:0:0:0:
256,192,95591,1,0,0:0:0:0:
256,192,95763,1,2,0:0:0:0:
256,192,95934,1,0,0:0:0:0:
256,192,96020,1,2,0:0:0:0:
256,192,96106,1,0,0:0:0:0:
256,192,96363,1,0,0:0:0:0:
256,192,96448,1,2,0:0:0:0:
256,192,96620,1,2,0:0:0:0:
256,192,96706,1,2,0:0:0:0:
256,192,96791,1,0,0:0:0:0:
256,192,96877,1,0,0:0:0:0:
256,192,96963,1,2,0:0:0:0:
256,192,97134,1,0,0:0:0:0:
256,192,97306,1,0,0:0:0:0:
256,192,97391,1,2,0:0:0:0:
256,192,97477,1,0,0:0:0:0:
256,192,97734,1,0,0:0:0:0:
256,192,97820,1,2,0:0:0:0:
256,192,97906,1,2,0:0:0:0:
256,192,97991,1,0,0:0:0:0:
256,192,98163,1,2,0:0:0:0:
256,192,98248,1,2,0:0:0:0:
256,192,98334,1,0,0:0:0:0:
256,192,98506,1,2,0:0:0:0:
256,192,98591,1,0,0:0:0:0:
256,192,98677,1,2,0:0:0:0:
256,192,98763,1,2,0:0:0:0:
256,192,98848,1,0,0:0:0:0:
256,192,99106,1,0,0:0:0:0:
256,192,99191,1,2,0:0:0:0:
256,192,99363,1,2,0:0:0:0:
256,192,99448,1,2,0:0:0:0:
256,192,99534,1,0,0:0:0:0:
256,192,99620,1,2,0:0:0:0:
256,192,99706,1,2,0:0:0:0:
256,192,99877,1,0,0:0:0:0:
256,192,100048,1,0,0:0:0:0:
256,192,100134,1,2,0:0:0:0:
256,192,100220,1,0,0:0:0:0:
256,192,100477,1,0,0:0:0:0:
256,192,100563,1,2,0:0:0:0:
256,192,100648,1,2,0:0:0:0:
256,192,100734,1,0,0:0:0:0:
256,192,100906,1,2,0:0:0:0:
256,192,100991,1,2,0:0:0:0:
256,192,101077,1,0,0:0:0:0:
256,192,101248,1,2,0:0:0:0:
256,192,101420,1,0,0:0:0:0:
256,192,101506,1,2,0:0:0:0:
256,192,101591,1,0,0:0:0:0:
256,192,101848,1,0,0:0:0:0:
256,192,101934,1,2,0:0:0:0:
256,192,102106,1,2,0:0:0:0:
256,192,102191,1,2,0:0:0:0:
256,192,102277,1,0,0:0:0:0:
256,192,102363,1,0,0:0:0:0:
256,192,102448,1,2,0:0:0:0:
256,192,102620,1,0,0:0:0:0:
256,192,102791,1,0,0:0:0:0:
256,192,102877,1,0,0:0:0:0:
256,192,102963,1,2,0:0:0:0:
256,192,103134,1,0,0:0:0:0:
256,192,103220,1,2,0:0:0:0:
256,192,103391,1,0,0:0:0:0:
256,192,103477,1,2,0:0:0:0:
256,192,103648,1,0,0:0:0:0:
256,192,103734,1,2,0:0:0:0:
256,192,103820,1,0,0:0:0:0:
256,192,103906,1,0,0:0:0:0:
256,192,103991,1,2,0:0:0:0:
256,192,104077,1,2,0:0:0:0:
256,192,104163,1,2,0:0:0:0:
256,192,104334,1,4,0:0:0:0:
256,192,104591,1,0,0:0:0:0:
256,192,104677,1,2,0:0:0:0:
256,192,104848,1,2,0:0:0:0:
256,192,104934,1,0,0:0:0:0:
256,192,105020,1,0,0:0:0:0:
256,192,105106,1,0,0:0:0:0:
256,192,105191,1,2,0:0:0:0:
256,192,105363,1,0,0:0:0:0:
256,192,105534,1,0,0:0:0:0:
256,192,105620,1,2,0:0:0:0:
256,192,105706,1,0,0:0:0:0:
256,192,105963,1,0,0:0:0:0:
256,192,106048,1,2,0:0:0:0:
256,192,106134,1,2,0:0:0:0:
256,192,106220,1,0,0:0:0:0:
256,192,106391,1,2,0:0:0:0:
256,192,106477,1,2,0:0:0:0:
256,192,106563,1,0,0:0:0:0:
256,192,106734,1,2,0:0:0:0:
256,192,106906,1,0,0:0:0:0:
256,192,106991,1,2,0:0:0:0:
256,192,107077,1,0,0:0:0:0:
256,192,107334,1,0,0:0:0:0:
256,192,107420,1,2,0:0:0:0:
256,192,107591,1,2,0:0:0:0:
256,192,107677,1,2,0:0:0:0:
256,192,107763,1,0,0:0:0:0:
256,192,107848,1,0,0:0:0:0:
256,192,107934,1,2,0:0:0:0:
256,192,108106,1,0,0:0:0:0:
256,192,108277,1,0,0:0:0:0:
256,192,108363,1,2,0:0:0:0:
256,192,108448,1,0,0:0:0:0:
256,192,108706,1,0,0:0:0:0:
256,192,108791,1,2,0:0:0:0:
256,192,108877,1,2,0:0:0:0:
256,192,108963,1,0,0:0:0:0:
256,192,109134,1,2,0:0:0:0:
256,192,109220,1,2,0:0:0:0:
256,192,109306,1,0,0:0:0:0:
256,192,109477,1,2,0:0:0:0:
256,192,109563,1,0,0:0:0:0:
256,192,109648,1,2,0:0:0:0:
256,192,109734,1,2,0:0:0:0:
256,192,109820,1,0,0:0:0:0:
256,192,110077,1,0,0:0:0:0:
256,192,110163,1,2,0:0:0:0:
256,192,110334,1,2,0:0:0:0:
256,192,110420,1,2,0:0:0:0:
256,192,110506,1,0,0:0:0:0:
256,192,110591,1,2,0:0:0:0:
256,192,110677,1,2,0:0:0:0:
256,192,110848,1,0,0:0:0:0:
256,192,111020,1,0,0:0:0:0:
256,192,111106,1,2,0:0:0:0:
256,192,111191,1,0,0:0:0:0:
256,192,111448,1,0,0:0:0:0:
256,192,111534,1,2,0:0:0:0:
256,192,111620,1,2,0:0:0:0:
256,192,111706,1,0,0:0:0:0:
256,192,111877,1,2,0:0:0:0:
256,192,111963,1,2,0:0:0:0:
256,192,112048,1,0,0:0:0:0:
256,192,112220,1,2,0:0:0:0:
256,192,112391,1,0,0:0:0:0:
256,192,112477,1,2,0:0:0:0:
256,192,112563,1,0,0:0:0:0:
256,192,112820,1,0,0:0:0:0:
256,192,112906,1,2,0:0:0:0:
256,192,113077,1,2,0:0:0:0:
256,192,113163,1,2,0:0:0:0:
256,192,113248,1,0,0:0:0:0:
256,192,113334,1,0,0:0:0:0:
256,192,113420,1,2,0:0:0:0:
256,192,113591,1,0,0:0:0:0:
256,192,113763,1,0,0:0:0:0:
256,192,113848,1,0,0:0:0:0:
256,192,113934,1,2,0:0:0:0:
256,192,114106,1,0,0:0:0:0:
256,192,114191,1,2,0:0:0:0:
256,192,114363,1,0,0:0:0:0:
256,192,114448,1,2,0:0:0:0:
256,192,114620,1,0,0:0:0:0:
256,192,114706,1,2,0:0:0:0:
256,192,114791,1,0,0:0:0:0:
256,192,114877,1,0,0:0:0:0:
256,192,114963,1,2,0:0:0:0:
256,192,115048,1,2,0:0:0:0:
256,192,115134,1,2,0:0:0:0:
256,192,115306,1,4,0:0:0:0:
256,192,115563,1,0,0:0:0:0:
256,192,115648,1,2,0:0:0:0:
256,192,115820,1,0,0:0:0:0:
256,192,115906,1,2,0:0:0:0:
256,192,116163,1,0,0:0:0:0:
256,192,116334,1,2,0:0:0:0:
256,192,116677,1,0,0:0:0:0:
256,192,116848,1,2,0:0:0:0:
256,192,116934,1,0,0:0:0:0:
256,192,117106,1,0,0:0:0:0:
256,192,117191,1,0,0:0:0:0:
256,192,117277,1,2,0:0:0:0:
256,192,117534,1,0,0:0:0:0:
256,192,117706,1,2,0:0:0:0:
256,192,118048,1,0,0:0:0:0:
256,192,118306,1,0,0:0:0:0:
256,192,118391,1,2,0:0:0:0:
256,192,118563,1,0,0:0:0:0:
256,192,118648,1,2,0:0:0:0:
256,192,118906,1,0,0:0:0:0:
256,192,119077,1,2,0:0:0:0:
256,192,119420,1,0,0:0:0:0:
256,192,119506,1,2,0:0:0:0:
256,192,119591,1,0,0:0:0:0:
256,192,119677,1,0,0:0:0:0:
256,192,119763,1,2,0:0:0:0:
256,192,119934,1,0,0:0:0:0:
256,192,120020,1,2,0:0:0:0:
256,192,120191,1,2,0:0:0:0:
256,192,120277,1,0,0:0:0:0:
256,192,120448,1,2,0:0:0:0:
256,192,120534,1,0,0:0:0:0:
256,192,120620,1,2,0:0:0:0:
256,192,120706,1,2,0:0:0:0:
256,192,120791,1,0,0:0:0:0:
256,192,121048,1,0,0:0:0:0:
256,192,121134,1,2,0:0:0:0:
256,192,121306,1,0,0:0:0:0:
256,192,121391,1,2,0:0:0:0:
256,192,121648,1,0,0:0:0:0:
256,192,121820,1,2,0:0:0:0:
256,192,122163,1,0,0:0:0:0:
256,192,122334,1,2,0:0:0:0:
256,192,122420,1,0,0:0:0:0:
256,192,122591,1,0,0:0:0:0:
256,192,122677,1,0,0:0:0:0:
256,192,122763,1,2,0:0:0:0:
256,192,123020,1,0,0:0:0:0:
256,192,123191,1,2,0:0:0:0:
256,192,123534,1,0,0:0:0:0:
256,192,123791,1,0,0:0:0:0:
256,192,123877,1,2,0:0:0:0:
256,192,124048,1,0,0:0:0:0:
256,192,124134,1,2,0:0:0:0:
256,192,124391,1,0,0:0:0:0:
256,192,124563,1,2,0:0:0:0:
256,192,124906,1,0,0:0:0:0:
256,192,124991,1,2,0:0:0:0:
256,192,125077,1,0,0:0:0:0:
256,192,125163,1,0,0:0:0:0:
256,192,125248,1,2,0:0:0:0:
256,192,125420,1,0,0:0:0:0:
256,192,125506,1,2,0:0:0:0:
256,192,125677,1,2,0:0:0:0:
256,192,125763,1,0,0:0:0:0:
256,192,125934,1,2,0:0:0:0:
256,192,126020,1,0,0:0:0:0:
256,192,126106,1,2,0:0:0:0:
256,192,126191,1,2,0:0:0:0:
256,192,126277,1,0,0:0:0:0:
256,192,126534,1,0,0:0:0:0:
256,192,126620,1,2,0:0:0:0:
256,192,126791,1,2,0:0:0:0:
256,192,126877,1,0,0:0:0:0:
256,192,126963,1,2,0:0:0:0:
256,192,127048,1,2,0:0:0:0:
256,192,127134,1,0,0:0:0:0:
256,192,127306,1,0,0:0:0:0:
256,192,127477,1,2,0:0:0:0:
256,192,127563,1,2,0:0:0:0:
256,192,127648,1,0,0:0:0:0:
256,192,127906,1,0,0:0:0:0:
256,192,127991,1,2,0:0:0:0:
256,192,128163,1,0,0:0:0:0:
256,192,128248,1,0,0:0:0:0:
256,192,128334,1,2,0:0:0:0:
256,192,128420,1,2,0:0:0:0:
256,192,128506,1,0,0:0:0:0:
256,192,128591,1,0,0:0:0:0:
256,192,128677,1,2,0:0:0:0:
256,192,128763,1,0,0:0:0:0:
256,192,128848,1,0,0:0:0:0:
256,192,128934,1,2,0:0:0:0:
256,192,129020,1,0,0:0:0:0:
256,192,129277,1,0,0:0:0:0:
256,192,129363,1,2,0:0:0:0:
256,192,129534,1,2,0:0:0:0:
256,192,129620,1,0,0:0:0:0:
256,192,129706,1,2,0:0:0:0:
256,192,129791,1,2,0:0:0:0:
256,192,129877,1,0,0:0:0:0:
256,192,130048,1,0,0:0:0:0:
256,192,130220,1,2,0:0:0:0:
256,192,130306,1,2,0:0:0:0:
256,192,130391,1,0,0:0:0:0:
256,192,130648,1,0,0:0:0:0:
256,192,130734,1,2,0:0:0:0:
256,192,130906,1,2,0:0:0:0:
256,192,130991,1,2,0:0:0:0:
256,192,131077,1,0,0:0:0:0:
256,192,131248,1,0,0:0:0:0:
256,192,131420,1,2,0:0:0:0:
256,192,131506,1,2,0:0:0:0:
256,192,131591,1,0,0:0:0:0:
256,192,131677,1,2,0:0:0:0:
256,192,131763,1,0,0:0:0:0:
256,192,132020,1,0,0:0:0:0:
256,192,132106,1,2,0:0:0:0:
256,192,132277,1,2,0:0:0:0:
256,192,132363,1,0,0:0:0:0:
256,192,132448,1,2,0:0:0:0:
256,192,132534,1,2,0:0:0:0:
256,192,132620,1,0,0:0:0:0:
256,192,132791,1,0,0:0:0:0:
256,192,132963,1,2,0:0:0:0:
256,192,133048,1,2,0:0:0:0:
256,192,133134,1,0,0:0:0:0:
256,192,133391,1,0,0:0:0:0:
256,192,133477,1,2,0:0:0:0:
256,192,133648,1,0,0:0:0:0:
256,192,133734,1,0,0:0:0:0:
256,192,133820,1,2,0:0:0:0:
256,192,133906,1,2,0:0:0:0:
256,192,133991,1,0,0:0:0:0:
256,192,134077,1,0,0:0:0:0:
256,192,134163,1,2,0:0:0:0:
256,192,134248,1,0,0:0:0:0:
256,192,134334,1,0,0:0:0:0:
256,192,134420,1,2,0:0:0:0:
256,192,134506,1,0,0:0:0:0:
256,192,134763,1,0,0:0:0:0:
256,192,134848,1,2,0:0:0:0:
256,192,135020,1,2,0:0:0:0:
256,192,135106,1,0,0:0:0:0:
256,192,135191,1,2,0:0:0:0:
256,192,135277,1,2,0:0:0:0:
256,192,135363,1,0,0:0:0:0:
256,192,135534,1,0,0:0:0:0:
256,192,135706,1,2,0:0:0:0:
256,192,135791,1,2,0:0:0:0:
256,192,135877,1,0,0:0:0:0:
256,192,136134,1,0,0:0:0:0:
256,192,136220,1,2,0:0:0:0:
256,192,136391,1,2,0:0:0:0:
256,192,136477,1,2,0:0:0:0:
256,192,136563,1,0,0:0:0:0:
256,192,136648,1,2,0:0:0:0:
256,192,136734,1,0,0:0:0:0:
256,192,136820,1,0,0:0:0:0:
256,192,136906,1,2,0:0:0:0:
256,192,136991,1,2,0:0:0:0:
256,192,137077,1,0,0:0:0:0:
256,192,137163,1,0,0:0:0:0:
256,192,137248,1,0,0:0:0:0:
