osu file format v14

[General]
AudioFilename: Furries in a Blender - Storm World - 02 Storm World.mp3
AudioLeadIn: 0
PreviewTime: 71420
Countdown: 0
SampleSet: Normal
StackLeniency: 0.7
Mode: 1
LetterboxInBreaks: 0
WidescreenStoryboard: 0

[Editor]
Bookmarks: 43991
DistanceSpacing: 1
BeatDivisor: 4
GridSize: 32
TimelineZoom: 1.5

[Metadata]
Title:Storm World
TitleUnicode:Storm World
Artist:Furries in a Blender
ArtistUnicode:Furries in a Blender
Creator:Firce777
Version:Muzukashii
Source:
Tags:MBC9 monthly beatmapping contest LapFox Trax Renard
BeatmapID:711060
BeatmapSetID:319473

[Difficulty]
HPDrainRate:6
CircleSize:5
OverallDifficulty:5
ApproachRate:5
SliderMultiplier:1.4
SliderTickRate:1

[Events]
//Background and Video events
0,0,"Cataclysm-3D-Tornado-l.jpg",0,0
//Break Periods
//Storyboard Layer 0 (Background)
//Storyboard Layer 1 (Fail)
//Storyboard Layer 2 (Pass)
//Storyboard Layer 3 (Foreground)
//Storyboard Sound Samples

[TimingPoints]
106,342.857142857143,4,1,0,70,1,0
54963,-100,4,1,0,70,0,1
65934,-100,4,1,0,70,0,0
71420,-100,4,1,0,70,0,1
115306,-100,4,1,0,70,0,0

[HitObjects]
256,192,106,5,4,0:0:0:0:
256,192,448,1,2,0:0:0:0:
256,192,963,1,0,0:0:0:0:
256,192,1134,1,2,0:0:0:0:
256,192,1477,1,0,0:0:0:0:
256,192,1820,1,2,0:0:0:0:
256,192,2334,1,0,0:0:0:0:
256,192,2506,1,2,0:0:0:0:
256,192,2848,1,0,0:0:0:0:
256,192,3191,1,2,0:0:0:0:
256,192,3706,1,0,0:0:0:0:
256,192,3877,1,2,0:0:0:0:
256,192,4220,1,0,0:0:0:0:
256,192,4563,1,2,0:0:0:0:
256,192,5077,1,0,0:0:0:0:
256,192,5248,1,2,0:0:0:0:
256,192,5420,1,0,0:0:0:0:
256,192,5591,1,0,0:0:0:0:
256,192,5934,1,2,0:0:0:0:
256,192,6448,1,0,0:0:0:0:
256,192,6620,1,2,0:0:0:0:
256,192,6963,1,0,0:0:0:0:
256,192,7306,1,2,0:0:0:0:
256,192,7820,1,0,0:0:0:0:
256,192,7991,1,2,0:0:0:0:
256,192,8334,1,0,0:0:0:0:
256,192,8677,1,2,0:0:0:0:
256,192,9191,1,0,0:0:0:0:
256,192,9363,1,2,0:0:0:0:
256,192,9706,1,0,0:0:0:0:
256,192,10048,1,2,0:0:0:0:
256,192,10563,1,0,0:0:0:0:
256,192,10734,1,2,0:0:0:0:
256,192,10906,1,0,0:0:0:0:
256,192,11077,1,0,0:0:0:0:
256,192,11420,1,2,0:0:0:0:
256,192,11677,1,0,0:0:0:0:
256,192,11934,1,0,0:0:0:0:
256,192,12106,1,2,0:0:0:0:
256,192,12448,1,0,0:0:0:0:
256,192,12791,1,2,0:0:0:0:
256,192,13048,1,0,0:0:0:0:
256,192,13306,1,0,0:0:0:0:
256,192,13477,1,2,0:0:0:0:
256,192,13648,1,0,0:0:0:0:
256,192,13820,1,0,0:0:0:0:
256,192,14163,1,2,0:0:0:0:
256,192,14420,1,0,0:0:0:0:
256,192,14677,1,0,0:0:0:0:
256,192,14848,1,2,0:0:0:0:
256,192,15191,1,0,0:0:0:0:
256,192,15534,1,2,0:0:0:0:
256,192,15791,1,2,0:0:0:0:
256,192,16048,1,0,0:0:0:0:
256,192,16220,1,2,0:0:0:0:
256,192,16391,1,2,0:0:0:0:
256,192,16563,1,0,0:0:0:0:
256,192,16906,1,2,0:0:0:0:
256,192,17163,1,0,0:0:0:0:
256,192,17420,1,0,0:0:0:0:
256,192,17591,1,2,0:0:0:0:
256,192,17934,1,0,0:0:0:0:
256,192,18277,1,2,0:0:0:0:
256,192,18534,1,0,0:0:0:0:
256,192,18791,1,0,0:0:0:0:
256,192,18963,1,2,0:0:0:0:
256,192,19134,1,0,0:0:0:0:
256,192,19306,1,0,0:0:0:0:
256,192,19648,1,2,0:0:0:0:
256,192,19906,1,0,0:0:0:0:
256,192,20163,1,0,0:0:0:0:
256,192,20334,1,2,0:0:0:0:
256,192,20677,1,0,0:0:0:0:
256,192,21020,1,2,0:0:0:0:
256,192,21277,1,2,0:0:0:0:
256,192,21534,1,0,0:0:0:0:
256,192,21706,1,2,0:0:0:0:
256,192,21877,1,2,0:0:0:0:
256,192,22048,1,4,0:0:0:0:
256,192,22391,1,0,0:0:0:0:
256,192,22563,1,2,0:0:0:0:
256,192,22648,1,2,0:0:0:0:
256,192,22906,1,0,0:0:0:0:
256,192,23077,1,2,0:0:0:0:
256,192,23420,1,0,0:0:0:0:
256,192,23763,1,2,0:0:0:0:
256,192,23934,1,0,0:0:0:0:
256,192,24020,1,0,0:0:0:0:
256,192,24106,1,0,0:0:0:0:
256,192,24277,1,0,0:0:0:0:
256,192,24448,1,2,0:0:0:0:
256,192,24791,1,0,0:0:0:0:
256,192,25134,1,0,0:0:0:0:
256,192,25306,1,2,0:0:0:0:
256,192,25391,1,2,0:0:0:0:
256,192,25648,1,0,0:0:0:0:
256,192,25820,1,2,0:0:0:0:
256,192,26163,1,0,0:0:0:0:
256,192,26334,1,0,0:0:0:0:
256,192,26506,1,2,0:0:0:0:
256,192,26763,1,2,0:0:0:0:
256,192,27020,1,0,0:0:0:0:
256,192,27191,1,2,0:0:0:0:
256,192,27363,1,0,0:0:0:0:
256,192,27534,1,0,0:0:0:0:
256,192,27877,1,0,0:0:0:0:
256,192,28048,1,2,0:0:0:0:
256,192,28134,1,2,0:0:0:0:
256,192,28391,1,0,0:0:0:0:
256,192,28563,1,2,0:0:0:0:
256,192,28906,1,0,0:0:0:0:
256,192,29248,1,2,0:0:0:0:
256,192,29420,1,0,0:0:0:0:
256,192,29506,1,0,0:0:0:0:
256,192,29591,1,0,0:0:0:0:
256,192,29763,1,0,0:0:0:0:
256,192,29934,1,2,0:0:0:0:
256,192,30277,1,0,0:0:0:0:
256,192,30620,1,0,0:0:0:0:
256,192,30791,1,2,0:0:0:0:
256,192,30877,1,2,0:0:0:0:
256,192,31134,1,0,0:0:0:0:
256,192,31306,1,2,0:0:0:0:
256,192,31648,1,0,0:0:0:0:
256,192,31820,1,0,0:0:0:0:
256,192,31991,1,2,0:0:0:0:
256,192,32248,1,2,0:0:0:0:
256,192,32506,1,0,0:0:0:0:
256,192,32677,1,2,0:0:0:0:
256,192,32848,1,0,0:0:0:0:
256,192,33020,1,0,0:0:0:0:
256,192,33363,1,2,0:0:0:0:
256,192,33534,1,0,0:0:0:0:
256,192,33706,1,2,0:0:0:0:
256,192,33877,1,0,0:0:0:0:
256,192,33963,1,0,0:0:0:0:
256,192,34048,1,0,0:0:0:0:
256,192,34220,1,2,0:0:0:0:
256,192,34391,1,0,0:0:0:0:
256,192,34734,1,2,0:0:0:0:
256,192,34906,1,0,0:0:0:0:
256,192,35077,1,2,0:0:0:0:
256,192,35163,1,2,0:0:0:0:
256,192,35248,1,2,0:0:0:0:
256,192,35420,1,0,0:0:0:0:
256,192,35591,1,2,0:0:0:0:
256,192,35763,1,0,0:0:0:0:
256,192,36106,1,2,0:0:0:0:
256,192,36277,1,0,0:0:0:0:
256,192,36448,1,2,0:0:0:0:
256,192,36620,1,0,0:0:0:0:
256,192,36706,1,0,0:0:0:0:
256,192,36791,1,0,0:0:0:0:
256,192,36963,1,2,0:0:0:0:
256,192,37134,1,0,0:0:0:0:
256,192,37477,1,2,0:0:0:0:
256,192,37820,1,0,0:0:0:0:
256,192,38163,1,0,0:0:0:0:
256,192,38248,1,0,0:0:0:0:
256,192,38334,1,0,0:0:0:0:
256,192,38506,1,0,0:0:0:0:
256,192,38848,1,2,0:0:0:0:
256,192,39020,1,0,0:0:0:0:
256,192,39191,1,2,0:0:0:0:
256,192,39363,1,0,0:0:0:0:
256,192,39448,1,0,0:0:0:0:
256,192,39534,1,0,0:0:0:0:
256,192,39706,1,2,0:0:0:0:
256,192,39877,1,0,0:0:0:0:
256,192,40220,1,2,0:0:0:0:
256,192,40391,1,0,0:0:0:0:
256,192,40563,1,2,0:0:0:0:
256,192,40648,1,2,0:0:0:0:
256,192,40734,1,2,0:0:0:0:
256,192,40906,1,0,0:0:0:0:
256,192,41077,1,2,0:0:0:0:
256,192,41248,1,0,0:0:0:0:
256,192,41591,1,2,0:0:0:0:
256,192,41763,1,0,0:0:0:0:
256,192,41934,1,2,0:0:0:0:
256,192,42106,1,0,0:0:0:0:
256,192,42191,1,0,0:0:0:0:
256,192,42277,1,0,0:0:0:0:
256,192,42448,1,2,0:0:0:0:
256,192,42620,1,0,0:0:0:0:
256,192,42963,1,2,0:0:0:0:
256,192,43306,1,0,0:0:0:0:
256,192,43648,1,0,0:0:0:0:
256,192,43734,1,0,0:0:0:0:
256,192,43820,1,0,0:0:0:0:
256,192,43991,1,0,0:0:0:0:
256,192,45363,1,0,0:0:0:0:
256,192,46734,1,0,0:0:0:0:
256,192,48106,1,0,0:0:0:0:
256,192,49477,1,0,0:0:0:0:
256,192,49991,1,0,0:0:0:0:
256,192,50506,1,0,0:0:0:0:
256,192,50848,1,0,0:0:0:0:
256,192,51363,1,0,0:0:0:0:
256,192,51877,1,0,0:0:0:0:
256,192,52220,1,2,0:0:0:0:
256,192,52734,1,2,0:0:0:0:
256,192,53248,1,2,0:0:0:0:
256,192,53591,1,0,0:0:0:0:
256,192,54106,1,0,0:0:0:0:
256,192,54448,1,0,0:0:0:0:
256,192,54620,1,2,0:0:0:0:
256,192,54963,1,4,0:0:0:0:
256,192,55306,1,2,0:0:0:0:
256,192,55477,1,0,0:0:0:0:
256,192,55563,1,0,0:0:0:0:
256,192,55648,1,0,0:0:0:0:
256,192,55820,1,2,0:0:0:0:
256,192,56163,1,2,0:0:0:0:
256,192,56506,1,2,0:0:0:0:
256,192,56848,1,0,0:0:0:0:
256,192,57191,1,0,0:0:0:0:
256,192,57706,1,0,0:0:0:0:
256,192,58048,1,2,0:0:0:0:
256,192,58220,1,0,0:0:0:0:
256,192,58306,1,0,0:0:0:0:
256,192,58391,1,0,0:0:0:0:
256,192,58563,1,0,0:0:0:0:
256,192,58906,1,2,0:0:0:0:
256,192,59248,1,2,0:0:0:0:
256,192,59591,1,0,0:0:0:0:
256,192,59934,1,0,0:0:0:0:
256,192,60448,1,0,0:0:0:0:
256,192,60791,1,2,0:0:0:0:
256,192,60963,1,0,0:0:0:0:
256,192,61048,1,0,0:0:0:0:
256,192,61134,1,0,0:0:0:0:
256,192,61306,1,2,0:0:0:0:
256,192,61648,1,2,0:0:0:0:
256,192,61991,1,2,0:0:0:0:
256,192,62334,1,0,0:0:0:0:
256,192,62677,1,0,0:0:0:0:
256,192,63191,1,0,0:0:0:0:
256,192,63534,1,2,0:0:0:0:
256,192,63706,1,0,0:0:0:0:
256,192,63791,1,0,0:0:0:0:
256,192,63877,1,0,0:0:0:0:
256,192,64048,1,0,0:0:0:0:
256,192,64391,1,2,0:0:0:0:
256,192,64734,1,2,0:0:0:0:
256,192,65077,1,0,0:0:0:0:
256,192,65420,1,0,0:0:0:0:
256,192,65934,1,4,0:0:0:0:
256,192,66620,1,0,0:0:0:0:
256,192,67306,1,0,0:0:0:0:
256,192,67991,1,0,0:0:0:0:
256,192,68677,1,2,0:0:0:0:
256,192,69362,1,2,0:0:0:0:
256,192,70048,1,2,0:0:0:0:
256,192,70391,1,2,0:0:0:0:
256,192,70734,1,2,0:0:0:0:
256,192,70906,1,2,0:0:0:0:
256,192,71077,1,2,0:0:0:0:
256,192,71420,1,4,0:0:0:0:
256,192,71763,1,2,0:0:0:0:
256,192,71934,1,0,0:0:0:0:
256,192,72020,1,0,0:0:0:0:
256,192,72106,1,0,0:0:0:0:
256,192,72277,1,2,0:0:0:0:
256,192,72448,1,0,0:0:0:0:
256,192,72620,1,0,0:0:0:0:
256,192,72791,1,2,0:0:0:0:
256,192,73134,1,2,0:0:0:0:
256,192,73306,1,0,0:0:0:0:
256,192,73391,1,0,0:0:0:0:
256,192,73477,1,0,0:0:0:0:
256,192,73648,1,2,0:0:0:0:
256,192,73820,1,0,0:0:0:0:
256,192,73991,1,2,0:0:0:0:
256,192,74163,1,0,0:0:0:0:
256,192,74506,1,2,0:0:0:0:
256,192,74677,1,0,0:0:0:0:
256,192,74763,1,0,0:0:0:0:
256,192,74848,1,0,0:0:0:0:
256,192,75020,1,2,0:0:0:0:
256,192,75191,1,0,0:0:0:0:
256,192,75363,1,0,0:0:0:0:
256,192,75534,1,2,0:0:0:0:
256,192,75877,1,2,0:0:0:0:
256,192,76048,1,0,0:0:0:0:
256,192,76134,1,0,0:0:0:0:
256,192,76220,1,0,0:0:0:0:
256,192,76391,1,2,0:0:0:0:
256,192,76563,1,2,0:0:0:0:
256,192,76906,1,0,0:0:0:0:
256,192,77248,1,2,0:0:0:0:
256,192,77420,1,0,0:0:0:0:
256,192,77506,1,0,0:0:0:0:
256,192,77591,1,0,0:0:0:0:
256,192,77763,1,2,0:0:0:0:
256,192,77934,1,0,0:0:0:0:
256,192,78106,1,0,0:0:0:0:
256,192,78277,1,2,0:0:0:0:
256,192,78620,1,2,0:0:0:0:
256,192,78791,1,0,0:0:0:0:
256,192,78877,1,0,0:0:0:0:
256,192,78963,1,0,0:0:0:0:
256,192,79134,1,2,0:0:0:0:
256,192,79306,1,0,0:0:0:0:
256,192,79477,1,2,0:0:0:0:
256,192,79648,1,0,0:0:0:0:
256,192,79991,1,2,0:0:0:0:
256,192,80163,1,0,0:0:0:0:
256,192,80248,1,0,0:0:0:0:
256,192,80334,1,0,0:0:0:0:
256,192,80506,1,2,0:0:0:0:
256,192,80677,1,0,0:0:0:0:
256,192,80848,1,0,0:0:0:0:
256,192,81020,1,2,0:0:0:0:
256,192,81363,1,2,0:0:0:0:
256,192,81534,1,0,0:0:0:0:
256,192,81620,1,0,0:0:0:0:
256,192,81706,1,0,0:0:0:0:
256,192,81877,1,2,0:0:0:0:
256,192,82048,1,2,0:0:0:0:
256,192,82391,1,0,0:0:0:0:
256,192,82734,1,2,0:0:0:0:
256,192,82906,1,0,0:0:0:0:
256,192,82991,1,0,0:0:0:0:
256,192,83077,1,0,0:0:0:0:
256,192,83248,1,2,0:0:0:0:
256,192,83420,1,0,0:0:0:0:
256,192,83591,1,0,0:0:0:0:
256,192,83763,1,2,0:0:0:0:
256,192,84106,1,2,0:0:0:0:
256,192,84277,1,0,0:0:0:0:
256,192,84363,1,0,0:0:0:0:
256,192,84448,1,0,0:0:0:0:
256,192,84620,1,2,0:0:0:0:
256,192,84791,1,2,0:0:0:0:
256,192,84963,1,0,0:0:0:0:
256,192,85134,1,0,0:0:0:0:
256,192,85477,1,2,0:0:0:0:
256,192,85648,1,0,0:0:0:0:
256,192,85734,1,0,0:0:0:0:
256,192,85820,1,0,0:0:0:0:
256,192,85991,1,2,0:0:0:0:
256,192,86163,1,0,0:0:0:0:
256,192,86334,1,0,0:0:0:0:
256,192,86506,1,2,0:0:0:0:
256,192,86848,1,2,0:0:0:0:
256,192,87020,1,0,0:0:0:0:
256,192,87106,1,0,0:0:0:0:
256,192,87191,1,0,0:0:0:0:
256,192,87363,1,2,0:0:0:0:
256,192,87534,1,2,0:0:0:0:
256,192,87877,1,0,0:0:0:0:
256,192,88220,1,2,0:0:0:0:
256,192,88391,1,0,0:0:0:0:
256,192,88477,1,0,0:0:0:0:
256,192,88563,1,0,0:0:0:0:
256,192,88734,1,2,0:0:0:0:
256,192,88906,1,0,0:0:0:0:
256,192,89077,1,0,0:0:0:0:
256,192,89248,1,2,0:0:0:0:
256,192,89591,1,2,0:0:0:0:
256,192,89763,1,0,0:0:0:0:
256,192,89848,1,0,0:0:0:0:
256,192,89934,1,0,0:0:0:0:
256,192,90106,1,2,0:0:0:0:
256,192,90277,1,2,0:0:0:0:
256,192,90448,1,0,0:0:0:0:
256,192,90620,1,0,0:0:0:0:
256,192,90963,1,2,0:0:0:0:
256,192,91134,1,0,0:0:0:0:
256,192,91220,1,0,0:0:0:0:
256,192,91306,1,0,0:0:0:0:
256,192,91477,1,2,0:0:0:0:
256,192,91648,1,0,0:0:0:0:
256,192,91820,1,0,0:0:0:0:
256,192,91991,1,2,0:0:0:0:
256,192,92334,1,2,0:0:0:0:
256,192,92506,1,0,0:0:0:0:
256,192,92591,1,0,0:0:0:0:
256,192,92677,1,0,0:0:0:0:
256,192,92848,1,2,0:0:0:0:
256,192,93363,1,4,0:0:0:0:
256,192,93706,1,2,0:0:0:0:
256,192,93877,1,0,0:0:0:0:
256,192,93963,1,0,0:0:0:0:
256,192,94048,1,0,0:0:0:0:
256,192,94220,1,2,0:0:0:0:
256,192,94563,1,2,0:0:0:0:
256,192,94734,1,0,0:0:0:0:
256,192,94906,1,2,0:0:0:0:
256,192,95248,1,2,0:0:0:0:
256,192,95420,1,0,0:0:0:0:
256,192,95591,1,2,0:0:0:0:
256,192,95934,1,2,0:0:0:0:
256,192,96106,1,0,0:0:0:0:
256,192,96448,1,2,0:0:0:0:
256,192,96620,1,0,0:0:0:0:
256,192,96706,1,0,0:0:0:0:
256,192,96791,1,0,0:0:0:0:
256,192,96963,1,2,0:0:0:0:
256,192,97306,1,2,0:0:0:0:
256,192,97477,1,0,0:0:0:0:
256,192,97648,1,2,0:0:0:0:
256,192,97991,1,2,0:0:0:0:
256,192,98163,1,0,0:0:0:0:
256,192,98334,1,2,0:0:0:0:
256,192,98677,1,0,0:0:0:0:
256,192,98848,1,0,0:0:0:0:
256,192,99191,1,2,0:0:0:0:
256,192,99363,1,0,0:0:0:0:
256,192,99448,1,0,0:0:0:0:
256,192,99534,1,0,0:0:0:0:
256,192,99706,1,2,0:0:0:0:
256,192,100048,1,2,0:0:0:0:
256,192,100220,1,0,0:0:0:0:
256,192,100391,1,2,0:0:0:0:
256,192,100734,1,2,0:0:0:0:
256,192,100906,1,0,0:0:0:0:
256,192,101077,1,2,0:0:0:0:
256,192,101420,1,2,0:0:0:0:
256,192,101591,1,0,0:0:0:0:
256,192,101934,1,2,0:0:0:0:
256,192,102106,1,0,0:0:0:0:
256,192,102191,1,0,0:0:0:0:
256,192,102277,1,0,0:0:0:0:
256,192,102448,1,2,0:0:0:0:
256,192,102791,1,2,0:0:0:0:
256,192,102963,1,2,0:0:0:0:
256,192,103220,1,2,0:0:0:0:
256,192,103477,1,2,0:0:0:0:
256,192,103734,1,2,0:0:0:0:
256,192,103991,1,2,0:0:0:0:
256,192,104334,1,4,0:0:0:0:
256,192,104677,1,2,0:0:0:0:
256,192,104848,1,0,0:0:0:0:
256,192,104934,1,0,0:0:0:0:
256,192,105020,1,0,0:0:0:0:
256,192,105191,1,2,0:0:0:0:
256,192,105534,1,2,0:0:0:0:
256,192,105706,1,0,0:0:0:0:
256,192,105877,1,2,0:0:0:0:
256,192,106220,1,2,0:0:0:0:
256,192,106391,1,0,0:0:0:0:
256,192,106563,1,2,0:0:0:0:
256,192,106906,1,2,0:0:0:0:
256,192,107077,1,0,0:0:0:0:
256,192,107420,1,2,0:0:0:0:
256,192,107591,1,0,0:0:0:0:
256,192,107677,1,0,0:0:0:0:
256,192,107763,1,0,0:0:0:0:
256,192,107934,1,2,0:0:0:0:
256,192,108277,1,2,0:0:0:0:
256,192,108448,1,0,0:0:0:0:
256,192,108620,1,2,0:0:0:0:
256,192,108963,1,2,0:0:0:0:
256,192,109134,1,0,0:0:0:0:
256,192,109306,1,2,0:0:0:0:
256,192,109648,1,0,0:0:0:0:
256,192,109820,1,0,0:0:0:0:
256,192,110163,1,2,0:0:0:0:
256,192,110334,1,0,0:0:0:0:
256,192,110420,1,0,0:0:0:0:
256,192,110506,1,0,0:0:0:0:
256,192,110677,1,2,0:0:0:0:
256,192,111020,1,2,0:0:0:0:
256,192,111191,1,0,0:0:0:0:
256,192,111363,1,2,0:0:0:0:
256,192,111706,1,2,0:0:0:0:
256,192,111877,1,0,0:0:0:0:
256,192,112048,1,2,0:0:0:0:
256,192,112391,1,2,0:0:0:0:
256,192,112563,1,0,0:0:0:0:
256,192,112906,1,2,0:0:0:0:
256,192,113077,1,0,0:0:0:0:
256,192,113163,1,0,0:0:0:0:
256,192,113248,1,0,0:0:0:0:
256,192,113420,1,2,0:0:0:0:
256,192,113763,1,2,0:0:0:0:
256,192,113934,1,2,0:0:0:0:
256,192,114191,1,2,0:0:0:0:
256,192,114448,1,2,0:0:0:0:
256,192,114706,1,2,0:0:0:0:
256,192,114963,1,2,0:0:0:0:
256,192,115306,1,4,0:0:0:0:
256,192,115648,1,2,0:0:0:0:
256,192,115820,1,0,0:0:0:0:
256,192,115906,1,0,0:0:0:0:
256,192,116163,1,0,0:0:0:0:
256,192,116334,1,2,0:0:0:0:
256,192,116677,1,0,0:0:0:0:
256,192,117020,1,2,0:0:0:0:
256,192,117191,1,0,0:0:0:0:
256,192,117277,1,0,0:0:0:0:
256,192,117363,1,0,0:0:0:0:
256,192,117534,1,2,0:0:0:0:
256,192,117706,1,2,0:0:0:0:
256,192,118048,1,0,0:0:0:0:
256,192,118391,1,2,0:0:0:0:
256,192,118563,1,0,0:0:0:0:
256,192,118648,1,0,0:0:0:0:
256,192,118906,1,0,0:0:0:0:
256,192,119077,1,2,0:0:0:0:
256,192,119420,1,0,0:0:0:0:
256,192,119591,1,0,0:0:0:0:
256,192,119763,1,2,0:0:0:0:
256,192,120020,1,0,0:0:0:0:
256,192,120277,1,0,0:0:0:0:
256,192,120448,1,2,0:0:0:0:
256,192,120620,1,0,0:0:0:0:
256,192,120791,1,0,0:0:0:0:
256,192,121134,1,2,0:0:0:0:
256,192,121306,1,0,0:0:0:0:
256,192,121391,1,0,0:0:0:0:
256,192,121648,1,0,0:0:0:0:
256,192,121820,1,2,0:0:0:0:
256,192,122163,1,0,0:0:0:0:
256,192,122506,1,2,0:0:0:0:
256,192,122677,1,0,0:0:0:0:
256,192,122763,1,0,0:0:0:0:
256,192,122848,1,0,0:0:0:0:
256,192,123020,1,2,0:0:0:0:
256,192,123191,1,2,0:0:0:0:
256,192,123534,1,0,0:0:0:0:
256,192,123877,1,2,0:0:0:0:
256,192,124048,1,0,0:0:0:0:
256,192,124134,1,0,0:0:0:0:
256,192,124391,1,0,0:0:0:0:
256,192,124563,1,2,0:0:0:0:
256,192,124906,1,0,0:0:0:0:
256,192,125077,1,0,0:0:0:0:
256,192,125248,1,2,0:0:0:0:
256,192,125506,1,0,0:0:0:0:
256,192,125763,1,0,0:0:0:0:
256,192,125934,1,2,0:0:0:0:
256,192,126106,1,0,0:0:0:0:
256,192,126277,1,0,0:0:0:0:
256,192,126620,1,2,0:0:0:0:
256,192,126791,1,0,0:0:0:0:
256,192,126963,1,2,0:0:0:0:
256,192,127134,1,0,0:0:0:0:
256,192,127220,1,0,0:0:0:0:
256,192,127306,1,0,0:0:0:0:
256,192,127477,1,2,0:0:0:0:
256,192,127648,1,0,0:0:0:0:
256,192,127991,1,2,0:0:0:0:
256,192,128163,1,0,0:0:0:0:
256,192,128334,1,2,0:0:0:0:
256,192,128420,1,2,0:0:0:0:
256,192,128506,1,2,0:0:0:0:
256,192,128677,1,0,0:0:0:0:
256,192,128848,1,2,0:0:0:0:
256,192,129020,1,0,0:0:0:0:
256,192,129363,1,2,0:0:0:0:
256,192,129534,1,0,0:0:0:0:
256,192,129706,1,2,0:0:0:0:
256,192,129877,1,0,0:0:0:0:
256,192,129963,1,0,0:0:0:0:
256,192,130048,1,0,0:0:0:0:
256,192,130220,1,2,0:0:0:0:
256,192,130391,1,0,0:0:0:0:
256,192,130734,1,2,0:0:0:0:
256,192,131077,1,0,0:0:0:0:
256,192,131420,1,0,0:0:0:0:
256,192,131506,1,0,0:0:0:0:
256,192,131591,1,0,0:0:0:0:
256,192,131763,1,0,0:0:0:0:
256,192,132106,1,2,0:0:0:0:
256,192,132277,1,0,0:0:0:0:
256,192,132448,1,2,0:0:0:0:
256,192,132620,1,0,0:0:0:0:
256,192,132706,1,0,0:0:0:0:
256,192,132791,1,0,0:0:0:0:
256,192,132963,1,2,0:0:0:0:
256,192,133134,1,0,0:0:0:0:
256,192,133477,1,2,0:0:0:0:
256,192,133648,1,0,0:0:0:0:
256,192,133820,1,2,0:0:0:0:
256,192,133906,1,2,0:0:0:0:
256,192,133991,1,2,0:0:0:0:
256,192,134163,1,0,0:0:0:0:
256,192,134334,1,2,0:0:0:0:
256,192,134506,1,0,0:0:0:0:
256,192,134848,1,2,0:0:0:0:
256,192,135020,1,0,0:0:0:0:
256,192,135191,1,2,0:0:0:0:
256,192,135363,1,0,0:0:0:0:
256,192,135448,1,0,0:0:0:0:
256,192,135534,1,0,0:0:0:0:
256,192,135706,1,2,0:0:0:0:
256,192,135877,1,0,0:0:0:0:
256,192,136220,1,2,0:0:0:0:
256,192,136563,1,0,0:0:0:0:
256,192,136906,1,0,0:0:0:0:
256,192,136991,1,0,0:0:0:0:
256,192,137077,1,0,0:0:0:0:
256,192,137248,1,4,0:0:0:0:
