osu file format v14

[General]
AudioFilename: Furries in a Blender - Storm World - 02 Storm World.mp3
AudioLeadIn: 0
PreviewTime: 71420
Countdown: 0
SampleSet: Normal
StackLeniency: 0.7
Mode: 1
LetterboxInBreaks: 0
WidescreenStoryboard: 0

[Editor]
Bookmarks: 43991
DistanceSpacing: 1
BeatDivisor: 4
GridSize: 32
TimelineZoom: 0.6999998

[Metadata]
Title:Storm World
TitleUnicode:Storm World
Artist:Furries in a Blender
ArtistUnicode:Furries in a Blender
Creator:Firce777
Version:Kantan
Source:
Tags:MBC9 monthly beatmapping contest LapFox Trax Renard
BeatmapID:711059
BeatmapSetID:319473

[Difficulty]
HPDrainRate:5
CircleSize:5
OverallDifficulty:4
ApproachRate:5
SliderMultiplier:1.2
SliderTickRate:1

[Events]
//Background and Video events
0,0,"Cataclysm-3D-Tornado-l.jpg",0,0
//Break Periods
2,44191,48277
2,66134,70220
//Storyboard Layer 0 (Background)
//Storyboard Layer 1 (Fail)
//Storyboard Layer 2 (Pass)
//Storyboard Layer 3 (Foreground)
//Storyboard Sound Samples

[TimingPoints]
106,342.857142857143,4,1,0,70,1,0
54963,-100,4,1,0,70,0,1
65934,-100,4,1,0,70,0,0
71420,-100,4,1,0,70,0,1
115306,-100,4,1,0,70,0,0

[HitObjects]
256,192,106,5,4,0:0:0:0:
256,192,2848,1,0,0:0:0:0:
256,192,5591,1,0,0:0:0:0:
256,192,8334,1,0,0:0:0:0:
256,192,11077,1,0,0:0:0:0:
256,192,11763,1,0,0:0:0:0:
256,192,12448,1,0,0:0:0:0:
256,192,13820,1,0,0:0:0:0:
256,192,14506,1,0,0:0:0:0:
256,192,15191,1,0,0:0:0:0:
256,192,16563,1,0,0:0:0:0:
256,192,17248,1,2,0:0:0:0:
256,192,17934,1,0,0:0:0:0:
256,192,19306,1,0,0:0:0:0:
256,192,19991,1,2,0:0:0:0:
256,192,20677,1,0,0:0:0:0:
256,192,22048,1,0,0:0:0:0:
256,192,23420,1,0,0:0:0:0:
256,192,24791,1,0,0:0:0:0:
256,192,26163,1,0,0:0:0:0:
256,192,26848,1,2,0:0:0:0:
256,192,27534,1,0,0:0:0:0:
256,192,28906,1,0,0:0:0:0:
256,192,30277,1,0,0:0:0:0:
256,192,31648,1,0,0:0:0:0:
256,192,32334,1,2,0:0:0:0:
256,192,33020,1,0,0:0:0:0:
256,192,34391,1,2,0:0:0:0:
256,192,35763,1,0,0:0:0:0:
256,192,37134,1,0,0:0:0:0:
256,192,37820,1,2,0:0:0:0:
256,192,38506,1,0,0:0:0:0:
256,192,39877,1,2,0:0:0:0:
256,192,41248,1,0,0:0:0:0:
256,192,42620,1,0,0:0:0:0:
256,192,43306,1,2,0:0:0:0:
256,192,43991,1,0,0:0:0:0:
256,192,49477,5,0,0:0:0:0:
256,192,52220,1,0,0:0:0:0:
256,192,53591,1,0,0:0:0:0:
256,192,54963,1,4,0:0:0:0:
256,192,56334,1,0,0:0:0:0:
256,192,57020,1,2,0:0:0:0:
256,192,57706,1,0,0:0:0:0:
256,192,59077,1,0,0:0:0:0:
256,192,59763,1,2,0:0:0:0:
256,192,60448,1,0,0:0:0:0:
256,192,61820,1,0,0:0:0:0:
256,192,62506,1,2,0:0:0:0:
256,192,63191,1,0,0:0:0:0:
256,192,64563,1,2,0:0:0:0:
256,192,65248,1,2,0:0:0:0:
256,192,65934,1,4,0:0:0:0:
256,192,71420,5,4,0:0:0:0:
256,192,72106,1,2,0:0:0:0:
256,192,72791,1,0,0:0:0:0:
256,192,73477,1,2,0:0:0:0:
256,192,73820,1,0,0:0:0:0:
256,192,74163,1,0,0:0:0:0:
256,192,75534,1,0,0:0:0:0:
256,192,76906,1,0,0:0:0:0:
256,192,77591,1,2,0:0:0:0:
256,192,78277,1,0,0:0:0:0:
256,192,78963,1,2,0:0:0:0:
256,192,79306,1,0,0:0:0:0:
256,192,79648,1,0,0:0:0:0:
256,192,81020,1,2,0:0:0:0:
256,192,82391,1,0,0:0:0:0:
256,192,83077,1,2,0:0:0:0:
256,192,83763,1,0,0:0:0:0:
256,192,84448,1,2,0:0:0:0:
256,192,84791,1,2,0:0:0:0:
256,192,85134,1,0,0:0:0:0:
256,192,86506,1,0,0:0:0:0:
256,192,87877,1,0,0:0:0:0:
256,192,88563,1,2,0:0:0:0:
256,192,89248,1,0,0:0:0:0:
256,192,89934,1,2,0:0:0:0:
256,192,90277,1,2,0:0:0:0:
256,192,90620,1,0,0:0:0:0:
256,192,91991,1,2,0:0:0:0:
256,192,93363,1,4,0:0:0:0:
256,192,94734,1,0,0:0:0:0:
256,192,95420,1,2,0:0:0:0:
256,192,95763,1,2,0:0:0:0:
256,192,96106,1,0,0:0:0:0:
256,192,97477,1,0,0:0:0:0:
256,192,98163,1,2,0:0:0:0:
256,192,98506,1,2,0:0:0:0:
256,192,98848,1,0,0:0:0:0:
256,192,100220,1,0,0:0:0:0:
256,192,100906,1,2,0:0:0:0:
256,192,101248,1,2,0:0:0:0:
256,192,101591,1,0,0:0:0:0:
256,192,102963,1,0,0:0:0:0:
256,192,103648,1,2,0:0:0:0:
256,192,104334,1,4,0:0:0:0:
256,192,105706,1,2,0:0:0:0:
256,192,106391,1,0,0:0:0:0:
256,192,106734,1,0,0:0:0:0:
256,192,107077,1,0,0:0:0:0:
256,192,108448,1,2,0:0:0:0:
256,192,109134,1,0,0:0:0:0:
256,192,109477,1,0,0:0:0:0:
256,192,109820,1,0,0:0:0:0:
256,192,111191,1,2,0:0:0:0:
256,192,111877,1,0,0:0:0:0:
256,192,112220,1,0,0:0:0:0:
256,192,112563,1,0,0:0:0:0:
256,192,113934,1,2,0:0:0:0:
256,192,114620,1,2,0:0:0:0:
256,192,115306,1,4,0:0:0:0:
256,192,116677,1,0,0:0:0:0:
256,192,118048,1,0,0:0:0:0:
256,192,119420,1,0,0:0:0:0:
256,192,120106,1,2,0:0:0:0:
256,192,120791,1,0,0:0:0:0:
256,192,122163,1,0,0:0:0:0:
256,192,123534,1,0,0:0:0:0:
256,192,124906,1,0,0:0:0:0:
256,192,125591,1,2,0:0:0:0:
256,192,126277,1,0,0:0:0:0:
256,192,127648,1,2,0:0:0:0:
256,192,129020,1,0,0:0:0:0:
256,192,130391,1,0,0:0:0:0:
256,192,131077,1,2,0:0:0:0:
256,192,131763,1,0,0:0:0:0:
256,192,133134,1,2,0:0:0:0:
256,192,134506,1,0,0:0:0:0:
256,192,135877,1,0,0:0:0:0:
256,192,136563,1,2,0:0:0:0:
256,192,137248,1,4,0:0:0:0:
