osu file format v14

[General]
AudioFilename: Furries in a Blender - Storm World - 02 Storm World.mp3
AudioLeadIn: 0
PreviewTime: 71420
Countdown: 0
SampleSet: Normal
StackLeniency: 0.7
Mode: 1
LetterboxInBreaks: 0
WidescreenStoryboard: 0

[Editor]
Bookmarks: 43991
DistanceSpacing: 1
BeatDivisor: 4
GridSize: 32
TimelineZoom: 1.1

[Metadata]
Title:Storm World
TitleUnicode:Storm World
Artist:Furries in a Blender
ArtistUnicode:Furries in a Blender
Creator:Firce777
Version:Futsuu
Source:
Tags:MBC9 monthly beatmapping contest LapFox Trax Renard
BeatmapID:711058
BeatmapSetID:319473

[Difficulty]
HPDrainRate:5
CircleSize:5
OverallDifficulty:4
ApproachRate:5
SliderMultiplier:1.4
SliderTickRate:1

[Events]
//Background and Video events
0,0,"Cataclysm-3D-Tornado-l.jpg",0,0
//Break Periods
2,44191,48277
2,66134,69877
//Storyboard Layer 0 (Background)
//Storyboard Layer 1 (Fail)
//Storyboard Layer 2 (Pass)
//Storyboard Layer 3 (Foreground)
//Storyboard Sound Samples

[TimingPoints]
106,342.857142857143,4,1,0,70,1,0
54963,-100,4,1,0,70,0,1
65934,-100,4,1,0,70,0,0
71420,-100,4,1,0,70,0,1
115306,-100,4,1,0,70,0,0

[HitObjects]
256,192,106,5,4,0:0:0:0:
256,192,1477,1,0,0:0:0:0:
256,192,2848,1,0,0:0:0:0:
256,192,4220,1,2,0:0:0:0:
256,192,5591,1,0,0:0:0:0:
256,192,6963,1,0,0:0:0:0:
256,192,8334,1,0,0:0:0:0:
256,192,9706,1,2,0:0:0:0:
256,192,11077,1,0,0:0:0:0:
256,192,11934,1,0,0:0:0:0:
256,192,12106,1,0,0:0:0:0:
256,192,12448,1,0,0:0:0:0:
256,192,13134,1,0,0:0:0:0:
256,192,13820,1,0,0:0:0:0:
256,192,14677,1,0,0:0:0:0:
256,192,14848,1,0,0:0:0:0:
256,192,15191,1,0,0:0:0:0:
256,192,15877,1,2,0:0:0:0:
256,192,16563,1,0,0:0:0:0:
256,192,17420,1,0,0:0:0:0:
256,192,17591,1,0,0:0:0:0:
256,192,17934,1,0,0:0:0:0:
256,192,18620,1,0,0:0:0:0:
256,192,19306,1,0,0:0:0:0:
256,192,20163,1,0,0:0:0:0:
256,192,20334,1,0,0:0:0:0:
256,192,20677,1,0,0:0:0:0:
256,192,21363,1,2,0:0:0:0:
256,192,22048,1,0,0:0:0:0:
256,192,22391,1,0,0:0:0:0:
256,192,22906,1,2,0:0:0:0:
256,192,23077,1,2,0:0:0:0:
256,192,23420,1,0,0:0:0:0:
256,192,23763,1,0,0:0:0:0:
256,192,24277,1,2,0:0:0:0:
256,192,24449,1,2,0:0:0:0:
256,192,24791,1,0,0:0:0:0:
256,192,25134,1,0,0:0:0:0:
256,192,25648,1,2,0:0:0:0:
256,192,25820,1,2,0:0:0:0:
256,192,26163,1,0,0:0:0:0:
256,192,26848,1,0,0:0:0:0:
256,192,27534,1,0,0:0:0:0:
256,192,27877,1,0,0:0:0:0:
256,192,28392,1,2,0:0:0:0:
256,192,28563,1,2,0:0:0:0:
256,192,28906,1,0,0:0:0:0:
256,192,29249,1,0,0:0:0:0:
256,192,29763,1,2,0:0:0:0:
256,192,29935,1,2,0:0:0:0:
256,192,30277,1,0,0:0:0:0:
256,192,30620,1,0,0:0:0:0:
256,192,31134,1,2,0:0:0:0:
256,192,31306,1,2,0:0:0:0:
256,192,31649,1,0,0:0:0:0:
256,192,32334,1,2,0:0:0:0:
256,192,33020,1,0,0:0:0:0:
256,192,33363,1,2,0:0:0:0:
256,192,33878,1,0,0:0:0:0:
256,192,34049,1,2,0:0:0:0:
256,192,34392,1,0,0:0:0:0:
256,192,34735,1,2,0:0:0:0:
256,192,35249,1,0,0:0:0:0:
256,192,35421,1,2,0:0:0:0:
256,192,35763,1,0,0:0:0:0:
256,192,36106,1,2,0:0:0:0:
256,192,36620,1,0,0:0:0:0:
256,192,36792,1,2,0:0:0:0:
256,192,37135,1,0,0:0:0:0:
256,192,37820,1,2,0:0:0:0:
256,192,38506,1,0,0:0:0:0:
256,192,38849,1,2,0:0:0:0:
256,192,39364,1,0,0:0:0:0:
256,192,39535,1,2,0:0:0:0:
256,192,39878,1,0,0:0:0:0:
256,192,40221,1,2,0:0:0:0:
256,192,40735,1,0,0:0:0:0:
256,192,40907,1,2,0:0:0:0:
256,192,41249,1,0,0:0:0:0:
256,192,41592,1,2,0:0:0:0:
256,192,42106,1,0,0:0:0:0:
256,192,42278,1,2,0:0:0:0:
256,192,42621,1,0,0:0:0:0:
256,192,43306,1,2,0:0:0:0:
256,192,43991,1,4,0:0:0:0:
256,192,49477,5,0,0:0:0:0:
256,192,50848,1,0,0:0:0:0:
256,192,52220,1,0,0:0:0:0:
256,192,53591,1,0,0:0:0:0:
256,192,54620,1,2,0:0:0:0:
256,192,54963,1,4,0:0:0:0:
256,192,55306,1,2,0:0:0:0:
256,192,55991,1,2,0:0:0:0:
256,192,56334,1,0,0:0:0:0:
256,192,56677,1,2,0:0:0:0:
256,192,57363,1,2,0:0:0:0:
256,192,57706,1,0,0:0:0:0:
256,192,58048,1,2,0:0:0:0:
256,192,58734,1,2,0:0:0:0:
256,192,59077,1,0,0:0:0:0:
256,192,59420,1,2,0:0:0:0:
256,192,59763,1,0,0:0:0:0:
256,192,60106,1,2,0:0:0:0:
256,192,60448,1,0,0:0:0:0:
256,192,60791,1,2,0:0:0:0:
256,192,61477,1,2,0:0:0:0:
256,192,61820,1,0,0:0:0:0:
256,192,62163,1,2,0:0:0:0:
256,192,62848,1,2,0:0:0:0:
256,192,63191,1,0,0:0:0:0:
256,192,63534,1,2,0:0:0:0:
256,192,64220,1,2,0:0:0:0:
256,192,64563,1,0,0:0:0:0:
256,192,64906,1,2,0:0:0:0:
256,192,65248,1,0,0:0:0:0:
256,192,65591,1,2,0:0:0:0:
256,192,65934,1,4,0:0:0:0:
256,192,71077,5,2,0:0:0:0:
256,192,71420,1,4,0:0:0:0:
256,192,71763,1,2,0:0:0:0:
256,192,71934,1,2,0:0:0:0:
256,192,72448,1,0,0:0:0:0:
256,192,72791,1,0,0:0:0:0:
256,192,73134,1,2,0:0:0:0:
256,192,73306,1,2,0:0:0:0:
256,192,73820,1,2,0:0:0:0:
256,192,74163,1,0,0:0:0:0:
256,192,74506,1,2,0:0:0:0:
256,192,74677,1,2,0:0:0:0:
256,192,75191,1,0,0:0:0:0:
256,192,75534,1,0,0:0:0:0:
256,192,75877,1,2,0:0:0:0:
256,192,76048,1,2,0:0:0:0:
256,192,76391,1,2,0:0:0:0:
256,192,76563,1,2,0:0:0:0:
256,192,76906,1,0,0:0:0:0:
256,192,77248,1,2,0:0:0:0:
256,192,77419,1,2,0:0:0:0:
256,192,77933,1,0,0:0:0:0:
256,192,78276,1,0,0:0:0:0:
256,192,78619,1,2,0:0:0:0:
256,192,78791,1,2,0:0:0:0:
256,192,79306,1,2,0:0:0:0:
256,192,79648,1,0,0:0:0:0:
256,192,79991,1,2,0:0:0:0:
256,192,80162,1,2,0:0:0:0:
256,192,80676,1,0,0:0:0:0:
256,192,81019,1,0,0:0:0:0:
256,192,81362,1,2,0:0:0:0:
256,192,81534,1,2,0:0:0:0:
256,192,81876,1,2,0:0:0:0:
256,192,82048,1,2,0:0:0:0:
256,192,82391,1,0,0:0:0:0:
256,192,82734,1,2,0:0:0:0:
256,192,83077,1,0,0:0:0:0:
256,192,83248,1,0,0:0:0:0:
256,192,83420,1,2,0:0:0:0:
256,192,83763,1,0,0:0:0:0:
256,192,84106,1,2,0:0:0:0:
256,192,84791,1,2,0:0:0:0:
256,192,85134,1,0,0:0:0:0:
256,192,85477,1,2,0:0:0:0:
256,192,85820,1,0,0:0:0:0:
256,192,85991,1,0,0:0:0:0:
256,192,86163,1,2,0:0:0:0:
256,192,86506,1,0,0:0:0:0:
256,192,86849,1,2,0:0:0:0:
256,192,87534,1,2,0:0:0:0:
256,192,87877,1,0,0:0:0:0:
256,192,88220,1,2,0:0:0:0:
256,192,88563,1,0,0:0:0:0:
256,192,88734,1,0,0:0:0:0:
256,192,88906,1,2,0:0:0:0:
256,192,89249,1,0,0:0:0:0:
256,192,89591,1,2,0:0:0:0:
256,192,90277,1,2,0:0:0:0:
256,192,90620,1,0,0:0:0:0:
256,192,90963,1,2,0:0:0:0:
256,192,91306,1,0,0:0:0:0:
256,192,91477,1,0,0:0:0:0:
256,192,91649,1,2,0:0:0:0:
256,192,91992,1,0,0:0:0:0:
256,192,92334,1,2,0:0:0:0:
256,192,93020,1,2,0:0:0:0:
256,192,93363,1,4,0:0:0:0:
256,192,93706,1,2,0:0:0:0:
256,192,93877,1,0,0:0:0:0:
256,192,94220,1,2,0:0:0:0:
256,192,94563,1,0,0:0:0:0:
256,192,95248,1,0,0:0:0:0:
256,192,96106,1,0,0:0:0:0:
256,192,96448,1,2,0:0:0:0:
256,192,96619,1,0,0:0:0:0:
256,192,96962,1,2,0:0:0:0:
256,192,97305,1,2,0:0:0:0:
256,192,97990,1,2,0:0:0:0:
256,192,98848,1,0,0:0:0:0:
256,192,99191,1,2,0:0:0:0:
256,192,99362,1,0,0:0:0:0:
256,192,99705,1,2,0:0:0:0:
256,192,100048,1,0,0:0:0:0:
256,192,100733,1,0,0:0:0:0:
256,192,101591,1,0,0:0:0:0:
256,192,101934,1,2,0:0:0:0:
256,192,102105,1,0,0:0:0:0:
256,192,102448,1,2,0:0:0:0:
256,192,102791,1,2,0:0:0:0:
256,192,102963,1,2,0:0:0:0:
256,192,103476,1,2,0:0:0:0:
256,192,103991,1,2,0:0:0:0:
256,192,104334,1,4,0:0:0:0:
256,192,104677,1,2,0:0:0:0:
256,192,104848,1,0,0:0:0:0:
256,192,105191,1,2,0:0:0:0:
256,192,105534,1,0,0:0:0:0:
256,192,106219,1,0,0:0:0:0:
256,192,107077,1,0,0:0:0:0:
256,192,107419,1,2,0:0:0:0:
256,192,107590,1,0,0:0:0:0:
256,192,107933,1,2,0:0:0:0:
256,192,108276,1,2,0:0:0:0:
256,192,108963,1,2,0:0:0:0:
256,192,109819,1,0,0:0:0:0:
256,192,110162,1,2,0:0:0:0:
256,192,110333,1,0,0:0:0:0:
256,192,110676,1,2,0:0:0:0:
256,192,111019,1,0,0:0:0:0:
256,192,111706,1,0,0:0:0:0:
256,192,112562,1,0,0:0:0:0:
256,192,112905,1,2,0:0:0:0:
256,192,113076,1,0,0:0:0:0:
256,192,113419,1,2,0:0:0:0:
256,192,113762,1,2,0:0:0:0:
256,192,113934,1,2,0:0:0:0:
256,192,114447,1,2,0:0:0:0:
256,192,114962,1,2,0:0:0:0:
256,192,115305,1,4,0:0:0:0:
256,192,115648,1,0,0:0:0:0:
256,192,116163,1,2,0:0:0:0:
256,192,116334,1,2,0:0:0:0:
256,192,116677,1,0,0:0:0:0:
256,192,117020,1,2,0:0:0:0:
256,192,117534,1,0,0:0:0:0:
256,192,117706,1,2,0:0:0:0:
256,192,118048,1,0,0:0:0:0:
256,192,118391,1,0,0:0:0:0:
256,192,118905,1,2,0:0:0:0:
256,192,119077,1,2,0:0:0:0:
256,192,119420,1,0,0:0:0:0:
256,192,120106,1,2,0:0:0:0:
256,192,120791,1,0,0:0:0:0:
256,192,121134,1,0,0:0:0:0:
256,192,121649,1,2,0:0:0:0:
256,192,121820,1,2,0:0:0:0:
256,192,122163,1,0,0:0:0:0:
256,192,122506,1,2,0:0:0:0:
256,192,123020,1,0,0:0:0:0:
256,192,123192,1,2,0:0:0:0:
256,192,123534,1,0,0:0:0:0:
256,192,123877,1,0,0:0:0:0:
256,192,124391,1,2,0:0:0:0:
256,192,124563,1,2,0:0:0:0:
256,192,124906,1,0,0:0:0:0:
256,192,125591,1,2,0:0:0:0:
256,192,126277,1,0,0:0:0:0:
256,192,126620,1,2,0:0:0:0:
256,192,127135,1,0,0:0:0:0:
256,192,127306,1,2,0:0:0:0:
256,192,127649,1,0,0:0:0:0:
256,192,127992,1,2,0:0:0:0:
256,192,128506,1,0,0:0:0:0:
256,192,128678,1,0,0:0:0:0:
256,192,129020,1,0,0:0:0:0:
256,192,129363,1,2,0:0:0:0:
256,192,129877,1,0,0:0:0:0:
256,192,130049,1,2,0:0:0:0:
256,192,130392,1,0,0:0:0:0:
256,192,131077,1,2,0:0:0:0:
256,192,131763,1,0,0:0:0:0:
256,192,132106,1,2,0:0:0:0:
256,192,132621,1,0,0:0:0:0:
256,192,132792,1,2,0:0:0:0:
256,192,133135,1,0,0:0:0:0:
256,192,133478,1,2,0:0:0:0:
256,192,133992,1,0,0:0:0:0:
256,192,134164,1,0,0:0:0:0:
256,192,134506,1,0,0:0:0:0:
256,192,134849,1,2,0:0:0:0:
256,192,135363,1,0,0:0:0:0:
256,192,135535,1,2,0:0:0:0:
256,192,135878,1,0,0:0:0:0:
256,192,136563,1,2,0:0:0:0:
256,192,137248,1,4,0:0:0:0:
