osu file format v5

[General]
AudioFilename: Canon ~Rock version~.mp3
AudioLeadIn: 0
PreviewTime: -1
Countdown: 1
SampleSet: Soft

[Metadata]
Title:Canon ~Rock version~
Artist:Funtwo
Creator:Hamano Yuusuke
Version:Normal

[Difficulty]
HPDrainRate:0
CircleSize:5
OverallDifficulty:3
SliderMultiplier:1.4
SliderTickRate:1

[Events]
//Background and Video events
0,0,"Untitled 2.jpg"
//Break Periods
2,61057,80040
2,100473,130545
2,141536,168911
//Storyboard Layer 0 (Background)
//Storyboard Layer 1 (Failing)
//Storyboard Layer 2 (Passing)
//Storyboard Layer 3 (Foreground)
//Storyboard Sound Samples
//Background Colour Transformations
3,100,163,162,255

[TimingPoints]
43012,299.835090700115,4,2,0,100

[HitObjects]
256,192,42862,5,4
160,224,43311,1,2
128,192,43461,1,2
160,160,43611,1,2
128,128,43761,1,2
160,96,43911,1,2
192,64,44061,5,4
352,96,44511,1,2
320,128,44661,1,2
352,160,44811,1,2
320,192,44960,1,2
352,224,45110,1,2
320,256,45260,5,4
128,96,45710,1,2
160,64,45860,1,2
192,96,46010,1,2
224,64,46160,1,2
256,96,46310,1,2
288,64,46460,5,4
416,160,46909,1,2
384,128,47059,1,2
352,160,47209,1,2
320,128,47359,1,2
288,160,47509,1,2
256,128,47659,5,4
96,160,48109,1,2
128,192,48259,1,2
96,224,48409,1,2
128,256,48558,1,2
96,288,48708,1,2
128,320,48858,5,4
288,256,49308,1,2
320,288,49458,1,2
352,256,49608,1,2
384,288,49758,1,2
416,256,49908,1,2
448,288,50058,5,4
448,128,50507,1,2
416,160,50657,1,2
384,128,50807,1,2
352,160,50957,1,2
320,128,51107,1,2
288,160,51257,5,4
128,128,51707,1,2
160,160,51857,1,2
128,192,52007,1,2
160,224,52156,1,2
128,256,52306,1,2
160,288,52456,5,4
288,192,52906,1,2
320,224,53056,1,2
352,192,53206,1,2
384,224,53356,1,2
416,192,53506,1,2
448,224,53656,5,4
320,96,54105,1,2
288,64,54255,1,2
256,96,54405,1,2
224,64,54555,1,2
192,96,54705,1,2
160,64,54855,5,4
128,224,55305,1,2
192,224,55455,1,2
256,224,55605,1,2
320,224,55754,1,2
384,224,55904,1,2
448,224,56054,5,4
448,32,56504,1,2
416,64,56654,1,2
384,32,56804,1,2
352,64,56954,1,2
320,32,57104,1,2
288,64,57254,5,4
128,96,57703,1,2
160,128,57853,1,2
128,160,58003,1,2
160,192,58153,1,2
128,224,58303,1,2
160,256,58453,5,4
288,192,58903,1,2
320,224,59053,1,2
352,192,59203,1,2
384,224,59353,1,2
416,192,59502,1,2
448,224,59652,5,4
352,96,60102,1,2
320,64,60252,1,2
288,96,60402,1,2
256,64,60552,1,2
224,96,60702,1,2
192,64,60852,5,4
32,32,81240,6,0,B|192:32,1,140
192,160,81840,2,0,B|352:160,1,140
448,160,82440,1,0
256,256,83039,5,0
128,256,83339,1,0
192,160,83639,1,0
256,256,83939,5,0
128,256,84239,1,0
192,160,84539,1,0
192,32,84838,6,0,B|288:32|352:32|416:32|480:64|480:128|480:224|500:195|480:160,1,350
480,320,86038,1,0
352,320,86338,1,0
224,320,86638,1,0
96,320,86937,1,0
96,192,87237,2,0,B|96:32,3,140
256,64,88586,5,0
352,64,88886,1,0
448,64,89186,1,0
448,160,89486,1,0
320,160,89786,2,0,B|224:160,4,70
96,160,90985,5,0
192,160,91285,1,0
288,160,91585,1,0
288,256,91885,1,0
384,256,92184,1,0
480,256,92484,1,0
480,160,92784,5,0
384,160,93084,1,0
288,160,93384,2,0,B|224:160,16,35
256,192,95782,5,0
352,192,96082,1,0
448,192,96382,1,0
448,64,96682,1,0
320,64,96982,2,0,B|160:64,2,140
96,96,98181,5,0
128,128,98331,1,0
96,160,98481,1,0
128,192,98631,1,0
96,224,98781,1,0
128,256,98931,1,0
96,288,99081,1,0
128,320,99231,1,0
160,288,99380,1,0
192,320,99530,1,0
192,256,99680,1,0
160,224,99830,1,0
192,192,99980,1,0
160,160,100130,1,0
192,128,100280,1,0
256,192,131763,5,6
416,192,132662,1,6
64,192,133562,1,6
256,288,134461,6,4,B|257:-183|256:320,1,420
256,160,136560,1,4
416,320,137160,1,6
320,256,137460,1,6
416,192,137759,1,6
320,128,138059,1,6
416,64,138359,1,6
192,64,138959,6,6,B|192:217,2,140
288,64,139858,6,6,B|288:217,2,140
384,64,140758,6,6,B|384:217,2,140
64,64,170067,5,4
160,64,170366,1,0
224,64,170516,1,0
288,64,170666,1,0
288,160,170966,5,0
224,160,171116,1,0
160,160,171266,1,0
160,256,171566,5,0
224,256,171716,1,0
288,256,171866,1,0
352,256,172016,1,0
416,256,172165,1,0
416,128,172465,1,4
256,192,173065,12,6,174864
160,192,175164,5,4
256,192,175464,1,4
352,192,175763,1,4
352,64,176063,6,4,B|192:64,1,140
96,128,176663,2,4,B|256:128,1,140
352,128,177263,5,4
352,224,177562,1,4
352,320,177862,1,4
224,320,178162,6,4,B|224:128,1,140
160,96,178762,2,4,B|160:256,1,140
256,192,179362,12,4,189256
