osu file format v5

[General]
AudioFilename: Canon ~Rock version~.mp3
AudioLeadIn: 0
PreviewTime: -1
Countdown: 1
SampleSet: Soft
StackLeniency: 0.7
Mode: 0

[Metadata]
Title:Canon ~Rock version~
Artist:Funtwo
Creator:Hamano Yuusuke
Version:Hard

[Difficulty]
HPDrainRate:0
CircleSize:5
OverallDifficulty:7
SliderMultiplier:1.4
SliderTickRate:1

[Events]
//Background and Video events
0,0,"Untitled 2.jpg"
//Break Periods
2,189531,210620
2,231022,251098
2,289677,298922
//Storyboard Layer 0 (Background)
//Storyboard Layer 1 (Failing)
//Storyboard Layer 2 (Passing)
//Storyboard Layer 3 (Foreground)
//Storyboard Sound Samples
//Background Colour Transformations
3,100,163,162,255

[TimingPoints]
10916,673.198188657028,4,2,0,100
42912,300,4,2,0,100

[HitObjects]
64,64,10916,6,0,B|352:64,1,280
480,224,13608,6,0,B|192:224,1,280
32,64,16301,6,0,B|320:64,1,280
448,224,18994,6,0,B|160:224,1,280
384,224,21518,5,0
352,224,21630,1,0
320,224,21742,1,0
288,224,21855,1,0
256,224,21966,1,0
224,224,22079,1,0
192,224,22192,1,0
128,128,22865,5,0
160,128,22976,1,0
192,128,23088,1,0
224,128,23201,1,0
256,128,23313,1,0
288,128,23425,1,0
320,128,23538,1,0
416,128,24211,5,0
416,160,24322,1,0
416,192,24435,1,0
416,224,24548,1,0
416,256,24659,1,0
416,288,24771,1,0
416,320,24884,1,0
288,320,25558,5,0
288,288,25669,1,0
288,256,25781,1,0
288,224,25894,1,0
288,192,26005,1,0
288,160,26118,1,0
288,128,26231,1,0
192,96,26904,6,0,B|156:96,3,35
192,192,28250,6,0,B|144:192,3,35
192,288,29597,6,0,B|141:288,3,35
287,339,30943,6,0,B|327:339,2,35
320,288,31616,5,0
320,224,31953,1,0
320,160,32290,1,0
317,132,32458,6,0,B|276:130,1,35
382,33,33468,5,0
320,32,33804,1,0
263,30,34141,1,0
264,85,34477,1,0
262,141,34814,2,0,B|102:141,1,140
64,192,35824,5,0
64,224,35992,1,0
64,256,36160,1,0
64,320,36497,1,0
128,352,36834,2,0,B|192:352,2,35
192,352,37507,6,0,B|288:352,1,70
262,352,38180,6,0,B|352:352,1,70
332,352,38853,6,0,B|332:255,1,70
332,282,39526,6,0,B|332:190,1,70
332,212,40200,6,0,B|258:212,1,70
262,212,40873,6,0,B|262:120,1,70
262,142,41546,6,0,B|262:112,8,0
384,256,42912,5,4
224,256,43287,1,4
160,256,43437,1,4
96,256,43587,1,4
32,256,43737,1,4
32,256,43887,1,4
32,256,44037,5,4
32,128,44487,1,4
96,128,44637,1,4
160,128,44787,1,4
224,128,44937,1,4
224,128,45087,1,4
224,128,45237,5,4
352,128,45687,1,4
352,192,45837,1,4
352,256,45987,1,4
352,320,46137,1,4
352,320,46287,1,4
352,320,46437,5,4
192,320,46887,1,4
128,320,47037,1,4
64,320,47187,1,4
0,320,47337,1,4
0,320,47487,1,4
0,320,47637,5,4
32,160,48087,1,4
96,160,48237,1,4
160,160,48387,1,4
224,160,48537,1,4
224,160,48687,1,4
224,160,48837,5,4
384,160,49287,1,4
384,224,49437,1,4
384,288,49587,1,4
384,352,49737,1,4
384,352,49887,1,4
384,352,50037,5,4
256,256,50487,1,4
224,224,50637,1,4
192,192,50787,1,4
160,160,50937,1,4
160,160,51087,1,4
160,160,51237,5,4
160,96,51687,1,4
224,96,51837,1,4
288,96,51987,1,4
352,96,52137,1,4
352,96,52287,1,4
352,96,52437,5,4
352,256,52887,1,4
288,256,53037,1,4
224,256,53187,1,4
160,256,53337,1,4
160,256,53487,1,4
160,256,53637,5,4
288,352,54087,1,4
352,352,54237,1,4
416,352,54387,1,4
480,352,54537,1,4
480,352,54687,1,4
480,352,54837,5,4
480,192,55287,1,4
480,128,55437,1,4
480,64,55587,1,4
416,64,55737,1,4
416,64,55887,1,4
416,64,56037,5,4
256,64,56487,1,4
256,128,56637,1,4
256,192,56787,1,4
320,192,56937,1,4
320,192,57087,1,4
320,192,57237,5,4
480,256,57687,1,4
416,256,57837,1,4
352,256,57987,1,4
288,256,58137,1,4
288,256,58287,1,4
288,256,58437,5,4
160,160,58887,1,4
160,224,59037,1,4
160,288,59187,1,4
160,352,59337,1,4
160,352,59487,1,4
160,352,59637,5,4
288,256,60087,1,4
352,256,60237,1,4
416,256,60387,1,4
480,256,60537,1,4
480,256,60687,1,4
480,256,60837,5,4
416,96,61287,1,4
416,96,61362,1,4
416,96,61437,1,4
416,96,61512,1,4
416,96,61587,1,4
416,96,61662,1,4
416,96,61737,1,4
416,96,61812,1,4
416,96,61887,1,4
416,96,62037,5,0
416,96,62112,1,0
416,96,62187,1,0
416,96,62262,1,0
416,96,62337,1,0
416,96,62412,1,0
416,96,62487,1,0
416,96,62562,1,0
416,96,62637,1,0
192,160,63237,5,0
192,160,63312,1,0
192,160,63387,1,0
192,160,63462,1,0
192,160,63537,1,0
192,160,63612,1,0
192,160,63687,1,0
192,160,63762,1,0
192,160,63837,1,0
288,256,64437,5,0
288,256,64512,1,0
288,256,64587,1,0
288,256,64662,1,0
288,256,64737,1,0
288,256,64812,1,0
288,256,64887,1,0
288,256,64962,1,0
288,256,65037,1,0
288,256,65187,5,0
288,256,65262,1,0
288,256,65337,1,0
288,256,65412,1,0
288,256,65487,1,0
288,256,65562,1,0
288,256,65637,1,0
288,256,65712,1,0
288,256,65787,1,0
352,128,66237,5,4
224,128,66537,1,4
96,128,66837,1,4
192,224,67587,6,0,B|352:224,1,140
332,224,68037,2,0,B|480:224,1,140
472,224,68637,1,0
288,96,69237,5,0
288,96,69312,1,0
288,96,69387,1,0
288,96,69462,1,0
288,96,69537,1,0
288,96,69612,1,0
288,96,69687,1,0
288,96,69762,1,0
288,96,69837,1,0
384,96,70137,5,0
384,160,70287,1,0
320,160,70437,1,0
256,160,70587,1,0
192,160,70737,1,0
128,160,70887,1,0
64,160,71037,1,0
64,224,71187,1,0
128,224,71337,1,0
192,224,71487,1,0
256,224,71637,5,0
256,224,71712,1,0
256,224,71787,1,0
256,224,71862,1,0
256,224,71937,1,0
256,224,72012,1,0
256,224,72087,1,0
256,224,72162,1,0
256,224,72237,1,0
256,320,72537,6,0,B|352:320,1,70
326,320,72837,2,0,B|416:320,1,70
448,320,73137,5,0
448,320,73212,1,0
448,320,73287,1,0
448,320,73362,1,0
448,320,73437,1,0
448,320,73512,1,0
448,320,73587,1,0
448,320,73662,1,0
448,320,73737,1,0
448,192,74037,5,0
448,192,74112,1,0
448,192,74187,1,0
448,192,74262,1,0
448,192,74337,1,0
448,192,74412,1,0
448,192,74487,1,0
448,192,74562,1,0
448,192,74637,1,0
352,192,74937,6,0,B|256:192,1,70
288,192,75087,2,0,B|160:192,1,70
218,192,75387,2,0,B|128:192,1,70
148,192,75687,2,0,B|64:192,1,70
78,192,75987,2,0,B|96:288,1,70
192,256,76437,5,2
288,256,76737,1,0
384,256,77037,1,0
480,256,77337,1,0
480,160,77637,1,0
384,160,77937,1,0
288,160,78237,1,0
192,160,78537,1,0
192,64,78837,1,0
288,64,79137,1,0
384,64,79437,1,0
480,64,79737,1,0
480,160,80037,5,0
480,160,80112,1,0
480,160,80187,1,0
480,160,80262,1,0
480,160,80337,1,0
480,160,80412,1,0
480,160,80487,1,0
480,160,80562,1,0
480,160,80637,1,0
480,160,80712,1,0
480,160,80787,1,0
480,160,80862,1,0
480,160,80937,1,0
352,160,81237,5,0
224,160,81537,1,0
96,160,81837,1,0
96,288,82137,1,0
224,288,82437,1,0
256,320,82587,1,0
288,288,82737,1,0
320,320,82887,1,0
352,288,83037,5,0
352,160,83337,1,0
352,32,83637,1,0
224,32,83937,1,0
96,32,84237,1,0
64,64,84387,1,0
96,96,84537,1,0
64,128,84687,1,0
96,160,84837,5,0
96,160,84912,1,0
96,160,84987,1,0
96,160,85062,1,0
96,160,85137,1,0
96,160,85212,1,0
96,160,85287,1,0
96,160,85362,1,0
96,160,85437,1,0
96,160,85512,1,0
96,160,85587,1,0
256,192,86037,5,0
352,192,86337,1,0
448,192,86637,1,0
448,288,86937,1,0
352,288,87237,1,0
320,320,87387,1,0
288,288,87537,1,0
256,320,87687,1,0
224,288,87837,1,0
160,64,88437,5,0
256,64,88737,1,0
352,64,89037,1,0
448,64,89337,1,0
448,160,89637,1,0
416,192,89787,1,0
448,224,89937,1,0
416,256,90087,1,0
448,288,90237,1,0
416,320,90387,1,0
448,352,90537,1,0
320,352,90837,6,0,B|320:192,1,140
320,212,91437,2,0,B|320:64,1,140
320,72,92037,2,0,B|176:72,1,140
180,72,92637,2,0,B|180:224,1,140
180,212,93237,5,0
160,256,93387,1,0
192,288,93537,1,0
160,320,93687,1,0
192,352,93837,1,0
224,320,93987,1,0
256,352,94137,1,0
288,320,94287,1,0
320,352,94437,2,0,B|320:128,1,210
64,64,95637,5,0
160,64,95937,1,0
256,64,96237,1,0
352,64,96537,1,0
448,64,96837,1,0
448,160,97137,2,0,B|448:320,1,140
448,320,97737,1,0
352,320,98037,1,0
323,320,98112,1,0
295,320,98187,1,0
266,320,98262,1,0
237,320,98337,1,0
208,320,98412,1,0
179,320,98487,1,0
150,320,98562,1,0
121,320,98637,1,0
92,320,98712,1,0
63,320,98787,1,0
34,320,98862,1,0
62,320,98937,5,0
90,320,99012,1,0
118,320,99087,1,0
146,320,99162,1,0
174,320,99237,1,0
202,320,99312,1,0
230,320,99387,1,0
258,320,99462,1,0
286,320,99537,1,0
314,320,99612,1,0
342,320,99687,1,0
370,320,99762,1,0
398,320,99837,1,0
426,320,99912,1,0
453,320,99987,1,0
481,320,100055,5,0
466,320,100093,1,0
452,320,100130,1,0
437,320,100168,1,0
423,320,100205,1,0
408,320,100243,1,0
394,320,100280,1,0
379,320,100318,1,0
365,320,100355,1,0
350,320,100393,1,0
336,320,100430,1,0
321,320,100468,1,0
307,320,100505,1,0
292,320,100543,1,0
278,320,100580,1,0
263,320,100618,1,0
249,320,100655,1,0
234,320,100693,1,0
220,320,100730,1,0
205,320,100768,1,0
191,320,100805,1,0
176,320,100843,1,0
162,320,100880,1,0
148,320,100917,1,0
133,320,100955,1,0
119,320,100992,1,0
104,320,101030,1,0
90,320,101067,1,0
75,320,101105,1,0
61,320,101142,1,0
46,320,101180,5,0
61,320,101218,1,0
75,320,101255,1,0
90,320,101293,1,0
104,320,101330,1,0
119,320,101368,1,0
133,320,101405,1,0
148,320,101443,1,0
162,320,101480,1,0
176,320,101517,1,0
191,320,101555,1,0
205,320,101592,1,0
220,320,101630,1,0
234,320,101667,1,0
249,320,101705,1,0
263,320,101742,1,0
278,320,101780,1,0
292,320,101817,1,0
307,320,101855,1,0
321,320,101892,1,0
336,320,101930,1,0
350,320,101967,1,0
365,320,102005,1,0
379,320,102042,1,0
394,320,102080,1,0
408,320,102117,1,0
423,320,102155,1,0
437,320,102192,1,0
452,320,102230,1,0
466,320,102267,1,0
481,320,102312,1,0
480,128,102837,5,4
384,128,103137,1,4
320,128,103287,1,4
256,128,103437,1,4
160,128,103737,1,4
96,128,103887,1,4
32,128,104037,1,4
32,192,104187,6,4,B|96:256,1,70
81,241,104487,2,4,B|160:192,1,70
140,204,104787,2,4,B|192:256,1,70
189,253,105087,2,4,B|256:192,1,70
352,160,105537,5,4
352,224,105687,1,4
352,288,105837,1,4
448,288,106137,1,4
448,224,106287,1,4
448,160,106437,1,4
448,96,106587,6,4,B|352:96,1,70
378,96,106887,2,4,B|288:96,1,70
308,96,107187,2,4,B|224:96,1,70
238,96,107487,2,4,B|160:96,1,70
64,96,107937,5,4
64,160,108087,1,4
64,224,108237,1,4
160,224,108537,1,4
224,224,108687,1,4
288,224,108837,1,4
352,224,108987,1,4
416,224,109137,1,4
416,288,109287,1,4
416,352,109437,1,4
352,352,109587,6,4,B|256:352,3,70
160,352,110337,1,4
96,352,110487,1,4
96,288,110637,1,4
96,160,110937,5,4
160,160,111087,1,4
224,160,111237,1,4
224,192,111312,1,0
256,192,111387,1,0
256,224,111462,1,0
288,224,111537,1,0
288,256,111612,1,0
320,256,111687,1,0
320,288,111762,1,0
352,288,111837,1,0
352,320,111912,1,0
384,320,111987,1,0
384,352,112062,1,0
416,352,112137,1,0
416,224,112437,5,4
448,128,112737,1,4
416,96,112887,1,4
384,128,113037,1,4
320,128,113337,1,4
256,128,113487,1,4
288,96,113637,1,4
320,64,113787,1,4
256,64,113937,1,4
192,64,114087,1,4
128,64,114237,1,4
32,128,114537,5,4
32,192,114687,1,4
32,256,114837,1,4
128,256,115137,2,4,B|224:256,1,70
198,256,115437,5,4
320,256,115737,5,4
384,256,115887,1,4
448,256,116037,1,4
448,192,116187,1,4
384,192,116337,1,4
320,192,116487,2,4,B|224:192,1,70
192,192,116787,5,4
128,192,116937,1,4
128,128,117087,1,4
192,128,117237,1,4
288,128,117537,2,4,B|384:128,1,70
358,128,117837,5,4
352,224,118137,5,4
288,224,118287,1,4
224,224,118437,1,4
160,224,118587,1,4
96,224,118737,1,4
96,288,118887,2,4,B|192:288,1,70
166,288,119187,2,4,B|256:288,1,70
236,288,119487,2,4,B|320:288,1,70
416,288,119937,5,4
416,224,120087,1,4
416,160,120237,1,4
416,32,120537,1,4
352,32,120687,1,4
288,32,120837,1,4
224,32,120987,1,4
160,32,121137,1,4
96,32,121287,1,4
32,32,121437,1,4
32,96,121587,2,4,B|32:384,1,280
96,352,122318,5,0
110,352,122355,5,0
125,352,122393,5,0
139,352,122430,5,0
154,352,122468,5,0
168,352,122505,5,0
183,352,122543,5,0
192,352,122581,5,0
206,352,122618,5,0
221,352,122656,5,0
235,352,122693,5,0
250,352,122731,5,0
264,352,122768,5,0
279,352,122806,5,0
256,352,122843,5,0
270,352,122880,5,0
285,352,122918,5,0
299,352,122955,5,0
314,352,122993,5,0
328,352,123030,5,0
343,352,123087,5,0
352,256,123312,5,6
224,256,123762,1,4
160,256,123912,1,4
96,256,124062,1,4
32,256,124212,1,4
32,256,124362,1,4
32,256,124512,5,4
32,128,124962,1,4
96,128,125112,1,4
160,128,125262,1,4
224,128,125412,1,4
224,128,125562,1,4
224,128,125712,5,4
352,128,126162,1,4
352,192,126312,1,4
352,256,126462,1,4
352,320,126612,1,4
352,320,126762,1,4
352,320,126912,5,4
192,320,127362,1,4
128,320,127512,1,4
64,320,127662,1,4
0,320,127812,1,4
0,320,127962,1,4
0,320,128112,5,4
32,160,128562,1,4
96,160,128712,1,4
160,160,128862,1,4
224,160,129012,1,4
224,160,129162,1,4
224,160,129312,5,4
384,160,129762,1,4
384,224,129912,1,4
384,288,130062,1,4
384,352,130212,1,4
384,352,130362,1,4
384,352,130512,5,4
256,256,130962,1,4
224,224,131112,1,4
192,192,131262,1,4
160,160,131412,1,4
160,160,131562,1,4
160,160,131712,5,4
256,192,132987,1,6
256,192,133587,1,6
256,192,134187,1,4
256,192,134787,1,4
256,192,135387,1,4
480,192,135987,5,4
352,192,136287,1,4
224,192,136587,2,4,B|193:55|237:28|163:81|163:143|131:273|96:174|78:92|52:35|161:-14|16:79|20:171|11:155,1,420
32,192,137637,1,4
32,256,137787,1,4
32,320,137937,1,4
96,320,138087,1,4
160,320,138237,1,4
384,160,138837,5,4
352,160,138912,1,0
320,160,138987,1,0
288,160,139062,1,0
256,160,139137,1,0
224,160,139212,1,0
192,160,139287,1,0
160,160,139362,1,0
128,160,139437,1,0
96,160,139512,1,0
64,160,139587,1,0
32,160,139662,1,0
64,160,139737,5,0
96,160,139812,1,0
128,160,139887,1,0
160,160,139962,1,0
192,160,140037,1,0
224,160,140112,1,0
256,160,140187,1,0
288,160,140262,1,0
320,160,140337,1,0
352,160,140412,1,0
384,160,140487,1,0
416,160,140562,1,0
448,160,140637,1,0
480,160,140712,1,0
512,160,140787,1,0
495,160,140833,5,0
480,160,140871,5,0
466,160,140908,5,0
451,160,140946,5,0
437,160,140983,5,0
422,160,141021,5,0
408,160,141058,5,0
431,160,141095,5,0
416,160,141133,5,0
402,160,141170,5,0
387,160,141208,5,0
373,160,141245,5,0
358,160,141283,5,0
344,160,141320,5,0
335,160,141358,5,0
320,160,141396,5,0
306,160,141433,5,0
291,160,141471,5,0
277,160,141508,5,0
262,160,141546,5,0
248,160,141612,5,0
480,256,142287,6,4,B|320:256,1,140
128,256,143037,1,4
96,224,143187,1,4
128,192,143337,1,4
128,32,143787,2,4,B|512:32,1,350
480,128,144837,1,4
480,224,145137,1,4
480,320,145437,1,4
448,288,145512,1,0
416,320,145587,1,0
384,288,145662,1,0
352,320,145737,1,0
320,288,145812,1,0
224,320,146037,6,4,B|64:320,1,140
84,320,146637,2,4,B|85:159,1,140
84,180,147237,2,4,B|256:180,1,140
224,180,147837,2,4,B|224:336,1,140
224,352,148437,5,0
256,352,148512,1,0
288,352,148587,1,0
320,352,148662,1,0
352,352,148737,1,0
384,352,148812,1,0
416,352,148887,1,0
448,352,148962,1,0
480,352,149037,1,0
480,320,149112,1,0
480,288,149187,1,0
480,256,149262,1,0
480,224,149337,1,0
480,192,149412,1,0
480,160,149487,1,0
480,128,149562,1,0
480,96,149637,1,0
480,64,149712,1,0
480,32,149787,1,0
448,32,149862,1,0
416,32,149937,1,0
384,32,150012,1,0
352,32,150087,1,0
320,32,150162,1,0
288,32,150237,1,0
256,32,150312,1,0
224,32,150387,1,0
96,128,150837,5,0
160,128,151137,1,0
224,128,151437,1,0
256,192,151737,12,0,154812
128,224,155787,6,0,B|288:224,1,140
384,224,156387,1,0
480,224,156687,6,0,B|480:64,1,140
480,32,157062,2,0,B|96:32,1,350
32,96,158112,5,0
64,96,158187,1,0
96,96,158262,1,0
128,96,158337,1,0
160,96,158412,1,0
192,96,158487,1,0
224,96,158562,1,0
256,96,158637,1,0
288,96,158712,1,0
320,96,158787,1,0
352,96,158862,1,0
384,96,158937,1,0
416,96,159012,1,0
448,96,159087,1,0
480,96,159162,1,0
480,96,159237,5,0
465,96,159311,1,0
451,96,159348,1,0
436,96,159386,1,0
422,96,159423,1,0
407,96,159461,1,0
393,96,159498,1,0
378,96,159536,1,0
364,96,159573,1,0
349,96,159611,1,0
335,96,159648,1,0
321,96,159685,1,0
306,96,159723,1,0
292,96,159760,1,0
277,96,159798,1,0
263,96,159835,1,0
248,96,159873,1,0
234,95,159910,1,0
219,95,159948,1,0
205,94,159985,1,0
190,94,160023,1,0
176,94,160060,1,0
161,94,160098,1,0
128,96,160512,6,0,B|128:244,2,140
128,192,161412,5,0
160,224,161562,1,0
192,192,161712,1,0
224,224,161862,1,0
256,192,162012,1,0
288,224,162162,1,0
320,192,162312,1,0
352,224,162462,1,0
384,192,162612,1,0
480,192,162912,6,0,B|480:352,1,140
480,332,163512,6,0,B|323:332,1,140
340,332,164112,6,0,B|213:240,1,140
226,249,164712,6,0,B|226:105,1,140
224,64,165312,5,0
96,64,165612,1,0
96,160,165912,1,0
96,256,166212,1,0
96,352,166512,1,0
192,352,166812,1,0
256,352,166962,1,0
320,352,167112,1,0
384,352,167262,1,0
448,352,167412,1,0
384,352,167562,5,0
320,352,167712,1,0
256,352,167862,1,0
192,352,168012,1,0
128,352,168162,1,0
64,352,168312,5,0
96,352,168387,1,0
128,352,168462,1,0
160,352,168537,1,0
192,352,168612,1,0
224,352,168687,1,0
256,352,168762,1,0
288,352,168837,1,0
320,352,168912,1,0
352,352,168987,1,0
384,352,169062,1,0
416,352,169137,1,0
416,320,169212,5,0
416,288,169287,1,0
416,256,169362,1,0
416,224,169437,1,0
416,192,169512,1,0
192,192,170112,5,0
64,192,170412,2,0,B|64:288,2,70
64,192,171012,2,0,B|64:96,2,70
128,192,171462,5,0
192,192,171612,1,0
256,192,171762,1,0
320,192,171912,1,0
384,192,172062,2,0,B|384:96,3,70
480,64,172812,6,0,B|384:64,2,70
352,64,173412,1,0
288,64,173562,1,0
224,64,173712,1,0
160,64,173862,1,0
160,128,174012,1,0
224,128,174162,2,0,B|320:128,5,70
416,128,175212,6,0,B|416:224,1,70
416,198,175512,6,0,B|416:288,1,70
416,268,175812,6,0,B|322:268,1,70
346,268,176112,6,0,B|258:267,1,70
276,267,176412,6,0,B|276:192,1,70
276,197,176712,6,0,B|276:96,4,70
276,197,177612,6,0,B|178:196,2,70
160,192,178212,5,0
96,192,178362,1,0
32,192,178512,1,0
32,256,178662,1,0
96,256,178812,1,0
160,256,178962,1,0
224,256,179112,1,0
224,192,179262,1,0
256,192,179562,12,4,180012
256,192,180612,2,0,B|320:256,1,70
305,241,180912,2,0,B|384:192,1,70
364,204,181212,2,0,B|320:128,1,70
328,143,181512,2,0,B|256:128,1,70
192,128,181812,5,0
128,128,181962,1,0
64,128,182112,1,0
64,256,182412,2,0,B|160:256,2,70
192,256,183012,5,0
256,256,183162,1,0
320,256,183312,1,0
384,256,183462,1,0
448,256,183612,1,0
448,192,183762,2,0,B|352:192,1,70
320,192,184062,5,0
320,128,184212,1,0
320,64,184362,1,0
256,64,184512,1,0
256,192,184812,2,0,B|160:192,1,70
186,192,185112,5,0
64,192,185412,6,0,B|64:96,1,70
64,122,185712,5,0
64,64,185862,6,0,B|160:64,2,70
64,64,186312,5,0
128,64,186462,6,0,B|224:64,1,70
198,64,186762,6,0,B|288:64,1,70
384,64,187212,1,0
384,128,187362,1,0
384,192,187512,1,0
256,192,187812,5,0
192,192,187962,1,0
128,192,188112,1,0
96,160,188187,1,0
64,192,188262,1,0
32,224,188337,1,0
64,256,188412,1,0
32,288,188487,1,0
64,320,188562,1,0
32,352,188637,1,0
64,352,188712,2,0,B|128:352,8,35
96,96,211812,5,0
96,192,212112,1,0
96,288,212412,1,0
192,288,212712,1,0
288,288,213012,1,0
384,288,213162,1,0
384,224,213312,1,0
384,160,213462,1,0
384,96,213612,1,0
384,32,213762,2,0,B|288:32,1,70
192,32,214212,5,0
128,32,214362,1,0
64,32,214512,1,0
64,96,214662,2,0,B|64:192,3,70
64,96,215262,2,0,B|160:96,3,70
64,96,215862,2,0,B|64:320,1,210
160,320,216612,5,0
224,320,216762,1,0
256,288,216837,1,0
288,320,216912,1,0
320,288,216987,1,0
352,320,217062,1,0
384,288,217137,1,0
416,320,217212,1,0
448,288,217287,1,0
416,256,217362,5,0
384,224,217437,1,0
352,256,217512,1,0
320,224,217587,1,0
288,256,217662,1,0
256,224,217737,1,0
224,256,217812,1,0
192,224,217887,1,0
224,192,217962,5,0
256,160,218037,1,0
288,192,218112,1,0
320,160,218187,1,0
352,192,218262,1,0
384,160,218337,1,0
416,192,218412,1,0
448,160,218487,1,0
480,128,218562,5,0
448,96,218637,1,0
416,64,218712,1,0
384,96,218787,1,0
352,64,218862,1,0
320,96,218937,1,0
288,64,219012,1,0
256,96,219087,1,0
224,64,219162,1,0
192,96,219237,5,0
224,128,219312,1,0
192,160,219387,1,0
224,192,219462,1,0
192,224,219537,1,0
224,256,219612,1,0
192,288,219687,1,0
224,320,219762,1,0
256,288,219837,5,0
288,320,219912,1,0
320,288,219987,1,0
352,320,220062,1,0
384,288,220137,1,0
416,320,220212,1,0
448,288,220287,1,0
480,256,220362,1,0
448,224,220437,5,0
416,192,220512,1,0
384,224,220587,1,0
352,192,220662,1,0
320,224,220737,1,0
288,192,220812,1,0
256,224,220887,1,0
224,192,220962,1,0
256,160,221037,5,0
288,128,221112,1,0
320,96,221187,1,0
352,128,221262,1,0
384,96,221337,1,0
416,128,221412,1,0
448,96,221487,1,0
480,128,221562,1,0
448,160,221637,5,0
480,192,221712,1,0
448,224,221787,1,0
480,256,221862,1,0
448,288,221937,1,0
480,320,222012,1,0
448,352,222087,1,0
416,320,222162,5,0
384,288,222237,1,0
352,320,222312,1,0
256,192,222387,12,6,230712
192,128,252312,5,0
224,160,252462,1,0
256,128,252612,1,0
288,160,252762,1,0
320,128,252912,1,0
352,160,253062,1,0
384,128,253212,1,0
416,160,253362,1,0
448,128,253512,2,0,B|448:288,1,140
384,288,253962,5,0
352,256,254112,1,0
256,288,254412,1,0
224,256,254562,1,0
192,288,254712,1,0
224,320,254862,5,0
256,288,255012,1,0
288,256,255162,1,0
320,224,255312,1,0
320,160,255462,5,0
320,96,255612,1,0
373,38,255762,6,0,B|337:12|288:16|260:31|235:54|207:96|148:157|124:200|109:232|-60:481|193:484|-43:484|5:264|9:233|22:195|84:126|132:101|277:132|385:120|421:121|537:193|384:233|267:215|212:198|-38:206|202:267|247:324|363:363,1,1260
256,192,259212,12,0,269412
192,192,270312,5,0
256,192,271212,1,0
256,192,271512,1,0
352,192,271812,1,0
352,192,272112,1,0
352,288,272412,1,0
352,288,272712,1,0
128,64,273612,5,0
192,160,273912,1,0
256,256,274212,1,0
320,160,274512,1,0
384,64,274812,1,0
256,64,275112,1,0
128,64,275412,1,0
192,160,275712,1,0
256,256,276012,1,0
256,128,276312,6,0,B|306:148|327:146|328:-4|326:52|276:28|204:24|150:61|132:125|142:200|202:252|241:269|437:180|396:128|352:12,1,630
256,192,279912,5,0
416,192,280812,1,0
416,192,281112,1,0
352,288,281412,1,0
352,288,281712,1,0
224,288,282012,1,0
224,288,282312,1,0
448,32,283212,6,0,B|288:32,1,140
308,32,283812,2,0,B|160:32,1,140
168,32,284412,2,0,B|0:32,1,140
28,32,285012,2,0,B|352:352,1,420
480,320,286362,1,0
224,192,287112,5,0
256,160,287262,1,0
288,192,287412,1,0
320,160,287562,1,0
352,192,287712,1,0
384,160,287862,1,0
416,192,288012,1,0
448,160,288162,1,0
480,192,288312,1,0
448,224,288462,5,0
416,256,288612,1,0
384,224,288762,1,0
352,256,288912,1,0
320,224,289062,1,0
288,256,289212,1,0
256,224,289362,1,0
224,256,289512,1,0
32,32,300087,6,0,B|512:352,1,560
480,224,301587,1,0
480,128,301887,1,0
384,128,302187,1,0
384,32,302487,1,0
480,32,302787,6,0,B|0:352,1,560
32,224,304287,1,0
32,128,304587,1,0
128,128,304887,1,0
128,32,305187,1,0
256,32,305937,6,0,B|256:192,1,140
256,352,306537,6,0,B|256:192,1,140
256,192,308187,5,0
320,192,308487,1,0
384,192,308787,1,0
448,192,309087,2,0,B|480:224|480:288|448:320|384:352|352:352|288:352,1,280
32,32,311487,5,0
64,64,311637,1,0
96,32,311787,1,0
128,64,311937,1,0
160,32,312087,1,0
192,64,312237,1,0
224,32,312387,1,0
256,64,312537,1,0
288,32,312687,1,0
320,64,312837,1,0
352,32,312987,1,0
384,64,313137,1,0
416,32,313287,1,0
448,64,313437,1,0
416,96,313587,5,0
448,128,313737,1,0
416,160,313887,1,0
448,192,314037,1,0
416,224,314187,1,0
448,256,314337,1,0
416,288,314487,1,0
448,320,314637,1,0
416,352,314787,5,0
384,320,314937,1,0
352,352,315087,1,0
320,320,315237,1,0
288,352,315387,1,0
256,320,315537,1,0
224,352,315687,1,0
192,320,315837,1,0
160,352,315987,1,0
128,320,316137,1,0
96,352,316287,1,0
64,320,316437,1,0
32,288,316587,5,0
64,256,316737,1,0
32,224,316887,1,0
64,192,317037,1,0
32,160,317187,1,0
64,128,317337,1,0
32,96,317487,2,0,B|480:96,1,420
320,224,318837,1,0
320,224,318899,1,0
320,224,318936,1,0
320,224,318974,1,0
320,224,319011,1,0
320,224,319049,1,0
320,224,319086,1,0
320,224,319124,1,0
320,224,319161,1,0
320,224,319199,1,0
320,224,319236,1,0
320,224,319274,1,0
320,224,319311,1,0
320,224,319349,1,0
320,224,319386,1,0
320,224,319424,1,0
320,224,319461,1,0
320,224,319499,1,0
320,224,319536,1,0
320,224,319574,1,0
320,224,319611,1,0
320,224,319649,1,0
320,224,319686,1,0
320,224,319724,1,0
320,224,319761,1,0
320,224,319799,1,0
320,224,319836,1,0
320,224,319874,1,0
320,224,319911,1,0
320,224,319949,1,0
320,224,319986,1,0
320,224,320024,1,0
320,224,320061,1,0
320,224,320099,1,0
320,224,320136,1,0
320,224,320174,1,0
320,224,320211,1,0
320,224,320249,1,0
320,224,320286,1,0
320,224,320324,1,0
320,224,320361,1,0
320,224,320399,1,0
320,224,320436,1,0
320,224,320474,1,0
320,224,320511,1,0
320,224,320549,1,0
320,224,320586,1,0
320,224,320624,1,0
320,224,320661,1,0
320,224,320699,1,0
320,224,320736,1,0
320,224,320774,1,0
320,224,320811,1,0
320,224,320862,1,0
