osu file format v5

[General]
AudioFilename: Funtastic_Power_-_300_This_is_Sparta_EXTENDED_mix.mp3
AudioLeadIn: 0
PreviewTime: -1
Countdown: 1
SampleSet: Normal
StackLeniency: 0.7
Mode: 0
EditorBookmarks: 30934,37791,44647,46361,71645,73359

[Metadata]
Title:This is Sparta REMIX
Artist:Funtastic Power!
Creator:Remco32
Version:This is madness!
Source:
Tags:

[Difficulty]
HPDrainRate:3
CircleSize:3
OverallDifficulty:3
SliderMultiplier:1.5
SliderTickRate:1

[Events]
//Background and Video events
1,-117,"Sparta avi.avi"
//Break Periods
2,57703,68919
//Storyboard Layer 0 (Background)
//Storyboard Layer 1 (Failing)
//Storyboard Layer 2 (Passing)
//Storyboard Layer 3 (Foreground)
//Storyboard Sound Samples
//Background Colour Transformations
3,100,163,162,255

[TimingPoints]
8651,428.532262870159,4,1,0,100

[Colours]
Combo1 : 255,150,0
Combo2 : 159,0,0
Combo3 : 216,185,7
Combo4 : 240,5,5

[HitObjects]
64,96,6936,2,0,B|384:96,2,300
64,192,9079,1,2
160,288,9936,1,2
256,288,10365,6,0,B|448:32,1,300
448,160,11650,1,4
448,256,12079,2,0,B|96:256,1,300
32,256,13364,1,4
320,320,14650,5,6
448,320,15078,2,4,B|448:160,1,150
192,160,16364,5,6
64,160,16793,2,4,B|160:32,1,150
416,64,18078,5,6
416,192,18507,2,4,B|416:352,1,150
160,320,19792,5,6
32,320,20221,2,4,B|32:160,1,150
160,64,21506,5,6
288,64,21935,2,4,B|448:64,1,150
448,256,23220,5,6
352,256,23649,2,4,B|352:96,1,150
288,32,24506,6,0,B|128:32|64:96|0:160|0:224|32:288|96:320|224:160,1,600
320,96,26649,1,2
320,320,27506,1,2
416,320,27934,6,2,B|0:32,2,450
448,224,30934,6,2,B|416:96|352:64|288:64|256:96|256:288|224:352|128:352|32:320|64:96|64:128,4,600
288,288,38219,5,0
64,288,39076,1,0
128,96,39933,1,0
352,96,40790,1,0
352,192,41219,1,2
256,192,41647,12,0,43790
64,288,44647,6,0,B|192:160|224:128|256:96|224:320|224:384|480:64,1,600
384,64,46790,1,2
160,64,47647,1,2
64,64,48075,6,2,B|480:352,2,450
192,320,51504,6,0,B|64:320|0:256|-32:192|0:128|65:64|256:96,2,450
416,320,54932,6,0,B|288:320|224:256|192:192|224:128|289:64|480:96,2,450
448,256,70359,5,6
448,160,70788,5,6
448,64,71216,5,6
352,64,71645,6,0,B|128:64|64:128|32:192|32:224|64:256|96:320|288:320,1,600
352,320,73788,1,2
160,192,74645,1,2
96,288,75073,6,2,B|512:0,2,450
192,288,78073,1,2
384,224,78930,5,2
448,64,79358,2,2,B|32:352,2,450
384,288,82358,6,2,B|128:96,4,300
416,192,86215,5,4
192,192,87072,1,0
320,32,87929,1,0
320,256,88786,1,0
320,160,89215,1,6
416,224,89643,5,4
192,224,90500,1,0
64,224,91357,1,0
192,64,92214,1,0
288,64,92643,1,6
384,96,93071,6,0,B|483:334|256:352|268:148|164:154|129:347|-27:327|64:32,2,600
160,96,97357,6,0,B|61:334|288:352|276:148|380:154|415:347|571:327|480:32,2,600
256,96,101213,1,0
480,96,102071,1,0
480,192,102499,1,0
384,256,102928,5,4
288,256,103356,1,6
192,256,103785,2,4,B|192:96,1,150
288,96,104642,5,4
384,96,105070,1,6
384,192,105499,2,4,B|384:352,1,150
416,320,106356,6,2,B|64:32,2,450
448,96,109784,6,2,B|32:320,2,450
256,192,113212,6,6,B|256:320|160:384|64:384|-32:288|-32:128|192:64,2,600
160,160,117069,6,6,B|160:288|256:352|352:352|448:256|448:96|320:64,2,450
256,160,120069,5,2
32,160,120926,1,2
192,288,121783,1,2
416,288,122640,1,2
416,64,123497,1,2
256,192,123926,12,0,126497
320,160,126925,5,6
224,160,127353,1,6
128,160,127782,2,6,B|128:256,2,75
