osu file format v5

[General]
AudioFilename: Funtastic_Power_-_300_This_is_Sparta_EXTENDED_mix.mp3
AudioLeadIn: 0
PreviewTime: -1
Countdown: 1
SampleSet: Normal
StackLeniency: 0.7
Mode: 0
EditorBookmarks: 113212,116641

[Metadata]
Title:This is Sparta REMIX
Artist:Funtastic Power!
Creator:Remco32
Version:This is SPARTA!
Source:300
Tags:

[Difficulty]
HPDrainRate:6
CircleSize:6
OverallDifficulty:7
SliderMultiplier:1.8
SliderTickRate:1

[Events]
//Background and Video events
1,-117,"Sparta avi.avi"
//Break Periods
2,58131,69459
//Storyboard Layer 0 (Background)
//Storyboard Layer 1 (Failing)
//Storyboard Layer 2 (Passing)
//Storyboard Layer 3 (Foreground)
//Storyboard Sound Samples
//Background Colour Transformations
3,100,163,162,255

[TimingPoints]
8651,428.532262870158,4,1,0,100

[Colours]
Combo1 : 255,150,0
Combo2 : 159,0,0
Combo3 : 216,185,7
Combo4 : 240,5,5

[HitObjects]
96,96,6936,2,0,L|384:96,2,270
96,160,8436,1,0
96,224,8651,1,0
224,224,9079,1,2
224,224,9508,1,2
224,224,9936,1,2
352,224,10365,6,0,B|352:160|288:96|160:128,3,180
160,128,11864,1,2
224,128,12079,2,4,B|352:128|416:192|416:256|352:320|256:320|224:320|192:320|160:288|19:211|136:112|353:111|352:224|320:256|256:256|224:256,1,630
224,192,13793,5,4
352,192,14221,1,4
480,192,14650,1,6
480,64,15078,2,4,B|288:64,1,180
224,160,15936,1,4
224,288,16364,1,6
96,224,16793,2,4,B|-32:128,1,90
96,192,17221,1,4
224,160,17650,5,4
352,160,18078,1,6
224,128,18507,2,4,B|64:96,1,90
64,128,18935,1,0
64,256,19364,1,4
64,128,19792,1,6
192,128,20221,2,4,B|352:160,1,90
352,128,20649,1,4
352,256,21078,5,4
224,256,21506,1,2
352,256,21935,2,4,B|192:256,1,90
192,256,22364,1,2
192,128,22792,1,4
320,128,23220,1,6
224,192,23649,2,4,B|128:64,1,90
96,128,24078,5,4
96,192,24292,1,2
96,256,24506,1,0
160,256,24720,1,2
224,256,24935,1,0
288,256,25149,1,2
352,256,25363,2,2,B|448:256,1,90
448,192,25792,1,4
384,192,26006,1,4
320,192,26220,1,4
256,192,26435,1,4
192,192,26649,1,2
192,192,26863,1,2
192,192,27077,1,2
96,288,27506,5,4
96,192,27934,5,4
96,128,28148,1,2
96,64,28362,1,0
160,64,28576,1,2
224,64,28791,1,0
288,64,29005,1,2
352,64,29219,2,2,B|448:64,1,90
448,128,29648,1,4
384,128,29862,1,4
320,128,30076,1,4
256,128,30291,1,0
192,128,30505,1,2
64,128,30934,6,0,L|160:224|64:320,1,270
128,320,31791,2,0,L|224:224|128:128,1,270
192,128,32648,2,0,L|288:224|192:320,1,270
256,320,33505,1,2
320,320,33720,1,4
384,320,33934,1,2
384,192,34362,5,2
384,128,34577,1,0
320,128,34791,1,2
320,192,35005,1,0
384,192,35220,1,2
384,128,35434,1,0
320,128,35648,1,2
320,192,35862,1,0
320,256,36077,2,0,L|448:256|448:64|256:64|256:288,1,720
128,256,38219,5,0
128,128,38648,1,2
128,256,39076,1,0
128,128,39505,1,2
256,128,39933,1,0
256,256,40362,1,2
256,128,40790,1,0
256,256,41219,1,2
256,192,41647,12,0,43790
384,256,44647,2,0,B|384:96|256:96|256:352|128:352|128:64,2,450
384,128,47219,1,2
384,128,47433,1,2
384,128,47647,1,2
256,192,48075,6,0,L|192:256|128:192,1,180
128,128,48718,2,0,L|192:64|256:128,1,180
256,192,49361,2,0,L|192:256|128:192,1,180
128,128,50004,2,0,L|192:64|256:128,1,180
288,192,50647,1,2
352,192,50861,1,2
416,192,51075,1,2
416,64,51504,6,0,L|288:64,3,90
256,64,52361,1,0
192,64,52575,1,0
256,96,52789,1,0
192,96,53004,1,0
192,160,53218,6,0,L|288:160,3,90
352,160,54075,1,2
416,160,54289,1,2
416,224,54503,1,2
320,288,54932,6,0,L|192:288,3,90
160,288,55789,1,0
96,288,56003,1,0
160,256,56217,1,0
96,256,56432,1,0
96,192,56646,6,0,L|192:192,3,90
256,192,57503,1,2
320,192,57717,1,2
320,128,57931,1,2
64,64,70359,5,6
64,192,70788,5,6
64,320,71216,5,6
128,320,71430,6,4,B|192:320,5,45
192,160,72502,5,0
256,160,72716,1,0
320,160,72930,1,0
320,96,73145,1,0
256,96,73359,1,0
320,160,73573,1,0
384,160,73788,1,2
320,256,74217,1,2
192,256,74645,1,2
64,224,75073,1,2
32,96,75502,5,0
96,96,75716,1,0
160,128,75930,1,0
224,128,76144,1,0
288,128,76359,1,0
352,96,76573,1,0
416,96,76787,1,0
480,96,77001,1,0
480,32,77216,2,0,B|256:32,1,180
352,128,78073,5,2
352,256,78501,1,2
224,256,78930,6,0,B|96:256|32:192|32:128|96:64|256:96,2,360
288,256,80858,1,0
288,256,81072,1,0
288,256,81287,1,0
416,256,81715,1,2
416,256,81930,1,2
416,256,82144,1,2
288,256,82358,6,0,B|416:256|480:192|480:128|416:64|256:96,2,360
224,256,84286,1,0
224,256,84500,1,0
224,256,84715,1,0
96,256,85143,1,2
96,256,85358,1,2
96,256,85572,1,2
96,64,86215,5,4
96,64,86644,1,2
224,64,87072,1,0
224,192,87501,1,2
352,192,87929,1,0
352,192,88358,1,2
352,64,88786,1,0
224,64,89215,1,6
128,128,89643,5,4
256,128,90072,1,2
384,128,90500,1,0
256,128,90929,1,2
128,128,91357,1,0
128,256,91786,1,2
256,256,92214,1,0
384,256,92643,1,6
256,192,93071,6,0,B|64:192|64:32|256:32|448:32|448:192|448:320|128:320|32:320|32:32|160:32,1,900
224,32,95428,1,0
288,32,95643,1,4
352,32,95857,1,0
416,32,96071,1,4
416,160,96500,5,0
416,288,96928,1,2
288,256,97357,6,0,B|96:256|96:96|288:96|480:96|480:256|480:384|160:384|64:384|64:96|192:96,1,900
256,96,99714,1,0
320,96,99929,1,4
384,96,100143,1,0
448,96,100357,1,4
448,160,100571,1,0
384,160,100785,1,0
320,160,100999,1,0
256,160,101213,1,0
128,160,101642,1,0
128,288,102071,1,0
256,288,102499,1,0
128,288,102928,5,4
256,288,103356,1,6
384,288,103785,2,4,B|384:128,1,90
384,128,104213,1,2
256,128,104642,5,4
128,128,105070,1,6
128,256,105499,2,4,B|288:256,1,90
288,256,105927,1,2
256,192,106356,12,2,108499
256,192,109356,5,2
160,128,109784,2,2,B|352:128,6,180
160,256,112784,1,2
256,192,113212,12,4,116212
64,64,116641,6,2,B|256:128,1,180
288,128,117283,6,2,B|480:32,1,180
448,96,117926,1,6
448,160,118140,1,6
448,224,118355,2,0,B|352:320|160:320|32:192,1,450
96,192,119640,1,2
224,192,120069,5,2
352,192,120497,1,2
224,192,120926,1,2
352,192,121354,1,2
224,256,121783,1,2
352,256,122212,1,2
224,256,122640,1,2
352,256,123069,1,2
288,160,123497,1,2
256,192,123926,12,0,126497
192,224,126925,5,6
320,224,127353,1,6
448,224,127782,2,6,B|448:128,1,90
448,64,128211,1,6
384,64,128425,1,6
320,64,128640,1,6
