osu file format v5

[General]
AudioFilename: Funtastic_Power_-_300_This_is_Sparta_EXTENDED_mix.mp3
AudioLeadIn: 0
PreviewTime: -1
Countdown: 1
SampleSet: Normal
StackLeniency: 0.7
Mode: 0
EditorBookmarks: 109784,127782,128211

[Metadata]
Title:This is Sparta REMIX
Artist:Funtastic Power!
Creator:Remco32
Version:Madness?
Source:300
Tags:

[Difficulty]
HPDrainRate:5
CircleSize:5
OverallDifficulty:6
SliderMultiplier:1.5
SliderTickRate:1

[Events]
//Background and Video events
1,-117,"Sparta avi.avi"
//Break Periods
2,58131,69309
//Storyboard Layer 0 (Background)
//Storyboard Layer 1 (Failing)
//Storyboard Layer 2 (Passing)
//Storyboard Layer 3 (Foreground)
//Storyboard Sound Samples
//Background Colour Transformations
3,100,163,162,255

[TimingPoints]
8651,428.532262870159,4,1,0,100

[Colours]
Combo1 : 255,150,0
Combo2 : 159,0,0
Combo3 : 216,185,7
Combo4 : 240,5,5

[HitObjects]
288,128,6936,2,0,B|201:57|179:207|32:128,3,225
96,192,9079,1,2
96,192,9508,1,2
96,192,9936,1,2
128,288,10365,6,0,B|215:359|237:209|384:288,4,225
128,192,13364,1,2
64,64,13793,5,4
160,64,14221,1,4
256,64,14650,1,6
352,64,15078,2,4,B|352:224,1,150
256,224,15936,5,4
160,224,16364,1,6
64,224,16793,2,4,B|160:96,1,150
256,96,17650,5,4
352,96,18078,1,6
256,96,18507,2,4,B|256:256,1,150
352,192,19364,5,4
256,192,19792,1,6
160,192,20221,2,4,B|160:352,1,150
256,320,21078,5,4
352,320,21506,1,6
352,224,21935,2,4,B|352:64,1,150
256,96,22792,5,4
160,96,23220,1,6
160,192,23649,2,4,B|256:320,1,150
320,224,24506,6,0,L|384:160|288:96|384:32,2,300
352,320,26649,1,2
256,320,27078,1,2
160,320,27506,1,2
96,224,27934,6,0,B|309:75|416:224,1,300
384,64,29220,1,0
288,64,29649,1,0
192,64,30077,1,0
96,64,30506,1,0
160,160,30934,6,0,B|160:320,3,150
224,320,32434,1,0
256,288,32648,1,2
320,224,33077,1,0
352,192,33291,1,0
384,160,33505,1,0
352,128,33720,1,2
320,96,33934,1,4
224,96,34362,6,0,B|64:96,3,150
64,160,35862,1,0
96,192,36076,1,2
160,256,36505,1,0
192,224,36719,1,0
224,192,36933,1,2
320,192,37362,1,4
64,192,38219,5,0
64,96,38648,1,2
160,96,39076,1,0
256,96,39505,1,2
352,96,39933,1,0
416,160,40362,1,2
320,224,40790,1,0
224,224,41219,1,2
256,192,41647,12,0,43790
416,320,44647,2,0,L|288:288|448:224|256:160,1,450
256,96,46361,1,0
192,96,46576,1,2
128,96,46790,1,2
128,192,47219,1,0
192,192,47433,1,2
256,192,47647,1,2
352,192,48075,6,0,L|352:352,1,150
288,320,48718,1,0
224,320,48933,1,0
160,320,49147,1,0
96,320,49361,1,0
96,224,49790,1,0
160,224,50004,1,0
224,224,50218,1,0
288,224,50432,1,0
352,224,50647,2,0,B|352:160|224:128,1,150
352,128,51504,6,0,B|243:34|32:128,1,300
64,192,52575,1,2
64,192,52789,1,2
160,224,53218,6,0,B|269:318|480:224,1,300
448,160,54289,1,2
448,160,54503,1,2
416,64,54932,6,0,B|32:64,1,375
32,128,56218,1,0
32,192,56432,1,0
32,256,56646,2,0,B|512:256,1,450
64,96,70359,5,6
64,192,70788,5,6
64,288,71216,5,6
160,288,71645,6,4,B|256:288,2,75
160,224,72288,1,0
160,160,72502,1,0
224,96,72930,1,0
288,96,73145,1,0
352,96,73359,1,0
352,192,73788,1,2
256,192,74217,1,2
160,192,74645,1,2
160,192,74859,1,2
160,192,75073,1,2
96,96,75502,5,0
160,96,75716,1,0
160,96,75930,1,0
224,96,76144,1,2
288,96,76359,1,0
352,96,76573,1,2
352,96,76787,1,2
352,96,77001,1,2
416,96,77216,2,2,B|416:352,1,225
352,320,78073,5,2
256,320,78501,1,2
192,256,78930,5,0
160,160,79358,1,0
192,128,79573,1,0
160,96,79787,1,0
192,64,80001,2,0,B|448:64,1,225
416,128,80858,1,0
416,256,81287,1,0
352,256,81501,1,2
288,256,81715,1,0
224,256,81930,1,2
128,320,82358,6,2,B|128:64,5,225
128,95,85786,1,2
32,96,86215,5,4
128,96,86644,1,2
224,96,87072,1,0
320,96,87501,1,2
416,96,87929,1,0
448,192,88358,1,2
352,192,88786,1,0
256,192,89215,1,6
160,192,89643,5,4
64,192,90072,1,2
64,288,90500,1,0
160,288,90929,1,2
256,288,91357,1,0
256,192,91786,1,2
256,96,92214,1,0
160,96,92643,1,6
64,128,93071,6,0,B|-35:366|192:384|180:180|284:186|319:379|475:359|384:64,2,600
160,160,96928,5,2
64,96,97357,6,0,B|-35:334|192:352|180:148|284:154|319:347|475:327|384:32,2,600
160,96,101213,1,0
256,96,101642,1,0
352,96,102071,1,0
352,192,102499,1,0
256,192,102928,5,4
160,192,103356,1,6
64,192,103785,2,4,B|64:32,1,150
160,96,104642,5,4
256,96,105070,1,6
352,96,105499,2,4,B|352:256,1,150
256,224,106356,6,0,L|192:160|128:256|64:160|128:64|192:128|416:128,1,750
480,128,108713,1,0
416,128,108927,1,0
352,128,109141,1,2
288,128,109356,1,2
288,224,109784,6,0,L|224:288|160:288|96:224|96:160|160:96|224:96|320:96|352:128|352:288,1,750
256,256,112355,1,0
192,256,112570,1,2
128,256,112784,1,2
192,192,113212,6,6,B|192:64|288:0|384:0|480:96|480:256|256:320,2,600
288,224,117069,6,6,B|288:96|192:32|96:32|0:128|0:288|128:320,2,450
384,224,120069,5,2
288,224,120497,1,2
384,224,120926,1,2
384,128,121354,1,2
288,128,121783,1,2
192,128,122212,1,2
288,128,122640,1,2
288,224,123069,1,2
192,224,123497,1,2
256,192,123926,12,0,126497
160,224,126925,5,6
256,224,127353,1,6
352,224,127782,2,6,L|448:224|384:256,1,150
