osu file format v12

[General]
AudioFilename: Snow Fairy.mp3
AudioLeadIn: 2000
PreviewTime: 52801
Countdown: 0
SampleSet: Normal
StackLeniency: 0.8
Mode: 0
LetterboxInBreaks: 0
WidescreenStoryboard: 0

[Editor]
DistanceSpacing: 0.8
BeatDivisor: 2
GridSize: 4

[Metadata]
Title:Snow Fairy (TV Size)
TitleUnicode:
Artist:Funkist
ArtistUnicode:
Creator:Jayel
Version:Normal
Source:Fairy Tail
Tags:Opening SkyDevil shikyu Natsu Lucy Gray Erza Happy
BeatmapID:102205
BeatmapSetID:31040

[Difficulty]
HPDrainRate:3
CircleSize:3
OverallDifficulty:4
ApproachRate:5
SliderMultiplier:0.799999999999999
SliderTickRate:1

[Events]
//Background and Video events
Video,0,"c_Fairy Tail Opening.avi"
0,0,"fairytale.jpg",0,0
//Break Periods
//Storyboard Layer 0 (Background)
//Storyboard Layer 1 (Fail)
//Storyboard Layer 2 (Pass)
//Storyboard Layer 3 (Foreground)
//Storyboard Sound Samples
//Background Colour Transformations
3,100,0,0,0

[TimingPoints]
699,283.018867924528,4,2,0,30,1,0
9755,-100,4,1,0,50,0,0
52774,-100,4,1,0,50,0,1
70887,-100,4,1,0,50,0,0
76689,-100,4,2,0,45,0,0
77255,-100,4,1,0,50,0,0

[Colours]
Combo1 : 0,128,192
Combo2 : 0,64,0
Combo3 : 128,128,192
Combo4 : 128,64,64

[HitObjects]
96,52,699,2,0,B|156:36|216:52,2,120
96,116,1831,2,0,B|156:136|216:120,1,120
312,120,2680,1,0,0:0:0:0:
364,156,2963,6,0,B|340:244|284:248,1,120,2|0,0:0|0:0,0:0:0:0:
200,244,3812,1,0,0:0:0:0:
160,192,4095,1,0,0:0:0:0:
88,84,4661,1,0,0:0:0:0:
216,84,5227,6,0,B|276:76|328:104|344:156,2,160
216,148,6642,1,0,0:0:0:0:
256,200,6925,1,2,0:0:0:0:
176,300,7491,2,0,B|256:316|340:300,2,160
256,200,9189,1,0,0:0:0:0:
132,172,9755,6,0,B|116:128|132:80,1,79.9999999999999,4|0,0:0|0:0,0:0:0:0:
144,32,10321,2,0,B|192:16|224:16,1,79.9999999999999,8|0,0:0|0:0,0:0:0:0:
288,16,10887,2,0,B|320:16|372:40,1,79.9999999999999
388,96,11453,2,0,B|404:144|372:196,1,79.9999999999999,8|0,0:0|0:0,0:0:0:0:
336,216,12019,2,0,B|256:232|168:212,2,160,0|0|2,0:0|0:0|0:0,0:0:0:0:
224,28,14283,5,0,0:0:0:0:
288,28,14566,1,0,0:0:0:0:
332,76,14849,2,2,B|256:120|172:72,1,160
64,64,17114,6,2,B|8:144|80:232,1,160
256,184,18529,5,0,0:0:0:0:
304,140,18812,1,0,0:0:0:0:
368,140,19095,1,0,0:0:0:0:
416,184,19378,1,8,0:0:0:0:
328,276,19944,1,0,0:0:0:0:
272,308,20227,1,0,0:0:0:0:
208,308,20510,1,8,0:0:0:0:
156,272,20793,1,0,0:0:0:0:
256,108,21642,6,2,B|176:80|96:108,1,160
160,288,23057,5,0,0:0:0:0:
224,288,23340,1,0,0:0:0:0:
288,288,23623,1,0,0:0:0:0:
352,288,23906,1,8,0:0:0:0:
348,160,24472,1,0,0:0:0:0:
284,160,24755,1,0,0:0:0:0:
220,160,25038,1,8,0:0:0:0:
156,160,25321,1,0,0:0:0:0:
256,324,26170,6,2,B|336:348|420:324,1,160
256,216,27585,5,0,0:0:0:0:
208,172,27868,1,0,0:0:0:0:
256,128,28151,1,0,0:0:0:0:
304,172,28434,1,8,0:0:0:0:
256,292,29000,1,0,0:0:0:0:
304,336,29283,1,0,0:0:0:0:
256,380,29566,1,8,0:0:0:0:
208,336,29849,1,0,0:0:0:0:
396,308,30698,6,2,B|488:308|488:200,1,160
124,84,32963,6,2,B|24:84|24:184,1,160
312,272,34661,6,0,B|252:304|176:260,2,120,4|0|0,0:0|0:0|0:0,0:0:0:0:
256,156,36076,1,0,0:0:0:0:
256,156,36359,1,8,0:0:0:0:
136,204,36925,5,0,0:0:0:0:
136,140,37208,1,0,0:0:0:0:
188,104,37491,1,8,0:0:0:0:
252,104,37774,1,0,0:0:0:0:
300,144,38057,2,2,B|344:228|452:228|492:144,1,240,2|0,0:0|0:0,0:0:0:0:
448,100,39189,6,0,B|400:156|348:96,2,120
448,228,40604,1,0,0:0:0:0:
448,228,40887,1,8,0:0:0:0:
320,228,41453,5,0,0:0:0:0:
268,268,41736,1,0,0:0:0:0:
204,268,42019,1,8,0:0:0:0:
156,228,42302,1,0,0:0:0:0:
156,164,42585,2,2,B|156:104|240:56|320:104|320:164,1,240,2|0,0:0|0:0,0:0:0:0:
272,204,43717,6,0,B|272:272|352:304,2,120,4|0|0,0:0|0:0|0:0,0:0:0:0:
400,192,45132,1,0,0:0:0:0:
400,192,45415,1,8,0:0:0:0:
324,296,45982,5,0,0:0:0:0:
280,248,46265,1,0,0:0:0:0:
236,200,46548,1,8,0:0:0:0:
192,156,46831,1,0,0:0:0:0:
236,108,47114,2,2,B|316:72|412:132|412:216,1,240
364,256,48246,6,0,B|328:304|272:304,1,79.9999999999999
260,252,48812,2,0,B|224:300|168:300,1,79.9999999999999,8|0,0:0|0:0,0:0:0:0:
160,244,49378,1,0,0:0:0:0:
116,292,49661,1,2,0:0:0:0:
72,244,49944,1,2,0:0:0:0:
116,196,50227,1,0,0:0:0:0:
256,192,50510,12,0,52208,0:0:0:0:
256,80,52774,6,0,B|256:204,1,120,4|0,0:0|0:0,0:0:0:0:
256,296,53623,1,8,0:0:0:0:
192,292,53906,2,0,B|192:168,1,120
192,76,54755,1,8,0:0:0:0:
256,76,55038,2,0,B|256:216,1,120
256,292,55887,5,0,0:0:0:0:
320,292,56170,1,0,0:0:0:0:
372,256,56453,1,0,0:0:0:0:
372,192,56736,1,8,0:0:0:0:
424,152,57019,1,0,0:0:0:0:
424,88,57302,6,0,B|304:88,1,120,4|0,0:0|0:0,0:0:0:0:
208,88,58151,1,8,0:0:0:0:
208,152,58434,2,0,B|332:152,1,120
424,152,59283,1,8,0:0:0:0:
424,216,59566,5,0,0:0:0:0:
372,256,59849,1,0,0:0:0:0:
308,256,60132,2,2,B|148:256,2,160
372,256,61548,1,8,0:0:0:0:
424,216,61831,6,0,B|348:188|432:104|344:60,1,160,4|0,0:0|0:0,0:0:0:0:
320,36,62680,1,8,0:0:0:0:
256,36,62963,2,0,B|116:36,2,120,0|0|8,0:0|0:0|0:0,0:0:0:0:
256,100,64095,2,0,B|384:100,2,120,4|0|8,0:0|0:0|0:0,0:0:0:0:
212,148,65227,5,2,0:0:0:0:
148,148,65510,1,0,0:0:0:0:
148,212,65793,1,2,0:0:0:0:
212,212,66076,1,0,0:0:0:0:
256,260,66359,2,0,B|304:288|364:236|424:260,3,160,4|0|2|0,0:0|0:0|0:0|0:0,0:0:0:0:
360,140,68623,5,0,0:0:0:0:
308,100,68906,1,2,0:0:0:0:
256,60,69189,1,2,0:0:0:0:
204,100,69472,1,2,0:0:0:0:
156,144,69755,1,2,0:0:0:0:
256,224,70321,1,0,0:0:0:0:
372,280,70887,6,0,B|288:280,1,79.9999999999999,4|0,0:0|0:0,0:0:0:0:
228,280,71453,2,0,B|132:280,1,79.9999999999999,8|0,0:0|0:0,0:0:0:0:
148,216,72019,2,0,B|228:216,1,79.9999999999999
292,216,72585,2,0,B|380:216,2,79.9999999999999,8|0|0,0:0|0:0|0:0,0:0:0:0:
256,92,73717,6,2,B|296:148|332:92|368:36|408:92,2,160,2|2|0,0:0|0:0|0:0,0:0:0:0:
256,28,75132,1,8,0:0:0:0:
200,56,75415,2,0,B|152:128|200:208,1,160
164,320,76548,5,0,0:0:0:0:
256,352,76831,1,0,0:0:0:0:
348,320,77114,1,0,0:0:0:0:
256,276,77397,1,8,0:0:0:0:
196,248,77680,6,0,B|172:184|200:116,2,120,4|0|0,0:0|0:0|0:0,0:0:0:0:
256,224,78812,2,0,B|256:96,2,120
316,248,79944,2,0,B|340:184|312:116,2,120,4|0|0,0:0|0:0|0:0,0:0:0:0:
256,232,81076,5,0,0:0:0:0:
256,168,81359,1,0,0:0:0:0:
196,144,81642,2,0,B|256:44|316:144,1,160,0|2,0:0|0:0,0:0:0:0:
256,356,82774,5,0,0:0:0:0:
256,292,83057,1,0,0:0:0:0:
256,228,83340,1,0,0:0:0:0:
256,100,83906,1,0,0:0:0:0:
256,192,84472,12,4,86736,0:0:0:0:
