osu file format v12

[General]
AudioFilename: Snow Fairy.mp3
AudioLeadIn: 2000
PreviewTime: 52801
Countdown: 0
SampleSet: Normal
StackLeniency: 0.8
Mode: 0
LetterboxInBreaks: 0
WidescreenStoryboard: 0

[Editor]
DistanceSpacing: 0.8
BeatDivisor: 4
GridSize: 4

[Metadata]
Title:Snow Fairy (TV Size)
TitleUnicode:
Artist:Funkist
ArtistUnicode:
Creator:Jayel
Version:Insane
Source:Fairy Tail
Tags:Opening SkyDevil shikyu Natsu Lucy Gray Erza Happy
BeatmapID:102204
BeatmapSetID:31040

[Difficulty]
HPDrainRate:7
CircleSize:5
OverallDifficulty:6
ApproachRate:8
SliderMultiplier:1.3
SliderTickRate:1

[Events]
//Background and Video events
Video,0,"c_Fairy Tail Opening.avi"
0,0,"fairytale.jpg",0,0
//Break Periods
//Storyboard Layer 0 (Background)
//Storyboard Layer 1 (Fail)
//Storyboard Layer 2 (Pass)
//Storyboard Layer 3 (Foreground)
//Storyboard Sound Samples
//Background Colour Transformations
3,100,0,0,0

[TimingPoints]
699,283.018867924528,4,2,0,30,1,0
699,-200,4,2,0,30,0,0
9755,-100,4,1,0,50,0,0
51783,-100,4,2,0,50,0,0
52774,-100,4,1,0,50,0,1
70887,-100,4,1,0,50,0,0
76689,-100,4,2,0,45,0,0
77255,-100,4,1,0,50,0,0

[Colours]
Combo1 : 0,0,64
Combo2 : 0,64,0
Combo3 : 64,128,128
Combo4 : 128,128,128

[HitObjects]
72,192,699,1,2,0:0:0:0:
52,172,840,1,0,0:0:0:0:
48,148,982,1,0,0:0:0:0:
56,124,1123,2,0,P|68:88|60:56,1,65
96,204,1689,5,0,0:0:0:0:
116,220,1831,1,2,0:0:0:0:
128,244,1972,1,0,0:0:0:0:
132,272,2114,1,0,0:0:0:0:
124,296,2255,2,0,P|124:332|144:356,1,65
228,304,2821,5,0,0:0:0:0:
224,328,2963,1,2,0:0:0:0:
236,352,3104,1,0,0:0:0:0:
260,364,3246,1,0,0:0:0:0:
284,364,3387,2,0,B|324:360|348:328|340:296,1,97.5
320,204,4095,6,0,P|344:176|348:160,2,48.75,2|0|0,0:0|0:0|0:0,0:0:0:0:
296,216,4661,2,0,P|272:240|276:260,2,48.75,2|0|0,0:0|0:0|0:0,0:0:0:0:
320,228,5227,2,0,B|344:256|384:256|408:228,2,97.5
296,216,6217,1,0,0:0:0:0:
272,204,6359,2,0,P|240:192|212:200,1,65
172,292,6925,2,0,P|140:300|104:292,1,65,2|0,0:0|0:0,0:0:0:0:
256,92,7491,5,2,0:0:0:0:
160,160,7774,1,0,0:0:0:0:
196,272,8057,1,2,0:0:0:0:
316,272,8340,1,0,0:0:0:0:
352,160,8623,1,8,0:0:0:0:
128,148,9755,6,0,P|128:176|112:208,1,65,4|0,0:0|0:0,0:0:0:0:
76,248,10038,2,0,P|64:280|68:312,1,65,8|0,0:0|0:0,0:0:0:0:
112,340,10321,2,0,P|152:340|180:364,1,65
220,336,10604,2,0,P|252:344|284:332,1,65,8|0,0:0|0:0,0:0:0:0:
352,292,10887,5,0,0:0:0:0:
352,292,11029,1,0,0:0:0:0:
304,228,11170,1,8,0:0:0:0:
304,228,11312,1,0,0:0:0:0:
384,212,11453,1,0,0:0:0:0:
384,212,11595,1,0,0:0:0:0:
336,148,11736,1,8,0:0:0:0:
336,148,11878,1,0,0:0:0:0:
256,164,12019,6,0,P|232:188|196:192,1,65
196,112,12302,1,8,0:0:0:0:
128,156,12444,2,0,B|96:192|92:240|112:280,1,130
184,244,12868,1,8,0:0:0:0:
192,324,13010,2,2,B|232:340|280:340|320:324,2,130
256,276,13717,1,0,0:0:0:0:
256,108,14000,1,8,0:0:0:0:
328,252,14283,6,0,P|344:220|344:188,1,65
184,252,14566,2,0,P|168:220|168:188,1,65,8|0,0:0|0:0,0:0:0:0:
256,168,14849,1,0,0:0:0:0:
192,120,14991,2,2,B|232:80|292:88|336:124|332:184,1,195
256,324,15698,5,0,0:0:0:0:
256,324,15840,1,0,0:0:0:0:
256,60,16123,1,0,0:0:0:0:
256,60,16265,1,8,0:0:0:0:
464,220,16548,6,0,B|440:184|388:168|348:184,1,130,4|4,0:0|0:0,0:0:0:0:
372,260,16972,2,0,B|332:280|284:276|252:244,1,130
272,164,17397,1,8,0:0:0:0:
220,104,17538,1,0,0:0:0:0:
196,180,17680,6,0,B|148:172|112:136|112:92,1,130
172,40,18104,2,0,B|144:16|104:12|72:24|48:52,1,130
24,120,18529,1,8,0:0:0:0:
48,196,18670,1,0,0:0:0:0:
24,272,18812,6,0,B|32:312|68:344|120:352,1,130
144,276,19236,1,0,0:0:0:0:
196,336,19378,2,0,B|228:364|280:376|320:360,2,130,8|0|0,0:0|0:0|0:0,0:0:0:0:
196,144,20227,1,0,0:0:0:0:
256,92,20368,1,0,0:0:0:0:
316,144,20510,1,8,0:0:0:0:
316,304,20793,1,0,0:0:0:0:
376,356,20934,1,0,0:0:0:0:
436,304,21076,6,0,B|476:276|476:224|436:192,1,130,4|0,0:0|0:0,0:0:0:0:
376,244,21500,2,0,B|344:212|344:160|376:124,1,130
440,80,21925,1,8,0:0:0:0:
380,28,22066,1,0,0:0:0:0:
316,80,22208,6,0,B|284:108|228:108|192:76,1,130
136,24,22632,2,0,B|108:64|112:112|148:144,1,130
216,184,23057,1,8,0:0:0:0:
152,232,23198,1,0,0:0:0:0:
216,280,23340,6,0,B|252:304|304:304|340:280,1,130
336,200,23765,1,0,0:0:0:0:
412,232,23906,2,0,B|448:208|460:152|440:116,2,130,8|0|0,0:0|0:0|0:0,0:0:0:0:
256,164,24755,1,0,0:0:0:0:
196,108,24897,1,0,0:0:0:0:
216,32,25038,1,8,0:0:0:0:
296,32,25180,1,0,0:0:0:0:
316,108,25321,2,0,B|344:140|344:192|308:224,1,130,0|4,0:0|0:0,0:0:0:0:
176,308,25887,5,0,0:0:0:0:
104,348,26029,2,0,B|56:344|24:308|28:256,1,130
108,272,26453,2,0,P|128:248|160:236,2,65,8|0|0,0:0|0:0|0:0,0:0:0:0:
244,344,27019,5,0,0:0:0:0:
312,308,27161,2,0,B|348:332|400:332|436:312,1,130
404,240,27585,1,8,0:0:0:0:
480,212,27727,1,0,0:0:0:0:
416,164,27868,6,0,B|440:128|424:72|380:56,1,130
344,128,28293,1,0,0:0:0:0:
300,60,28434,1,8,0:0:0:0:
264,132,28576,1,0,0:0:0:0:
220,64,28717,2,0,B|180:84|128:72|104:36,2,130
192,140,29425,1,0,0:0:0:0:
232,208,29566,1,8,0:0:0:0:
192,276,29708,1,0,0:0:0:0:
152,208,29849,2,0,B|104:212|60:184|56:140,1,130,0|4,0:0|0:0,0:0:0:0:
200,72,30415,5,0,0:0:0:0:
260,124,30557,2,0,B|296:152|348:152|384:128,1,130
424,60,30982,2,0,P|452:80|460:112,2,65,8|0|0,0:0|0:0|0:0,0:0:0:0:
424,220,31548,1,0,0:0:0:0:
424,300,31689,2,0,B|388:328|336:328|304:296,1,130
304,220,32114,1,8,0:0:0:0:
200,100,32397,6,0,P|168:92|148:68,2,65,4|0|0,0:0|0:0|0:0,0:0:0:0:
200,284,32963,1,8,0:0:0:0:
264,332,33104,2,0,B|292:364|352:364|384:336,1,130
444,284,33529,1,0,0:0:0:0:
444,100,33812,6,0,L|444:32,1,65
372,68,34095,2,0,L|308:68,1,65
352,136,34378,2,0,L|352:200,2,65
256,192,34802,12,0,36359,0:0:0:0:
168,64,36925,5,0,0:0:0:0:
204,136,37066,1,0,0:0:0:0:
124,136,37208,1,0,0:0:0:0:
168,320,37491,1,8,0:0:0:0:
204,248,37632,1,0,0:0:0:0:
124,248,37774,1,0,0:0:0:0:
344,320,38057,5,0,0:0:0:0:
308,248,38198,1,0,0:0:0:0:
388,248,38340,1,0,0:0:0:0:
344,64,38623,1,8,0:0:0:0:
308,136,38764,1,0,0:0:0:0:
388,136,38906,1,0,0:0:0:0:
256,192,39189,5,4,0:0:0:0:
256,192,39331,12,0,40887,0:0:0:0:
216,56,41453,6,0,B|184:84|184:144|212:176,1,130
256,240,41878,1,0,0:0:0:0:
308,300,42019,2,0,B|272:328|216:320|188:284,1,130,8|0,0:0|0:0,0:0:0:0:
124,332,42444,1,0,0:0:0:0:
64,280,42585,6,0,B|32:244|32:196|64:160,1,130
128,208,43010,1,0,0:0:0:0:
196,168,43151,2,0,B|236:188|284:188|324:172,2,130,8|0|4,0:0|0:0|0:0,0:0:0:0:
256,192,43859,12,0,45415,0:0:0:0:
204,292,45982,6,0,P|160:304|136:288,1,65
92,356,46265,2,0,P|56:348|32:328,1,65
52,252,46548,2,0,B|40:208|60:160|108:152,2,130,8|0|0,0:0|0:0|0:0,0:0:0:0:
128,228,47255,1,0,0:0:0:0:
204,204,47397,2,0,B|240:180|288:180|328:204,1,130,2|2,0:0|0:0,0:0:0:0:
468,280,47963,1,0,0:0:0:0:
448,104,48246,6,0,L|456:168,1,65
376,184,48529,2,0,L|368:120,1,65,8|0,0:0|0:0,0:0:0:0:
292,140,48812,1,0,0:0:0:0:
216,160,48953,1,0,0:0:0:0:
272,216,49095,1,8,0:0:0:0:
196,236,49236,1,0,0:0:0:0:
248,296,49378,2,0,B|268:332|316:356|364:348,1,130,0|8,0:0|0:0,0:0:0:0:
332,272,49802,1,0,0:0:0:0:
412,268,49944,2,0,B|404:220|360:192|316:196,2,130,0|8|2,0:0|0:0|0:0,0:0:0:0:
384,340,50651,5,0,0:0:0:0:
312,312,50793,1,8,0:0:0:0:
240,348,50934,1,0,0:0:0:0:
168,312,51076,2,0,B|120:304|92:260|108:212,2,130,2|8|0,0:0|0:0|0:0,0:0:0:0:
184,292,51924,5,2,0:0:0:0:
200,272,52208,1,2,0:0:0:0:
216,252,52491,1,2,0:0:0:0:
232,232,52774,6,0,B|260:192|248:140|212:116,1,130,0|8,0:0|0:0,0:0:0:0:
304,272,53198,2,0,B|344:300|396:288|420:252,1,130,0|0,0:0|0:0,0:0:0:0:
264,344,53623,1,8,0:0:0:0:
304,272,53765,1,0,0:0:0:0:
344,204,53906,6,0,B|340:160|392:124|436:136,1,130,0|8,0:0|0:0,0:0:0:0:
304,272,54331,2,0,B|329:308|302:365|258:376,1,130
188,344,54755,1,8,0:0:0:0:
120,308,54897,1,0,0:0:0:0:
160,240,55038,6,0,B|120:208|116:160|132:120,1,130,0|8,0:0|0:0,0:0:0:0:
200,164,55463,2,0,B|196:116|240:84|288:100,1,130
304,176,55887,1,8,0:0:0:0:
376,140,56029,2,0,B|412:172|464:172|492:136,1,130
436,80,56453,6,0,P|440:48|464:28,1,65,8|0,0:0|0:0,0:0:0:0:
436,244,56736,2,0,P|432:276|408:296,1,65,0|0,0:0|0:0,0:0:0:0:
436,160,57019,1,8,0:0:0:0:
436,160,57161,1,0,0:0:0:0:
436,160,57302,6,0,P|412:184|380:184,1,65
304,168,57585,1,8,0:0:0:0:
332,244,57727,2,0,B|336:296|300:328|252:328,1,130
176,344,58151,1,8,0:0:0:0:
200,268,58293,1,0,0:0:0:0:
120,272,58434,6,0,P|112:240|120:208,1,65
152,136,58717,1,8,0:0:0:0:
76,160,58859,2,0,B|64:112|92:64|140:60,1,130
212,80,59283,5,8,0:0:0:0:
256,148,59425,1,0,0:0:0:0:
300,80,59566,2,0,B|336:104|388:104|424:84,1,130,0|8,0:0|0:0,0:0:0:0:
484,136,59991,1,0,0:0:0:0:
452,208,60132,1,0,0:0:0:0:
500,272,60274,2,2,B|496:320|456:352|408:344,1,130,2|0,0:0|0:0,0:0:0:0:
408,264,60698,6,2,B|388:228|336:204|296:216,1,130,2|8,0:0|0:0,0:0:0:0:
296,296,61123,1,0,0:0:0:0:
256,364,61265,1,0,0:0:0:0:
216,296,61406,1,0,0:0:0:0:
216,216,61548,1,8,0:0:0:0:
256,148,61689,1,0,0:0:0:0:
296,216,61831,6,0,B|324:184|380:184|412:216,1,130,4|8,0:0|0:0,0:0:0:0:
364,280,62255,1,0,0:0:0:0:
316,344,62397,2,0,B|352:372|404:372|438:349,1,130,0|8,0:0|0:0,0:0:0:0:
476,280,62821,1,0,0:0:0:0:
440,208,62963,2,0,B|412:176|412:124|436:84,1,130,0|8,0:0|0:0,0:0:0:0:
364,48,63387,2,0,B|332:72|280:80|240:60,1,130
188,120,63812,5,8,0:0:0:0:
164,44,63953,1,0,0:0:0:0:
112,104,64095,2,0,B|80:136|72:184|96:224,1,130,0|8,0:0|0:0,0:0:0:0:
168,192,64519,2,0,B|200:220|256:220|292:192,1,130
256,120,64944,5,8,0:0:0:0:
216,324,65227,2,0,L|148:324,1,65
296,280,65510,2,0,L|360:280,1,65,8|0,0:0|0:0,0:0:0:0:
256,212,65793,1,0,0:0:0:0:
216,144,65934,2,0,B|168:148|124:116|128:68,1,130,2|2,0:0|0:0,0:0:0:0:
208,64,66359,1,4,0:0:0:0:
256,192,66500,12,0,67491,0:0:0:0:
152,56,67774,6,0,B|116:80|60:80|28:52,1,130,8|0,0:0|0:0,0:0:0:0:
360,192,68340,2,0,B|396:168|452:168|484:196,1,130,8|0,0:0|0:0,0:0:0:0:
152,332,68906,2,0,B|116:308|60:308|28:336,2,130,8|0|8,0:0|0:0|0:0,0:0:0:0:
224,296,69614,1,0,0:0:0:0:
296,260,69755,1,0,0:0:0:0:
256,88,70038,6,0,L|256:20,1,65
292,152,70321,2,0,L|350:185,1,65
220,152,70604,2,0,L|161:185,1,65
96,228,70887,5,0,0:0:0:0:
96,228,71029,1,0,0:0:0:0:
164,268,71170,1,8,0:0:0:0:
164,268,71312,1,0,0:0:0:0:
232,228,71453,2,0,P|264:236|296:228,1,65
336,160,71736,2,0,P|368:152|400:160,1,65,8|0,0:0|0:0,0:0:0:0:
420,236,72019,6,0,P|436:264|432:296,1,65
356,320,72302,2,0,P|364:352|392:368,1,65,8|0,0:0|0:0,0:0:0:0:
468,352,72585,1,0,0:0:0:0:
468,352,72727,1,0,0:0:0:0:
496,276,72868,1,8,0:0:0:0:
496,276,73010,1,0,0:0:0:0:
488,196,73151,6,0,P|472:164|444:148,1,65
372,176,73434,1,8,0:0:0:0:
296,200,73576,2,0,B|248:192|220:152|228:104,1,130
164,60,74000,1,8,0:0:0:0:
156,140,74142,2,2,B|152:188|180:224|216:248,2,130
92,92,74849,1,0,0:0:0:0:
72,260,75132,1,8,0:0:0:0:
156,140,75415,6,0,P|144:176|148:208,1,65
220,232,75698,2,0,P|224:268|212:296,1,65,8|0,0:0|0:0,0:0:0:0:
148,344,75982,1,0,0:0:0:0:
228,356,76123,2,2,B|272:372|320:356|340:316,1,130,2|0,0:0|0:0,0:0:0:0:
312,240,76548,5,4,0:0:0:0:
388,216,76831,1,2,0:0:0:0:
416,140,77114,1,0,0:0:0:0:
396,60,77397,1,8,0:0:0:0:
352,124,77680,6,0,B|324:152|276:164|232:144,1,130,4|0,0:0|0:0,0:0:0:0:
192,212,78104,2,0,B|200:252|188:304|152:332,1,130
108,264,78529,2,0,P|80:248|48:252,1,65,8|0,0:0|0:0,0:0:0:0:
24,176,78812,2,0,B|8:132|20:84|56:60,1,130
108,120,79236,2,0,B|144:144|196:144|236:120,1,130
288,64,79661,2,0,P|312:92|312:124,1,65,8|0,0:0|0:0,0:0:0:0:
272,188,79944,6,0,P|256:216|264:248,2,65,4|0|0,0:0|0:0|0:0,0:0:0:0:
344,224,80368,2,0,B|384:244|432:240|468:216,1,130
432,144,80793,1,8,0:0:0:0:
496,96,80934,1,0,0:0:0:0:
428,52,81076,2,0,B|396:20|348:12|308:32,1,130
320,112,81500,6,0,L|360:168,1,65,2|0,0:0|0:0,0:0:0:0:
192,272,81783,2,0,L|152:216,1,65,2|0,0:0|0:0,0:0:0:0:
88,264,82066,1,2,0:0:0:0:
132,332,82208,2,0,B|168:356|220:356|256:332,1,130
256,192,82774,5,0,0:0:0:0:
256,192,83057,1,0,0:0:0:0:
256,192,83340,1,0,0:0:0:0:
256,192,83906,1,0,0:0:0:0:
256,192,84472,1,4,0:0:0:0:
256,192,84614,12,4,86736,0:0:0:0:
