osu file format v12

[General]
AudioFilename: Snow Fairy.mp3
AudioLeadIn: 2000
PreviewTime: 52801
Countdown: 0
SampleSet: Normal
StackLeniency: 0.8
Mode: 0
LetterboxInBreaks: 0
WidescreenStoryboard: 0

[Editor]
DistanceSpacing: 0.8
BeatDivisor: 2
GridSize: 4

[Metadata]
Title:Snow Fairy (TV Size)
TitleUnicode:
Artist:Funkist
ArtistUnicode:
Creator:Jayel
Version:Easy
Source:Fairy Tail
Tags:Opening SkyDevil shikyu Natsu Lucy Gray Erza Happy
BeatmapID:102202
BeatmapSetID:31040

[Difficulty]
HPDrainRate:2
CircleSize:3
OverallDifficulty:2
ApproachRate:3
SliderMultiplier:0.6
SliderTickRate:1

[Events]
//Background and Video events
Video,0,"c_Fairy Tail Opening.avi"
0,0,"fairytale.jpg",0,0
//Break Periods
2,9955,15108
//Storyboard Layer 0 (Background)
//Storyboard Layer 1 (Fail)
//Storyboard Layer 2 (Pass)
//Storyboard Layer 3 (Foreground)
//Storyboard Sound Samples
//Background Colour Transformations
3,100,0,0,0

[TimingPoints]
699,283.018867924528,4,2,0,30,1,0
9755,-100,4,1,0,50,0,0
52774,-100,4,1,0,50,0,1
70887,-100,4,1,0,50,0,0

[Colours]
Combo1 : 0,128,192
Combo2 : 0,64,0
Combo3 : 128,128,192
Combo4 : 128,64,64

[HitObjects]
52,164,699,2,0,B|52:96|76:40,1,120,0|2,0:0|0:0,0:0:0:0:
168,56,1831,2,0,B|168:128|136:196,1,120,0|2,0:0|0:0,0:0:0:0:
240,164,2963,2,0,B|256:88|340:76,1,120,0|2,0:0|0:0,0:0:0:0:
340,172,4095,2,0,B|412:184|440:240,1,120,0|2,0:0|0:0,0:0:0:0:
348,276,5227,6,0,B|348:348|256:328|164:348|164:276,2,240
256,248,8057,1,2,0:0:0:0:
256,152,8623,1,0,0:0:0:0:
196,76,9189,2,0,B|256:64|316:76,1,120,0|4,0:0|0:0,0:0:0:0:
256,48,16548,5,4,0:0:0:0:
196,120,17114,2,0,B|256:152|312:124,1,120
400,296,18812,5,0,0:0:0:0:
304,296,19378,1,8,0:0:0:0:
208,296,19944,1,0,0:0:0:0:
112,296,20510,1,8,0:0:0:0:
160,212,21076,5,4,0:0:0:0:
256,212,21642,2,0,B|388:212,1,120
400,20,23340,5,0,0:0:0:0:
304,20,23906,1,8,0:0:0:0:
208,20,24472,1,0,0:0:0:0:
112,20,25038,1,8,0:0:0:0:
160,104,25604,5,4,0:0:0:0:
256,104,26170,2,0,B|388:104,1,120
400,296,27868,5,0,0:0:0:0:
304,296,28434,1,8,0:0:0:0:
208,296,29000,1,0,0:0:0:0:
112,296,29566,1,8,0:0:0:0:
160,212,30132,5,4,0:0:0:0:
256,212,30698,2,0,B|380:212,1,120
352,16,32397,5,4,0:0:0:0:
256,16,32963,2,0,B|132:16,1,120
56,192,34661,6,0,B|56:312|164:312,1,180
256,316,36076,2,0,B|320:316,1,60,0|0,0:0|0:0,0:0:0:0:
364,232,36925,5,0,0:0:0:0:
304,156,37491,1,8,0:0:0:0:
208,156,38057,1,0,0:0:0:0:
152,232,38623,1,8,0:0:0:0:
60,204,39189,6,0,B|56:272|96:324|172:328,1,180
256,308,40604,2,0,B|256:240,1,60,0|0,0:0|0:0,0:0:0:0:
180,192,41453,5,0,0:0:0:0:
256,136,42019,1,8,0:0:0:0:
332,192,42585,1,0,0:0:0:0:
256,252,43151,1,8,0:0:0:0:
172,300,43717,6,0,B|256:364|344:300,1,180
256,252,45132,2,0,B|256:172,1,60,0|0,0:0|0:0,0:0:0:0:
160,188,45982,5,0,0:0:0:0:
208,104,46548,1,8,0:0:0:0:
304,104,47114,1,0,0:0:0:0:
352,188,47680,1,8,0:0:0:0:
256,192,48246,12,0,51642,0:0:0:0:
448,48,52774,6,0,B|448:168,1,120,4|0,0:0|0:0,0:0:0:0:
352,168,53906,2,0,B|352:48,1,120
256,48,55038,2,0,B|256:168,1,120
160,168,56170,2,0,B|160:104,2,60,0|0|2,0:0|0:0|0:0,0:0:0:0:
76,212,57302,6,0,B|76:344,1,120
172,332,58434,2,0,B|172:200,1,120
172,116,59566,1,0,0:0:0:0:
256,160,60132,1,8,0:0:0:0:
256,256,60698,1,0,0:0:0:0:
340,208,61265,1,8,0:0:0:0:
368,300,61831,6,0,B|304:348|204:348|140:296,2,240
428,224,64661,2,0,B|368:200|308:224,1,120,8|0,0:0|0:0,0:0:0:0:
256,144,65793,1,2,0:0:0:0:
200,220,66359,2,0,B|152:168|152:96|200:44|280:52,2,240
116,264,69189,5,8,0:0:0:0:
200,308,69755,1,0,0:0:0:0:
288,264,70321,1,2,0:0:0:0:
376,304,70887,6,0,B|388:224|352:172|276:156|224:196,1,240
144,240,72585,1,0,0:0:0:0:
144,144,73151,2,0,B|176:96|244:76|312:80|368:104,1,240,0|2,0:0|0:0,0:0:0:0:
256,264,75415,5,0,0:0:0:0:
256,168,75982,1,0,0:0:0:0:
256,120,76265,1,0,0:0:0:0:
256,72,76548,1,8,0:0:0:0:
76,140,77680,6,0,B|28:184|28:256,1,120
124,236,78812,2,0,B|124:312|184:344,1,120
228,260,79944,2,0,B|292:228|292:152,1,120
356,236,81076,5,0,0:0:0:0:
380,144,81642,1,8,0:0:0:0:
304,84,82208,1,0,0:0:0:0:
208,84,82774,5,0,0:0:0:0:
132,144,83340,1,0,0:0:0:0:
168,232,83906,1,0,0:0:0:0:
256,192,84472,12,4,86736,0:0:0:0:
