osu file format v14

[General]
AudioFilename: audio.mp3
AudioLeadIn: 0
PreviewTime: 109837
Countdown: 0
SampleSet: None
StackLeniency: 0.7
Mode: 1
LetterboxInBreaks: 0
EpilepsyWarning: 1
WidescreenStoryboard: 0

[Editor]
Bookmarks: 12210,65091,66447,88142,131532,153226,218311,240006
DistanceSpacing: 0.8
BeatDivisor: 8
GridSize: 4
TimelineZoom: 3.799999

[Metadata]
Title:Algebra
TitleUnicode:Algebra
Artist:Function Phantom
ArtistUnicode:Function Phantom
Creator:sxy62146214
Version:Aspire II
Source:osu!
Tags:X program taiko aspire 2017 Speed Truck Similar Octomba Unlimited Aspire sxy62146214 cyxw skeletonXB wtf for loved
BeatmapID:1372641
BeatmapSetID:647867

[Difficulty]
HPDrainRate:7
CircleSize:5
OverallDifficulty:10
ApproachRate:10
SliderMultiplier:2
SliderTickRate:1

[Events]
//Background and Video events
0,0,"osu_taiko.png",0,0
//Break Periods
2,110037,120234
//Storyboard Layer 0 (Background)
//Storyboard Layer 1 (Fail)
//Storyboard Layer 2 (Pass)
//Storyboard Layer 3 (Foreground)
//Storyboard Sound Samples

[TimingPoints]
1363,1,4,2,0,50,1,8
1364,1E+298,4,2,0,50,1,0
1364,-200,4,2,0,50,0,0
12210,338.983050847458,4,2,0,50,1,0
12210,-100,4,2,0,50,0,0
12548,-90.9090909090909,4,2,0,50,0,0
12887,-100,4,2,0,50,0,0
13226,-90.9090909090909,4,2,0,50,0,0
13565,-100,4,2,0,50,0,0
13904,-90.9090909090909,4,2,0,50,0,0
14243,-100,4,2,0,50,0,0
14582,-90.9090909090909,4,2,0,50,0,0
14921,-100,4,2,0,50,0,0
18142,-66.6666666666667,4,2,0,50,0,0
18311,-100,4,2,0,50,0,0
19328,-80,4,2,0,50,0,0
19498,-66.6666666666667,4,2,0,50,0,0
19667,-57.1428571428571,4,2,0,50,0,0
19921,-66.6666666666667,4,2,0,50,0,0
20176,-80,4,2,0,50,0,0
20345,-100,4,2,0,50,0,0
20854,-66.6666666666667,4,2,0,50,0,0
21362,-50,4,2,0,50,0,0
21701,-133.333333333333,4,2,0,50,0,0
22040,-100,4,2,0,50,0,0
22379,-80,4,2,0,50,0,0
22718,-66.6666666666667,4,2,0,50,0,0
23057,-57.1428571428571,4,2,0,60,0,1
25048,-57.1428571428571,4,2,0,60,0,0
25091,-50,4,2,0,60,0,1
25218,-50,4,2,0,60,0,0
25260,-50,4,2,0,60,0,1
25387,-50,4,2,0,60,0,0
25430,-50,4,2,0,60,0,1
25769,-57.1428571428571,4,2,0,60,0,1
27125,-50,4,2,0,60,0,1
27803,-50,4,2,0,60,0,0
28481,-57.1428571428571,4,2,0,60,0,1
29794,-57.1428571428571,4,2,0,60,0,0
29837,-50,4,2,0,60,0,1
30133,-50,4,2,0,60,0,0
30176,-50,4,2,0,60,0,1
30515,-66.6666666666667,4,2,0,60,0,1
30684,-57.1428571428571,4,2,0,60,0,1
30854,-50,4,2,0,60,0,1
31193,-57.1428571428571,4,2,0,60,0,1
32210,-50,4,2,0,60,0,1
32548,-50,4,2,0,50,0,0
33904,-66.6666666666667,4,2,0,60,0,1
35430,-57.1428571428571,4,2,0,60,0,0
35599,-66.6666666666667,4,2,0,60,0,1
36786,-57.1428571428571,4,2,0,60,0,0
36955,-66.6666666666667,4,2,0,60,0,1
38015,-66.6666666666667,4,2,0,60,0,0
38057,-50,4,2,0,60,0,1
38650,-71.4285714285714,4,2,0,60,0,0
39328,-66.6666666666667,4,2,0,60,0,1
40684,-66.6666666666667,4,2,0,60,0,0
40854,-57.1428571428571,4,2,0,60,0,1
41023,-66.6666666666667,4,2,0,60,0,0
41193,-57.1428571428571,4,2,0,60,0,1
43396,-57.1428571428571,4,2,0,60,0,0
43565,-57.1428571428571,4,2,0,60,0,1
43989,-57.1428571428571,4,2,0,60,0,0
44243,-57.1428571428571,4,2,0,60,0,1
44582,-57.1428571428571,4,2,0,60,0,0
44667,-57.1428571428571,4,2,0,60,0,1
44752,-100,4,2,0,50,0,0
47464,-105.263157894737,4,2,0,50,0,0
50176,-111.111111111111,4,2,0,45,0,0
52887,-117.647058823529,4,2,0,45,0,0
55599,-125,4,2,0,40,0,0
58311,-133.333333333333,4,2,0,40,0,0
61023,-142.857142857143,4,2,0,35,0,0
63735,-153.846153846154,4,2,0,35,0,0
65091,-151.515151515152,4,2,0,35,0,0
65133,-149.253731343284,4,2,0,35,0,0
65176,-147.058823529412,4,2,0,35,0,0
65218,-144.927536231884,4,2,0,35,0,0
65260,-142.857142857143,4,2,0,35,0,0
65303,-140.845070422535,4,2,0,35,0,0
65345,-138.888888888889,4,2,0,35,0,0
65387,-136.986301369863,4,2,0,35,0,0
65430,-135.135135135135,4,2,0,35,0,0
65472,-133.333333333333,4,2,0,35,0,0
65515,-131.578947368421,4,2,0,35,0,0
65557,-129.87012987013,4,2,0,35,0,0
65599,-128.205128205128,4,2,0,35,0,0
65642,-126.582278481013,4,2,0,35,0,0
65684,-125,4,2,0,35,0,0
65726,-123.456790123457,4,2,0,35,0,0
65769,-121.951219512195,4,2,0,35,0,0
65811,-120.481927710843,4,2,0,35,0,0
65854,-119.047619047619,4,2,0,35,0,0
65896,-117.647058823529,4,2,0,35,0,0
65938,-116.279069767442,4,2,0,35,0,0
65981,-114.942528735632,4,2,0,35,0,0
66023,-113.636363636364,4,2,0,35,0,0
66065,-112.359550561798,4,2,0,35,0,0
66108,-111.111111111111,4,2,0,35,0,0
66447,-135.135135135135,4,2,0,60,0,1
66448,-119.047619047619,4,2,0,60,0,1
66449,-106.382978723404,4,2,0,60,0,1
66450,-96.1538461538461,4,2,0,60,0,1
66451,-87.719298245614,4,2,0,60,0,1
66452,-135.135135135135,4,2,0,60,0,1
66786,-82.6446280991736,4,2,0,60,0,1
67125,-69.9300699300699,4,2,0,60,0,1
67464,-161.290322580645,4,2,0,60,0,1
67803,-102.040816326531,4,2,0,60,0,1
68142,-89.2857142857143,4,2,0,60,0,1
68481,-96.1538461538461,4,2,0,60,0,1
68820,-58.8235294117647,4,2,0,60,0,1
69159,-109.89010989011,4,2,0,60,0,1
69160,-99.0099009900991,4,2,0,60,0,1
69161,-90.0900900900901,4,2,0,60,0,1
69162,-82.6446280991736,4,2,0,60,0,1
69163,-76.3358778625954,4,2,0,60,0,1
69164,-109.89010989011,4,2,0,60,0,1
69498,-125,4,2,0,60,0,1
69837,-75.187969924812,4,2,0,60,0,1
70176,-96.1538461538461,4,2,0,60,0,1
70515,-140.845070422535,4,2,0,60,0,1
70854,-62.5,4,2,0,60,0,1
71193,-80.6451612903226,4,2,0,60,0,0
71532,-65.359477124183,4,2,0,60,0,0
71871,-102.040816326531,4,2,0,60,0,1
71872,-92.5925925925929,4,2,0,60,0,1
71873,-84.7457627118644,4,2,0,60,0,1
71874,-78.125,4,2,0,60,0,1
71875,-72.463768115942,4,2,0,60,0,1
71876,-102.040816326531,4,2,0,60,0,1
72210,-70.9219858156028,4,2,0,60,0,1
72548,-126.582278481013,4,2,0,60,0,1
72887,-90.0900900900901,4,2,0,60,0,1
73226,-54.3478260869565,4,2,0,60,0,1
73565,-75.7575757575758,4,2,0,60,0,1
73904,-94.3396226415094,4,2,0,60,0,1
74243,-200,4,2,0,60,0,1
74582,-119.047619047619,4,2,0,60,0,1
74583,-106.382978723404,4,2,0,60,0,1
74584,-96.1538461538461,4,2,0,60,0,1
74585,-87.719298245614,4,2,0,60,0,1
74586,-80.6451612903226,4,2,0,60,0,1
74587,-119.047619047619,4,2,0,60,0,1
74921,-109.89010989011,4,2,0,60,0,1
75260,-61.7283950617284,4,2,0,60,0,1
75599,-125,4,2,0,60,0,1
75938,-133.333333333333,4,2,0,60,0,1
76277,-56.4971751412429,4,2,0,60,0,1
76616,-68.4931506849315,4,2,0,60,0,0
76955,-50,4,2,0,60,0,0
77294,-196.078431372549,4,2,0,60,0,1
77295,-163.934426229508,4,2,0,60,0,1
77296,-140.845070422535,4,2,0,60,0,1
77297,-123.456790123457,4,2,0,60,0,1
77298,-109.89010989011,4,2,0,60,0,1
77299,-196.078431372549,4,2,0,60,0,1
77633,-98.0392156862745,4,2,0,60,0,1
77972,-81.9672131147541,4,2,0,60,0,1
78311,-71.9424460431655,4,2,0,60,0,1
78650,-163.934426229508,4,2,0,60,0,1
78989,-103.092783505155,4,2,0,60,0,1
79328,-71.4285714285714,4,2,0,60,0,1
79667,-66.6666666666667,4,2,0,60,0,1
80006,-78.125,4,2,0,60,0,1
80007,-72.463768115942,4,2,0,60,0,1
80008,-67.5675675675676,4,2,0,60,0,1
80009,-67.5675675675676,4,2,0,60,0,1
80010,-67.5675675675676,4,2,0,60,0,1
80011,-78.125,4,2,0,60,0,1
80345,-54.3478260869565,4,2,0,60,0,1
80684,-105.263157894737,4,2,0,60,0,1
81023,-86.2068965517241,4,2,0,60,0,1
81362,-68.0272108843537,4,2,0,60,0,1
81701,-175.438596491228,4,2,0,60,0,1
82040,-80.6451612903226,4,2,0,60,0,0
82379,-71.4285714285714,4,2,0,60,0,0
82718,-135.135135135135,4,2,0,60,0,1
82719,-119.047619047619,4,2,0,60,0,1
82720,-106.382978723404,4,2,0,60,0,1
82721,-96.1538461538461,4,2,0,60,0,1
82722,-87.719298245614,4,2,0,60,0,1
82723,-135.135135135135,4,2,0,60,0,1
83057,-60.9756097560976,4,2,0,60,0,1
83396,-72.992700729927,4,2,0,60,0,1
83735,-67.1140939597315,4,2,0,60,0,1
84074,-52.3560209424084,4,2,0,60,0,1
84413,-72.463768115942,4,2,0,60,0,1
84752,-50,4,2,0,60,0,1
85091,-178.571428571429,4,2,0,60,0,1
85430,-87.719298245614,4,2,0,60,0,1
85431,-80.6451612903226,4,2,0,60,0,1
85432,-74.6268656716418,4,2,0,60,0,1
85433,-69.4444444444444,4,2,0,60,0,1
85434,-64.9350649350649,4,2,0,60,0,1
85435,-87.719298245614,4,2,0,60,0,1
85769,-60.9756097560976,4,2,0,60,0,1
86108,-94.3396226415094,4,2,0,60,0,1
86447,-119.047619047619,4,2,0,60,0,1
86786,-76.9230769230769,4,2,0,60,0,1
87125,-63.2911392405063,4,2,0,60,0,1
87464,-79.3650793650794,4,2,0,60,0,0
87803,-135.135135135135,4,2,0,60,0,0
88142,-100,4,2,0,60,0,1
93057,-100,4,2,0,50,0,0
93099,-98.0392156862745,4,2,0,50,0,0
93142,-96.1538461538461,4,2,0,50,0,0
93184,-94.3396226415094,4,2,0,50,0,0
93226,-92.5925925925926,4,2,0,50,0,0
93269,-90.9090909090909,4,2,0,50,0,0
93311,-89.2857142857143,4,2,0,50,0,0
93354,-87.719298245614,4,2,0,50,0,0
93396,-86.2068965517241,4,2,0,50,0,0
93438,-84.7457627118644,4,2,0,50,0,0
93481,-83.3333333333333,4,2,0,50,0,0
93523,-81.9672131147541,4,2,0,50,0,0
93565,-80,4,2,0,60,0,1
97633,-80,4,2,0,50,0,0
97803,-76.9230769230769,4,2,0,50,0,0
98057,-75.187969924812,4,2,0,50,0,0
98311,-74.0740740740741,4,2,0,50,0,0
98650,-71.4285714285714,4,2,0,50,0,0
98820,-69.9300699300699,4,2,0,50,0,0
98904,-68.0272108843537,4,2,0,50,0,0
98989,-66.6666666666667,4,2,0,60,0,1
103904,-66.6666666666667,4,2,0,60,0,1
103947,-65.7894736842105,4,2,0,50,0,0
103989,-64.9350649350649,4,2,0,50,0,0
104032,-64.1025641025641,4,2,0,50,0,0
104074,-63.2911392405063,4,2,0,50,0,0
104116,-62.5,4,2,0,50,0,0
104159,-61.7283950617284,4,2,0,50,0,0
104201,-60.9756097560976,4,2,0,50,0,0
104243,-60.2409638554217,4,2,0,50,0,0
104286,-59.5238095238095,4,2,0,50,0,0
104328,-58.8235294117647,4,2,0,50,0,0
104371,-58.1395348837209,4,2,0,50,0,0
104413,-57.1428571428571,4,2,0,60,0,1
109159,-57.1428571428571,4,2,0,50,0,0
109243,-55.8659217877095,4,2,0,50,0,0
109328,-54.6448087431694,4,2,0,50,0,0
109413,-53.475935828877,4,2,0,50,0,0
109498,-52.3560209424084,4,2,0,50,0,0
109582,-51.2820512820513,4,2,0,50,0,0
109667,-50.251256281407,4,2,0,50,0,0
109752,-48.780487804878,4,2,0,50,0,0
109837,-200,4,2,0,20,0,1
109879,-200,4,2,0,20,0,0
112548,-222.222222222222,4,2,0,20,0,0
115260,-250,4,2,0,15,0,0
117972,-285.714285714286,4,2,0,15,0,0
120684,-333.333333333333,4,2,0,10,0,0
123396,-400,4,2,0,10,0,0
126108,-500,4,2,0,5,0,0
128820,-666.666666666667,4,2,0,5,0,0
131532,-1000,4,2,0,0,0,0
153226,-100,4,2,0,60,0,1
153269,-100,4,2,0,60,0,0
158650,-80,4,2,0,60,0,1
158693,-80,4,2,0,60,0,0
164074,-66.6666666666667,4,2,0,60,0,1
164116,-66.6666666666667,4,2,0,60,0,0
166786,-66.6666666666667,4,2,0,60,0,1
166828,-66.6666666666667,4,2,0,60,0,0
169498,-57.1428571428571,4,2,0,60,0,1
169540,-57.1428571428571,4,2,0,60,0,0
170176,-57.1428571428571,4,2,0,60,0,1
170218,-57.1428571428571,4,2,0,60,0,0
170854,-57.1428571428571,4,2,0,60,0,1
170896,-57.1428571428571,4,2,0,60,0,0
171532,-57.1428571428571,4,2,0,60,0,1
171574,-57.1428571428571,4,2,0,60,0,0
173565,-50,4,2,0,60,0,1
174582,-100,4,2,0,60,0,0
174921,-66.6666666666667,4,2,0,60,0,1
179837,-66.6666666666667,4,2,0,50,0,0
179879,-65.7894736842105,4,2,0,50,0,0
179921,-64.9350649350649,4,2,0,50,0,0
179964,-64.1025641025641,4,2,0,50,0,0
180006,-63.2911392405063,4,2,0,50,0,0
180048,-62.5,4,2,0,50,0,0
180091,-61.7283950617284,4,2,0,50,0,0
180133,-60.9756097560976,4,2,0,50,0,0
180176,-60.2409638554217,4,2,0,50,0,0
180218,-59.5238095238095,4,2,0,50,0,0
180260,-58.8235294117647,4,2,0,50,0,0
180303,-58.1395348837209,4,2,0,50,0,0
180345,-57.1428571428571,4,2,0,60,0,1
184413,-57.1428571428571,4,2,0,50,0,0
184582,-55.5555555555556,4,2,0,50,0,0
184837,-54.6448087431694,4,2,0,50,0,0
185091,-54.054054054054,4,2,0,50,0,0
185430,-52.6315789473684,4,2,0,50,0,0
185599,-51.2820512820513,4,2,0,50,0,0
185684,-50.761421319797,4,2,0,50,0,0
185769,-50,4,2,0,60,0,1
190684,-50,4,2,0,50,0,0
190726,-49.5049504950495,4,2,0,50,0,0
190769,-49.0196078431373,4,2,0,50,0,0
190811,-48.5436893203883,4,2,0,50,0,0
190854,-48.0769230769231,4,2,0,50,0,0
190896,-47.6190476190476,4,2,0,50,0,0
190938,-47.1698113207547,4,2,0,50,0,0
190981,-46.7289719626168,4,2,0,50,0,0
191023,-46.2962962962963,4,2,0,50,0,0
191065,-45.8715596330275,4,2,0,50,0,0
191108,-45.4545454545455,4,2,0,50,0,0
191150,-45.045045045045,4,2,0,50,0,0
191193,-44.4444444444445,4,2,0,60,0,1
196574,-44.4444444444445,4,2,0,60,0,0
196616,-40,4,2,0,60,0,1
196659,-57.1428571428571,4,2,0,60,0,1
197591,-57.1428571428571,4,2,0,60,0,0
197633,-40,4,2,0,60,0,1
197676,-57.1428571428571,4,2,0,60,0,1
198989,-40,4,2,0,60,0,0
199159,-40,4,2,0,60,0,1
199201,-57.1428571428571,4,2,0,60,0,1
200345,-40,4,2,0,60,0,0
200515,-40,4,2,0,60,0,1
200557,-57.1428571428571,4,2,0,60,0,0
201998,-57.1428571428571,4,2,0,60,0,0
202040,-40,4,2,0,60,0,1
202082,-57.1428571428571,4,2,0,60,0,1
203057,-40,4,2,0,60,0,0
203226,-40,4,2,0,60,0,1
203269,-57.1428571428571,4,2,0,60,0,1
204710,-57.1428571428571,4,2,0,60,0,0
204752,-40,4,2,0,60,0,1
204794,-57.1428571428571,4,2,0,60,0,1
205769,-40,4,2,0,60,0,0
205938,-40,4,2,0,60,0,1
205981,-57.1428571428571,4,2,0,60,0,0
207421,-57.1428571428571,4,2,0,60,0,0
207464,-40,4,2,0,60,0,1
207506,-57.1428571428571,4,2,0,60,0,1
208438,-57.1428571428571,4,2,0,60,0,0
208481,-40,4,2,0,60,0,1
208523,-57.1428571428571,4,2,0,60,0,1
209837,-40,4,2,0,60,0,0
210006,-40,4,2,0,60,0,1
210048,-57.1428571428571,4,2,0,60,0,1
211193,-40,4,2,0,60,0,0
211362,-40,4,2,0,60,0,1
211404,-57.1428571428571,4,2,0,60,0,0
212887,-40,4,2,0,60,0,1
212930,-57.1428571428571,4,2,0,60,0,1
213904,-40,4,2,0,60,0,0
214074,-40,4,2,0,60,0,1
214116,-57.1428571428571,4,2,0,60,0,1
215557,-40,4,2,0,60,0,0
215599,-40,4,2,0,60,0,1
215642,-57.1428571428571,4,2,0,60,0,1
216616,-40,4,2,0,60,0,0
216786,-40,4,2,0,60,0,1
216828,-57.1428571428571,4,2,0,60,0,1
218311,338.983050847458,4,2,0,60,1,1
218311,-68.9655172413793,4,2,0,60,0,1
218312,-64.5161290322581,4,2,0,60,0,1
218313,-60.6060606060606,4,2,0,60,0,1
218314,-57.1428571428571,4,2,0,60,0,1
218315,-54.054054054054,4,2,0,60,0,1
218316,-68.9655172413793,4,2,0,60,0,1
218353,338.983050847458,4,2,0,50,1,8
218395,338.983050847458,4,2,0,50,1,8
218437,338.983050847458,4,2,0,50,1,8
218479,338.983050847458,4,2,0,60,1,1
218521,338.983050847458,4,2,0,60,1,1
218563,338.983050847458,4,2,0,60,1,1
218605,338.983050847458,4,2,0,60,1,1
218650,338.983050847458,4,2,0,60,1,1
218650,-50.761421319797,4,2,0,60,0,1
218819,338.983050847458,4,2,0,60,1,1
218989,338.983050847458,4,2,0,60,1,1
218989,-55.8659217877095,4,2,0,60,0,1
219045,338.983050847458,4,2,0,60,1,1
219101,338.983050847458,4,2,0,60,1,1
219157,338.983050847458,4,2,0,60,1,1
219213,338.983050847458,4,2,0,60,1,1
219269,338.983050847458,4,2,0,60,1,1
219328,338.983050847458,4,2,0,60,1,1
219328,-48.3091787439614,4,2,0,60,0,1
219667,338.983050847458,4,2,0,60,1,1
219667,-53.1914893617021,4,2,0,60,0,1
219751,338.983050847458,4,2,0,60,1,1
219835,338.983050847458,4,2,0,60,1,1
219919,338.983050847458,4,2,0,60,1,1
220006,338.983050847458,4,2,0,60,1,1
220006,-96.1538461538461,4,2,0,60,0,1
220175,338.983050847458,4,2,0,60,1,1
220345,338.983050847458,4,2,0,60,1,1
220345,-66.6666666666667,4,2,0,60,0,1
220684,338.983050847458,4,2,0,60,1,1
220684,-78.7401574803149,4,2,0,60,0,1
220705,338.983050847458,4,2,0,60,1,1
220726,338.983050847458,4,2,0,60,1,1
220747,338.983050847458,4,2,0,60,1,1
220768,338.983050847458,4,2,0,60,1,1
220789,338.983050847458,4,2,0,60,1,1
220810,338.983050847458,4,2,0,60,1,1
220831,338.983050847458,4,2,0,60,1,1
220852,338.983050847458,4,2,0,60,1,1
220873,338.983050847458,4,2,0,60,1,1
220894,338.983050847458,4,2,0,60,1,1
220915,338.983050847458,4,2,0,60,1,1
220936,338.983050847458,4,2,0,60,1,1
220957,338.983050847458,4,2,0,60,1,1
220978,338.983050847458,4,2,0,60,1,1
220999,338.983050847458,4,2,0,60,1,1
221023,338.983050847458,4,2,0,60,1,1
221023,-58.8235294117647,4,2,0,60,0,1
221024,-55.5555555555556,4,2,0,60,0,1
221025,-52.6315789473684,4,2,0,60,0,1
221026,-50,4,2,0,60,0,1
221027,-47.6190476190476,4,2,0,60,0,1
221028,-58.8235294117647,4,2,0,60,0,1
221107,338.983050847458,4,2,0,60,1,1
221191,338.983050847458,4,2,0,60,1,1
221275,338.983050847458,4,2,0,60,1,1
221362,338.983050847458,4,2,0,60,1,1
221362,-46.7289719626168,4,2,0,60,0,1
221531,338.983050847458,4,2,0,60,1,1
221701,338.983050847458,4,2,0,60,1,1
221701,-50.251256281407,4,2,0,60,0,1
221813,338.983050847458,4,2,0,60,1,1
221925,338.983050847458,4,2,0,60,1,1
222040,338.983050847458,4,2,0,60,1,1
222040,-68.4931506849315,4,2,0,60,0,1
222094,338.983050847458,4,2,0,60,1,1
222136,338.983050847458,4,2,0,60,1,1
222178,338.983050847458,4,2,0,60,1,1
222220,338.983050847458,4,2,0,60,1,1
222379,338.983050847458,4,2,0,60,1,1
222379,-56.1797752808989,4,2,0,60,0,1
222718,338.983050847458,4,2,0,60,1,1
222718,-47.39336492891,4,2,0,60,0,1
222887,338.983050847458,4,2,0,60,1,1
223057,338.983050847458,4,2,0,60,1,1
223057,-50,4,2,0,60,0,1
223099,338.983050847458,4,2,0,60,1,1
223141,338.983050847458,4,2,0,60,1,1
223183,338.983050847458,4,2,0,60,1,1
223225,338.983050847458,4,2,0,60,1,1
223267,338.983050847458,4,2,0,60,1,1
223309,338.983050847458,4,2,0,60,1,1
223351,338.983050847458,4,2,0,60,1,1
223396,338.983050847458,4,2,0,60,1,1
223396,-73.5294117647059,4,2,0,60,0,1
223480,338.983050847458,4,2,0,60,1,1
223564,338.983050847458,4,2,0,60,1,1
223735,338.983050847458,4,2,0,60,1,1
223735,-82.6446280991736,4,2,0,60,0,1
223736,-76.3358778625954,4,2,0,60,0,1
223737,-70.9219858156028,4,2,0,60,0,1
223738,-66.2251655629139,4,2,0,60,0,1
223739,-62.111801242236,4,2,0,60,0,1
223740,-82.6446280991736,4,2,0,60,0,1
223756,338.983050847458,4,2,0,60,1,1
223777,338.983050847458,4,2,0,60,1,1
223798,338.983050847458,4,2,0,60,1,1
223819,338.983050847458,4,2,0,60,1,1
223840,338.983050847458,4,2,0,60,1,1
223861,338.983050847458,4,2,0,60,1,1
223882,338.983050847458,4,2,0,60,1,1
223903,338.983050847458,4,2,0,60,1,1
224074,338.983050847458,4,2,0,60,1,1
224074,-56.4971751412429,4,2,0,60,0,1
224116,338.983050847458,4,2,0,60,1,1
224158,338.983050847458,4,2,0,60,1,1
224413,338.983050847458,4,2,0,60,1,1
224413,-60.9756097560976,4,2,0,60,0,1
224497,338.983050847458,4,2,0,60,1,1
224581,338.983050847458,4,2,0,60,1,1
224665,338.983050847458,4,2,0,60,1,1
224752,338.983050847458,4,2,0,60,1,1
224752,-41.49377593361,4,2,0,60,0,1
224921,338.983050847458,4,2,0,60,1,1
224942,338.983050847458,4,2,0,60,1,1
224963,338.983050847458,4,2,0,60,1,1
225091,338.983050847458,4,2,0,60,1,1
225091,-99.009900990099,4,2,0,60,0,1
225345,338.983050847458,4,2,0,60,1,1
225430,338.983050847458,4,2,0,60,1,1
225430,-56.4971751412429,4,2,0,60,0,1
225769,338.983050847458,4,2,0,60,1,1
225769,-67.1140939597315,4,2,0,60,0,1
225811,338.983050847458,4,2,0,60,1,1
225853,338.983050847458,4,2,0,60,1,1
226022,338.983050847458,4,2,0,60,1,1
226043,338.983050847458,4,2,0,60,1,1
226064,338.983050847458,4,2,0,60,1,1
226085,338.983050847458,4,2,0,60,1,1
226108,338.983050847458,4,2,0,60,1,1
226108,-46.9483568075117,4,2,0,60,0,1
226129,338.983050847458,4,2,0,60,1,1
226150,338.983050847458,4,2,0,60,1,1
226171,338.983050847458,4,2,0,60,1,1
226192,338.983050847458,4,2,0,60,1,1
226213,338.983050847458,4,2,0,60,1,1
226234,338.983050847458,4,2,0,60,1,1
226255,338.983050847458,4,2,0,60,1,1
226276,338.983050847458,4,2,0,60,1,1
226447,338.983050847458,4,2,0,60,1,1
226447,-100,4,2,0,60,0,1
226448,-90.9090909090909,4,2,0,60,0,1
226449,-83.3333333333333,4,2,0,60,0,1
226450,-76.9230769230769,4,2,0,60,0,1
226451,-71.4285714285714,4,2,0,60,0,1
226452,-100,4,2,0,60,0,1
226531,338.983050847458,4,2,0,60,1,1
226615,338.983050847458,4,2,0,60,1,1
226699,338.983050847458,4,2,0,60,1,1
226786,338.983050847458,4,2,0,60,1,1
226786,-62.5,4,2,0,60,0,1
226826,338.983050847458,4,2,0,60,1,1
226868,338.983050847458,4,2,0,60,1,1
226910,338.983050847458,4,2,0,60,1,1
227125,338.983050847458,4,2,0,60,1,1
227125,-87.719298245614,4,2,0,60,0,1
227464,338.983050847458,4,2,0,60,1,1
227464,-55.5555555555556,4,2,0,60,0,1
227633,338.983050847458,4,2,0,60,1,1
227803,338.983050847458,4,2,0,60,1,1
227803,-43.859649122807,4,2,0,60,0,1
228142,338.983050847458,4,2,0,60,1,1
228142,-48.3091787439614,4,2,0,60,0,1
228481,338.983050847458,4,2,0,60,1,0
228481,-57.1428571428571,4,2,0,60,0,0
228820,338.983050847458,4,2,0,60,1,0
228820,-50,4,2,0,60,0,0
228862,338.983050847458,4,2,0,60,1,0
228904,338.983050847458,4,2,0,60,1,0
228946,338.983050847458,4,2,0,60,1,0
228988,338.983050847458,4,2,0,60,1,0
229159,338.983050847458,4,2,0,60,1,1
229159,-68.4931506849315,4,2,0,60,0,1
229160,-64.1025641025641,4,2,0,60,0,1
229161,-60.2409638554217,4,2,0,60,0,1
229162,-56.8181818181818,4,2,0,60,0,1
229163,-53.763440860215,4,2,0,60,0,1
229164,-68.4931506849315,4,2,0,60,0,1
229180,338.983050847458,4,2,0,60,1,1
229201,338.983050847458,4,2,0,60,1,1
229222,338.983050847458,4,2,0,60,1,1
229243,338.983050847458,4,2,0,60,1,1
229264,338.983050847458,4,2,0,60,1,1
229285,338.983050847458,4,2,0,60,1,1
229306,338.983050847458,4,2,0,60,1,1
229327,338.983050847458,4,2,0,60,1,1
229348,338.983050847458,4,2,0,60,1,1
229369,338.983050847458,4,2,0,60,1,1
229390,338.983050847458,4,2,0,60,1,1
229411,338.983050847458,4,2,0,60,1,1
229432,338.983050847458,4,2,0,60,1,1
229453,338.983050847458,4,2,0,60,1,1
229474,338.983050847458,4,2,0,60,1,1
229498,338.983050847458,4,2,0,60,1,1
229498,-52.6315789473684,4,2,0,60,0,1
229530,338.983050847458,4,2,0,60,1,1
229558,338.983050847458,4,2,0,60,1,1
229586,338.983050847458,4,2,0,60,1,1
229614,338.983050847458,4,2,0,60,1,1
229642,338.983050847458,4,2,0,60,1,1
229670,338.983050847458,4,2,0,60,1,1
229698,338.983050847458,4,2,0,60,1,1
229726,338.983050847458,4,2,0,60,1,1
229754,338.983050847458,4,2,0,60,1,1
229782,338.983050847458,4,2,0,60,1,1
229810,338.983050847458,4,2,0,60,1,1
229837,338.983050847458,4,2,0,60,1,1
229837,-42.7350427350427,4,2,0,60,0,1
229921,338.983050847458,4,2,0,60,1,1
230005,338.983050847458,4,2,0,60,1,1
230176,338.983050847458,4,2,0,60,1,1
230176,-46.0829493087558,4,2,0,60,0,1
230218,338.983050847458,4,2,0,60,1,1
230260,338.983050847458,4,2,0,60,1,1
230515,338.983050847458,4,2,0,60,1,1
230515,-53.763440860215,4,2,0,60,0,1
230684,338.983050847458,4,2,0,60,1,1
230854,338.983050847458,4,2,0,60,1,1
230854,-69.4444444444444,4,2,0,60,0,1
231193,338.983050847458,4,2,0,60,1,1
231193,-63.2911392405063,4,2,0,60,0,1
231235,338.983050847458,4,2,0,60,1,1
231277,338.983050847458,4,2,0,60,1,1
231446,338.983050847458,4,2,0,60,1,1
231467,338.983050847458,4,2,0,60,1,1
231488,338.983050847458,4,2,0,60,1,1
231509,338.983050847458,4,2,0,60,1,1
231532,338.983050847458,4,2,0,60,1,1
231532,-57.1428571428571,4,2,0,60,0,1
231551,338.983050847458,4,2,0,60,1,1
231572,338.983050847458,4,2,0,60,1,1
231593,338.983050847458,4,2,0,60,1,1
231614,338.983050847458,4,2,0,60,1,1
231635,338.983050847458,4,2,0,60,1,1
231656,338.983050847458,4,2,0,60,1,1
231677,338.983050847458,4,2,0,60,1,1
231698,338.983050847458,4,2,0,60,1,1
231871,338.983050847458,4,2,0,60,1,1
231871,-74.6268656716418,4,2,0,60,0,1
231872,-69.4444444444444,4,2,0,60,0,1
231873,-64.9350649350649,4,2,0,60,0,1
231874,-60.9756097560976,4,2,0,60,0,1
231875,-57.4712643678161,4,2,0,60,0,1
231876,-74.6268656716418,4,2,0,60,0,1
232210,338.983050847458,4,2,0,60,1,1
232210,-100,4,2,0,60,0,1
232548,338.983050847458,4,2,0,60,1,1
232548,-49.0196078431373,4,2,0,60,0,1
232632,338.983050847458,4,2,0,60,1,1
232716,338.983050847458,4,2,0,60,1,1
232800,338.983050847458,4,2,0,60,1,1
232887,338.983050847458,4,2,0,60,1,1
232887,-60.9756097560976,4,2,0,60,0,1
232927,338.983050847458,4,2,0,60,1,1
232969,338.983050847458,4,2,0,60,1,1
233226,338.983050847458,4,2,0,60,1,1
233226,-58.1395348837209,4,2,0,60,0,1
233565,338.983050847458,4,2,0,60,1,1
233565,-47.39336492891,4,2,0,60,0,1
233904,338.983050847458,4,2,0,60,1,1
233904,-46.9483568075117,4,2,0,60,0,1
233946,338.983050847458,4,2,0,60,1,1
233988,338.983050847458,4,2,0,60,1,1
234030,338.983050847458,4,2,0,60,1,1
234072,338.983050847458,4,2,0,60,1,1
234243,338.983050847458,4,2,0,60,1,1
234243,-58.1395348837209,4,2,0,60,0,1
234271,338.983050847458,4,2,0,60,1,1
234299,338.983050847458,4,2,0,60,1,1
234412,338.983050847458,4,2,0,60,1,1
234582,338.983050847458,4,2,0,60,1,1
234582,-60.6060606060606,4,2,0,60,0,1
234583,-57.1428571428571,4,2,0,60,0,1
234584,-54.054054054054,4,2,0,60,0,1
234585,-51.2820512820513,4,2,0,60,0,1
234586,-48.780487804878,4,2,0,60,0,1
234587,-60.6060606060606,4,2,0,60,0,1
234666,338.983050847458,4,2,0,60,1,1
234750,338.983050847458,4,2,0,60,1,1
234921,338.983050847458,4,2,0,60,1,1
234921,-51.5463917525773,4,2,0,60,0,1
235090,338.983050847458,4,2,0,60,1,1
235260,338.983050847458,4,2,0,60,1,1
235260,-46.9483568075117,4,2,0,60,0,1
235599,338.983050847458,4,2,0,60,1,1
235599,-40,4,2,0,60,0,1
235938,338.983050847458,4,2,0,60,1,1
235938,-66.6666666666667,4,2,0,60,0,1
236192,338.983050847458,4,2,0,60,1,1
236277,338.983050847458,4,2,0,60,1,1
236277,-76.9230769230769,4,2,0,60,0,1
236361,338.983050847458,4,2,0,60,1,1
236616,338.983050847458,4,2,0,60,1,1
236616,-41.1522633744856,4,2,0,60,0,1
236870,338.983050847458,4,2,0,60,1,1
236912,338.983050847458,4,2,0,60,1,1
236955,338.983050847458,4,2,0,60,1,1
236955,-60.9756097560976,4,2,0,60,0,1
236996,338.983050847458,4,2,0,60,1,1
237038,338.983050847458,4,2,0,60,1,1
237080,338.983050847458,4,2,0,60,1,1
237122,338.983050847458,4,2,0,60,1,1
237294,338.983050847458,4,2,0,60,1,1
237294,-56.4971751412429,4,2,0,60,0,1
237295,-53.475935828877,4,2,0,60,0,1
237296,-50.761421319797,4,2,0,60,0,1
237297,-48.3091787439614,4,2,0,60,0,1
237298,-46.0829493087558,4,2,0,60,0,1
237299,-56.4971751412429,4,2,0,60,0,1
237633,338.983050847458,4,2,0,60,1,1
237633,-42.9184549356223,4,2,0,60,0,1
237972,338.983050847458,4,2,0,60,1,1
237972,-60.9756097560976,4,2,0,60,0,1
238056,338.983050847458,4,2,0,60,1,1
238140,338.983050847458,4,2,0,60,1,1
238224,338.983050847458,4,2,0,60,1,1
238311,338.983050847458,4,2,0,60,1,1
238311,-46.9483568075117,4,2,0,60,0,1
238650,338.983050847458,4,2,0,60,1,1
238650,-51.0204081632653,4,2,0,60,0,1
238989,338.983050847458,4,2,0,60,1,1
238989,-69.4444444444444,4,2,0,60,0,1
239328,338.983050847458,4,2,0,60,1,1
239328,-100,4,2,0,60,0,1
239667,338.983050847458,4,2,0,60,1,1
239667,-40,4,2,0,60,0,1
240006,338.983050847458,4,2,0,50,1,0
240006,-100,4,2,0,60,0,0
261700,-25,4,2,0,60,0,0
262039,-25,4,2,0,55,0,0
262378,-25,4,2,0,50,0,0
262717,-25,4,2,0,45,0,0
263056,-25,4,2,0,40,0,0
263395,-25,4,2,0,35,0,0
263734,-25,4,2,0,30,0,0
264073,-25,4,2,0,25,0,0
264412,-25,4,2,0,20,0,0
264751,-25,4,2,0,15,0,0
265090,-25,4,2,0,10,0,0
265429,-25,4,2,0,5,0,0
265768,-25,4,2,0,0,0,0

[HitObjects]
256,192,1364,5,8,0:0:0:0:
256,192,1872,1,0,0:0:0:0:
256,192,2380,1,0,0:0:0:0:
256,192,2889,1,0,0:0:0:0:
256,192,3397,1,8,0:0:0:0:
256,192,3906,1,8,0:0:0:0:
256,192,4075,12,0,5431,0:0:0:0:
256,192,5431,5,4,0:0:0:0:
256,192,6787,5,0,0:0:0:0:
256,192,7295,1,8,0:0:0:0:
256,192,7803,1,8,0:0:0:0:
256,192,8312,1,8,0:0:0:0:
256,192,8820,1,0,0:0:0:0:
256,192,9329,1,0,0:0:0:0:
256,192,9499,12,0,10855,0:0:0:0:
256,192,10855,5,6,0:0:0:0:
256,192,12210,5,4,0:0:0:0:
256,192,12379,1,0,0:0:0:0:
256,192,12548,1,0,0:0:0:0:
256,192,12718,1,0,0:0:0:0:
256,192,12887,1,2,0:0:0:0:
256,192,13057,1,2,0:0:0:0:
256,192,13226,1,2,0:0:0:0:
256,192,13396,1,2,0:0:0:0:
256,192,13565,1,0,0:0:0:0:
256,192,13735,1,0,0:0:0:0:
256,192,13904,1,2,0:0:0:0:
256,192,14074,1,2,0:0:0:0:
256,192,14243,1,2,0:0:0:0:
256,192,14413,1,2,0:0:0:0:
256,192,14582,1,0,0:0:0:0:
256,192,14752,1,0,0:0:0:0:
256,192,14921,5,0,0:0:0:0:
256,192,14921,12,4,16277,0:0:0:0:
256,192,16277,5,4,0:0:0:0:
256,192,17633,1,0,0:0:0:0:
256,192,17803,2,0,L|256:88,1,100
120,192,18142,1,4,0:0:0:0:
120,248,18142,1,0,0:0:0:0:
256,192,18650,1,6,0:0:0:0:
256,192,19159,1,0,0:0:0:0:
120,248,19328,1,12,0:0:0:0:
120,192,19328,1,0,0:0:0:0:
384,248,19497,1,8,0:0:0:0:
384,192,19497,1,12,0:0:0:0:
256,192,19667,1,6,0:0:0:0:
256,192,19921,1,6,0:0:0:0:
256,192,20176,1,6,0:0:0:0:
256,192,20345,1,0,0:0:0:0:
256,192,20515,2,0,L|256:88,1,100
120,248,20854,1,4,0:0:0:0:
120,192,20854,1,2,0:0:0:0:
120,192,21362,1,4,0:0:0:0:
120,248,21362,1,0,0:0:0:0:
248,148,21701,6,0,L|408:148,1,150.000005722046
398,148,22040,2,0,L|398:352,1,200
398,348,22379,2,0,L|142:348,1,250
148,348,22718,2,4,L|146:48,1,300.000011444092
256,192,23057,1,4,0:0:0:0:
256,192,23226,1,2,0:0:0:0:
256,192,23269,1,2,0:0:0:0:
256,192,23311,1,2,0:0:0:0:
256,192,23354,1,2,0:0:0:0:
256,192,23396,1,2,0:0:0:0:
256,192,23565,1,4,0:0:0:0:
256,192,23608,1,0,0:0:0:0:
256,192,23650,1,0,0:0:0:0:
256,192,23693,1,0,0:0:0:0:
256,192,23735,1,0,0:0:0:0:
256,192,23777,1,0,0:0:0:0:
256,192,23820,1,0,0:0:0:0:
256,192,23862,1,0,0:0:0:0:
256,192,23904,1,0,0:0:0:0:
256,192,23947,1,0,0:0:0:0:
256,192,23989,1,0,0:0:0:0:
256,192,24074,1,6,0:0:0:0:
256,192,24074,2,0,B|464:352|464:352|464:84,1,525.00000500679
256,192,24582,1,2,0:0:0:0:
256,192,24625,1,2,0:0:0:0:
256,192,24667,1,2,0:0:0:0:
256,192,24710,1,2,0:0:0:0:
256,192,24752,1,0,0:0:0:0:
256,192,24794,1,0,0:0:0:0:
256,192,24837,1,0,0:0:0:0:
256,192,24879,1,0,0:0:0:0:
256,192,24921,1,6,0:0:0:0:
120,192,25091,1,6,0:0:0:0:
120,248,25091,1,0,0:0:0:0:
236,275,25091,2,4,P|300:275|256:191,1,200
412,248,25260,1,4,0:0:0:0:
412,192,25260,1,2,0:0:0:0:
276,109,25260,2,4,P|212:108|256:193,1,200
252,56,25430,1,6,0:0:0:0:
252,112,25430,1,0,0:0:0:0:
56,192,25430,2,0,L|456:192,1,400
256,192,25769,5,0,0:0:0:0:
256,192,25811,1,0,0:0:0:0:
256,192,25854,1,8,0:0:0:0:
256,192,25896,1,8,0:0:0:0:
256,192,25938,1,0,0:0:0:0:
256,192,25981,1,0,0:0:0:0:
256,192,26023,1,8,0:0:0:0:
256,192,26065,1,8,0:0:0:0:
256,192,26108,1,4,0:0:0:0:
252,112,26277,1,4,0:0:0:0:
252,56,26277,1,0,0:0:0:0:
120,216,26447,2,4,L|296:252|296:252,1,175.00000166893
256,192,26447,1,0,0:0:0:0:
291,251,26616,2,0,L|184:228,1,87.500000834465
205,232,26701,2,0,L|116:216,1,87.500000834465
256,192,27125,2,4,P|180:176|304:148,1,400
309,124,27464,2,0,L|312:180,1,50
311,174,27506,2,0,L|309:124,1,50
309,124,27548,2,0,L|312:180,1,50
311,174,27590,2,0,L|309:124,1,50
309,124,27633,2,0,L|312:180,1,50
311,174,27675,2,0,L|309:124,1,50
309,124,27803,2,0,L|311:174,1,50
311,174,27845,2,0,L|309:124,1,50
309,124,27888,2,0,L|311:174,1,50
311,174,27930,2,0,L|309:124,1,50
309,124,27972,2,0,L|311:174,1,50
311,174,28014,2,0,L|309:124,1,50
309,124,28057,2,0,L|311:174,1,50
311,174,28099,2,0,L|309:124,1,50
309,124,28142,2,4,P|171:68|172:172,1,300
256,192,28481,5,6,0:0:0:0:
256,192,28650,1,0,0:0:0:0:
256,192,28693,1,0,0:0:0:0:
256,192,28735,1,0,0:0:0:0:
256,192,28778,1,0,0:0:0:0:
256,192,28820,1,0,0:0:0:0:
256,192,28989,1,6,0:0:0:0:
256,192,29032,1,2,0:0:0:0:
256,192,29074,1,2,0:0:0:0:
256,192,29117,1,2,0:0:0:0:
256,192,29159,1,2,0:0:0:0:
256,192,29201,1,2,0:0:0:0:
256,192,29244,1,2,0:0:0:0:
256,192,29286,1,2,0:0:0:0:
256,192,29328,1,2,0:0:0:0:
256,192,29371,1,2,0:0:0:0:
256,192,29413,1,2,0:0:0:0:
256,192,29498,1,4,0:0:0:0:
256,192,29498,2,4,L|432:192,1,175.00000166893
256,192,29837,2,4,P|336:176|240:296,1,400
256,192,29837,1,6,0:0:0:0:
256,248,29837,1,0,0:0:0:0:
256,248,30176,1,2,0:0:0:0:
256,192,30176,2,4,P|176:208|272:88,1,400
256,192,30515,1,0,0:0:0:0:
256,192,30684,1,4,0:0:0:0:
256,56,30854,1,4,0:0:0:0:
256,112,30854,1,0,0:0:0:0:
256,192,31193,1,4,0:0:0:0:
256,192,31277,1,0,0:0:0:0:
256,192,31320,1,2,0:0:0:0:
256,192,31362,1,0,0:0:0:0:
256,192,31447,1,4,0:0:0:0:
256,192,31532,1,6,0:0:0:0:
256,192,31616,1,0,0:0:0:0:
256,192,31701,1,4,0:0:0:0:
256,192,31743,1,0,0:0:0:0:
256,192,31786,1,0,0:0:0:0:
256,192,31828,1,0,0:0:0:0:
256,192,31871,1,0,0:0:0:0:
256,56,32210,1,6,0:0:0:0:
256,112,32210,1,0,0:0:0:0:
256,192,32548,6,0,L|360:192,2,100
256,192,32548,1,4,0:0:0:0:
256,192,32718,2,0,P|168:176|296:36,1,400
256,192,33057,2,0,P|168:164|144:328,1,300
256,192,33311,2,0,L|332:120,1,100
328,123,33396,2,0,B|256:192|256:192|208:148|160:168,1,200
256,192,33565,1,6,0:0:0:0:
164,166,33650,2,0,B|208:148|256:192|256:192,1,100
252,64,33735,1,4,0:0:0:0:
256,192,33904,1,0,0:0:0:0:
256,192,34074,1,8,0:0:0:0:
256,192,34243,1,6,0:0:0:0:
256,192,34413,1,0,0:0:0:0:
256,192,34582,1,8,0:0:0:0:
256,192,34667,1,6,0:0:0:0:
256,192,34837,1,0,0:0:0:0:
256,192,34921,1,4,0:0:0:0:
256,192,35048,1,0,0:0:0:0:
256,192,35176,1,0,0:0:0:0:
256,192,35260,1,0,0:0:0:0:
256,192,35345,1,8,0:0:0:0:
256,192,35430,2,0,L|256:0,1,175.00000166893
256,192,35599,1,4,0:0:0:0:
256,192,35769,1,4,0:0:0:0:
256,192,35811,1,8,0:0:0:0:
256,192,35854,1,0,0:0:0:0:
256,192,35938,1,0,0:0:0:0:
256,192,35981,1,0,0:0:0:0:
256,192,36023,1,0,0:0:0:0:
256,192,36108,1,8,0:0:0:0:
256,192,36150,1,8,0:0:0:0:
256,192,36193,1,8,0:0:0:0:
256,192,36277,1,4,0:0:0:0:
256,192,36447,1,0,0:0:0:0:
256,192,36489,1,2,0:0:0:0:
256,192,36532,1,0,0:0:0:0:
256,192,36616,1,12,0:0:0:0:
256,192,36786,2,0,L|256:384,1,175.00000166893
256,192,36955,1,12,0:0:0:0:
256,192,37125,1,12,0:0:0:0:
256,192,37167,1,0,0:0:0:0:
256,192,37210,1,8,0:0:0:0:
256,192,37252,1,8,0:0:0:0:
256,192,37294,1,8,0:0:0:0:
256,192,37337,1,8,0:0:0:0:
256,192,37379,1,8,0:0:0:0:
256,192,37464,1,8,0:0:0:0:
256,192,37548,1,8,0:0:0:0:
256,192,37633,1,4,0:0:0:0:
256,192,37803,2,0,B|312:232|312:232|328:172|328:172|260:192,1,1
256,192,37887,2,0,B|312:232|312:232|328:172|328:172|260:192,1,1
256,192,37972,1,12,0:0:0:0:
256,192,38057,1,0,0:0:0:0:
256,192,38099,1,0,0:0:0:0:
256,192,38142,1,0,0:0:0:0:
256,192,38184,1,0,0:0:0:0:
256,192,38226,1,0,0:0:0:0:
256,192,38311,1,4,0:0:0:0:
256,192,38396,1,0,0:0:0:0:
256,192,38481,1,8,0:0:0:0:
256,192,38565,1,8,0:0:0:0:
256,192,38650,1,12,0:0:0:0:
256,192,38820,1,0,0:0:0:0:
256,192,38904,1,8,0:0:0:0:
256,192,38989,1,0,0:0:0:0:
256,192,39074,1,8,0:0:0:0:
256,192,39159,1,0,0:0:0:0:
256,192,39243,1,2,0:0:0:0:
256,192,39328,1,0,0:0:0:0:
256,192,39413,1,0,0:0:0:0:
256,192,39455,1,0,0:0:0:0:
256,192,39498,1,0,0:0:0:0:
256,192,39540,1,0,0:0:0:0:
256,192,39582,1,8,0:0:0:0:
256,192,39667,1,4,0:0:0:0:
256,192,39837,1,4,0:0:0:0:
256,192,40006,1,8,0:0:0:0:
256,192,40091,1,8,0:0:0:0:
256,192,40176,1,0,0:0:0:0:
256,192,40260,1,0,0:0:0:0:
256,192,40345,1,12,0:0:0:0:
256,192,40515,1,8,0:0:0:0:
256,192,40599,1,4,0:0:0:0:
256,192,40684,1,0,0:0:0:0:
256,192,40684,2,0,P|320:140|400:156,1,150.000005722046
256,192,40854,1,10,0:0:0:0:
256,192,41023,1,12,0:0:0:0:
256,192,41023,2,0,P|228:232|116:224,1,150.000005722046
256,192,41193,1,12,0:0:0:0:
256,192,41277,1,8,0:0:0:0:
256,192,41362,1,4,0:0:0:0:
256,192,41532,1,4,0:0:0:0:
256,192,41616,1,8,0:0:0:0:
256,192,41701,1,8,0:0:0:0:
256,192,41871,1,4,0:0:0:0:
256,192,42040,1,4,0:0:0:0:
256,192,42125,1,8,0:0:0:0:
256,192,42210,1,8,0:0:0:0:
256,192,42252,1,8,0:0:0:0:
256,192,42294,1,8,0:0:0:0:
256,192,42337,1,8,0:0:0:0:
256,192,42379,1,4,0:0:0:0:
256,192,42548,1,8,0:0:0:0:
256,192,42633,1,0,0:0:0:0:
256,192,42718,1,8,0:0:0:0:
256,192,42887,1,8,0:0:0:0:
256,192,42972,1,8,0:0:0:0:
256,192,43057,1,4,0:0:0:0:
256,192,43396,1,4,0:0:0:0:
256,192,43480,1,8,0:0:0:0:
256,192,43565,1,4,0:0:0:0:
256,192,43650,1,8,0:0:0:0:
256,192,43735,1,0,0:0:0:0:
256,192,43820,1,8,0:0:0:0:
256,192,43904,1,4,0:0:0:0:
256,192,43989,1,8,0:0:0:0:
256,192,44159,1,4,0:0:0:0:
256,192,44243,1,0,0:0:0:0:
256,192,44286,1,0,0:0:0:0:
256,192,44328,1,0,0:0:0:0:
256,192,44413,1,8,0:0:0:0:
256,192,44498,1,0,0:0:0:0:
256,192,44582,1,8,0:0:0:0:
256,192,44667,1,8,0:0:0:0:
256,192,44752,5,4,0:0:0:0:
256,248,44752,1,0,0:0:0:0:
256,192,45091,1,4,0:0:0:0:
256,248,45091,1,0,0:0:0:0:
256,192,45260,1,4,0:0:0:0:
256,248,45260,1,0,0:0:0:0:
256,192,45769,1,12,0:0:0:0:
256,248,45769,1,0,0:0:0:0:
256,248,46108,1,4,0:0:0:0:
256,192,46108,1,8,0:0:0:0:
256,248,46362,1,12,0:0:0:0:
256,192,46362,1,8,0:0:0:0:
256,192,46447,1,12,0:0:0:0:
256,248,46447,1,8,0:0:0:0:
256,248,46616,1,4,0:0:0:0:
256,192,46616,1,0,0:0:0:0:
256,192,46955,1,12,0:0:0:0:
256,248,46955,1,8,0:0:0:0:
256,248,47125,1,4,0:0:0:0:
256,192,47125,1,8,0:0:0:0:
256,192,47464,1,12,0:0:0:0:
256,248,47464,1,0,0:0:0:0:
256,248,47803,1,4,0:0:0:0:
256,192,47803,1,2,0:0:0:0:
256,192,47972,1,4,0:0:0:0:
256,248,47972,1,0,0:0:0:0:
256,248,48481,1,12,0:0:0:0:
256,192,48481,1,8,0:0:0:0:
256,192,48820,1,4,0:0:0:0:
256,248,48820,1,2,0:0:0:0:
256,248,49074,1,4,0:0:0:0:
256,192,49074,1,0,0:0:0:0:
256,192,49159,1,2,0:0:0:0:
256,248,49159,1,6,0:0:0:0:
256,248,49328,1,4,0:0:0:0:
256,192,49328,1,2,0:0:0:0:
256,192,49667,1,4,0:0:0:0:
256,248,49667,1,2,0:0:0:0:
256,248,49837,1,6,0:0:0:0:
256,192,49837,1,0,0:0:0:0:
256,192,50176,1,4,0:0:0:0:
256,248,50176,1,0,0:0:0:0:
256,248,50515,1,6,0:0:0:0:
256,192,50515,1,2,0:0:0:0:
256,192,50684,1,4,0:0:0:0:
256,248,50684,1,2,0:0:0:0:
256,248,50854,1,6,0:0:0:0:
256,192,50854,1,2,0:0:0:0:
256,192,51193,1,4,0:0:0:0:
256,248,51193,1,0,0:0:0:0:
256,248,51532,1,6,0:0:0:0:
256,192,51532,1,0,0:0:0:0:
256,248,51786,1,4,0:0:0:0:
256,192,51786,1,2,0:0:0:0:
256,248,51871,1,6,0:0:0:0:
256,192,51871,1,0,0:0:0:0:
256,192,52040,1,4,0:0:0:0:
256,248,52040,1,0,0:0:0:0:
256,248,52379,1,4,0:0:0:0:
256,192,52379,1,0,0:0:0:0:
256,192,52548,1,6,0:0:0:0:
256,248,52548,1,2,0:0:0:0:
256,248,52887,1,6,0:0:0:0:
256,192,52887,1,0,0:0:0:0:
256,192,53226,1,6,0:0:0:0:
256,248,53226,1,2,0:0:0:0:
256,248,53396,1,4,0:0:0:0:
256,192,53396,1,0,0:0:0:0:
256,192,53904,1,6,0:0:0:0:
256,248,53904,1,0,0:0:0:0:
256,248,54243,1,4,0:0:0:0:
256,192,54243,1,0,0:0:0:0:
256,192,54498,1,4,0:0:0:0:
256,248,54498,1,0,0:0:0:0:
256,248,54582,1,6,0:0:0:0:
256,192,54582,1,2,0:0:0:0:
256,192,54752,1,4,0:0:0:0:
256,248,54752,1,2,0:0:0:0:
256,248,55091,1,4,0:0:0:0:
256,192,55091,1,2,0:0:0:0:
256,192,55260,1,6,0:0:0:0:
256,248,55260,1,2,0:0:0:0:
256,192,55599,1,4,0:0:0:0:
256,192,55938,1,4,0:0:0:0:
256,192,56107,1,4,0:0:0:0:
256,192,56616,1,12,0:0:0:0:
256,192,56955,1,12,0:0:0:0:
256,192,57209,1,12,0:0:0:0:
256,192,57294,1,12,0:0:0:0:
256,192,57463,1,4,0:0:0:0:
256,192,57802,1,12,0:0:0:0:
256,192,57972,1,12,0:0:0:0:
256,192,58311,1,12,0:0:0:0:
256,192,58650,1,6,0:0:0:0:
256,192,58819,1,4,0:0:0:0:
256,192,59328,1,12,0:0:0:0:
256,192,59667,1,4,0:0:0:0:
256,192,59921,1,4,0:0:0:0:
256,192,60006,1,6,0:0:0:0:
256,192,60175,1,6,0:0:0:0:
256,192,60514,1,4,0:0:0:0:
256,192,60684,1,4,0:0:0:0:
256,192,61023,1,4,0:0:0:0:
256,192,61362,1,6,0:0:0:0:
256,192,61531,1,4,0:0:0:0:
256,192,61701,1,6,0:0:0:0:
256,192,62040,1,4,0:0:0:0:
256,192,62379,1,4,0:0:0:0:
256,192,62633,1,6,0:0:0:0:
256,192,62718,1,4,0:0:0:0:
256,192,62887,1,4,0:0:0:0:
256,192,63226,1,4,0:0:0:0:
256,192,63395,1,6,0:0:0:0:
256,192,63734,1,4,0:0:0:0:
256,192,64073,1,6,0:0:0:0:
256,192,64243,1,4,0:0:0:0:
256,192,64751,1,6,0:0:0:0:
256,192,65091,1,0,0:0:0:0:
256,192,65133,1,0,0:0:0:0:
256,192,65176,1,0,0:0:0:0:
256,192,65218,1,0,0:0:0:0:
256,192,65260,1,0,0:0:0:0:
256,192,65303,1,0,0:0:0:0:
256,192,65345,1,0,0:0:0:0:
256,192,65387,1,0,0:0:0:0:
256,192,65430,2,0,B|312:232|312:232|328:172|328:172|260:192,1,1
256,192,65472,2,0,B|312:232|312:232|328:172|328:172|260:192,1,1
256,192,65515,2,0,B|312:232|312:232|328:172|328:172|260:192,1,1
256,192,65557,2,0,B|312:232|312:232|328:172|328:172|260:192,1,1
256,192,65599,1,2,0:0:0:0:
256,192,65642,1,2,0:0:0:0:
256,192,65684,1,2,0:0:0:0:
256,192,65726,1,2,0:0:0:0:
256,192,65769,1,2,0:0:0:0:
256,192,65811,1,2,0:0:0:0:
256,192,65854,1,2,0:0:0:0:
256,192,65896,1,2,0:0:0:0:
256,192,65938,1,2,0:0:0:0:
256,192,65981,1,2,0:0:0:0:
256,192,66023,1,2,0:0:0:0:
256,192,66065,1,2,0:0:0:0:
256,192,66108,1,2,0:0:0:0:
236,216,66447,5,4,0:0:0:0:
226,181,66448,1,4,0:0:0:0:
257,160,66449,1,4,0:0:0:0:
286,183,66450,1,4,0:0:0:0:
273,218,66451,1,4,0:0:0:0:
256,192,66616,1,0,0:0:0:0:
256,192,66786,1,0,0:0:0:0:
256,192,66955,1,8,0:0:0:0:
256,192,67040,1,8,0:0:0:0:
256,192,67125,1,6,0:0:0:0:
256,192,67210,1,0,0:0:0:0:
256,192,67294,1,0,0:0:0:0:
256,192,67337,1,0,0:0:0:0:
256,192,67379,1,0,0:0:0:0:
256,192,67464,1,8,0:0:0:0:
256,192,67506,1,8,0:0:0:0:
256,192,67548,1,8,0:0:0:0:
256,192,67633,2,0,B|312:232|312:232|328:172|328:172|260:192,1,1
256,192,67676,2,0,B|312:232|312:232|328:172|328:172|260:192,1,1
256,192,67718,2,0,B|312:232|312:232|328:172|328:172|260:192,1,1
256,192,67803,1,4,0:0:0:0:
256,192,67972,1,8,0:0:0:0:
256,192,68057,1,4,0:0:0:0:
256,192,68099,1,0,0:0:0:0:
256,192,68142,1,0,0:0:0:0:
256,192,68184,1,0,0:0:0:0:
256,192,68226,2,0,B|312:232|312:232|328:172|328:172|260:192,1,1
256,192,68311,1,2,0:0:0:0:
256,192,68354,1,8,0:0:0:0:
256,192,68396,1,0,0:0:0:0:
256,192,68481,1,12,0:0:0:0:
256,192,68523,1,8,0:0:0:0:
256,192,68565,1,0,0:0:0:0:
256,192,68608,1,8,0:0:0:0:
256,192,68650,1,4,0:0:0:0:
256,192,68735,1,8,0:0:0:0:
256,192,68777,1,8,0:0:0:0:
256,192,68820,1,0,0:0:0:0:
256,192,68862,1,0,0:0:0:0:
256,192,68904,1,8,0:0:0:0:
256,192,68947,1,8,0:0:0:0:
256,192,68989,2,0,B|312:232|312:232|328:172|328:172|260:192,1,1
256,192,69032,2,0,B|312:232|312:232|328:172|328:172|260:192,1,1
256,192,69074,2,0,B|312:232|312:232|328:172|328:172|260:192,1,1
236,216,69159,1,12,0:0:0:0:
226,181,69160,1,12,0:0:0:0:
257,160,69161,1,12,0:0:0:0:
286,183,69162,1,12,0:0:0:0:
273,218,69163,1,12,0:0:0:0:
256,192,69243,1,0,0:0:0:0:
256,192,69286,1,0,0:0:0:0:
256,192,69328,1,8,0:0:0:0:
256,192,69371,1,0,0:0:0:0:
256,192,69413,1,8,0:0:0:0:
256,192,69455,1,8,0:0:0:0:
256,192,69498,1,0,0:0:0:0:
256,192,69540,1,0,0:0:0:0:
256,192,69582,1,0,0:0:0:0:
256,192,69625,1,2,0:0:0:0:
256,192,69667,1,2,0:0:0:0:
256,192,69710,1,2,0:0:0:0:
256,192,69752,1,0,0:0:0:0:
256,192,69794,1,0,0:0:0:0:
256,192,69837,1,12,0:0:0:0:
256,192,70006,1,0,0:0:0:0:
256,192,70048,1,0,0:0:0:0:
256,192,70091,1,0,0:0:0:0:
256,192,70176,1,0,0:0:0:0:
256,192,70218,1,0,0:0:0:0:
256,192,70260,1,8,0:0:0:0:
256,192,70345,1,0,0:0:0:0:
256,192,70387,1,8,0:0:0:0:
256,192,70430,1,8,0:0:0:0:
256,192,70472,2,0,B|312:232|312:232|328:172|328:172|260:192,1,1
256,192,70515,1,4,0:0:0:0:
256,192,70599,1,8,0:0:0:0:
256,192,70684,1,4,0:0:0:0:
256,192,70768,1,8,0:0:0:0:
256,192,70854,1,4,0:0:0:0:
256,192,70938,1,8,0:0:0:0:
256,192,71023,1,4,0:0:0:0:
256,192,71107,1,8,0:0:0:0:
256,192,71108,1,0,0:0:0:0:
256,192,71193,2,4,B|312:232|312:232|328:172|328:172|260:192,1,1
256,192,71277,1,8,0:0:0:0:
256,192,71361,1,0,0:0:0:0:
256,192,71404,1,0,0:0:0:0:
256,192,71446,1,0,0:0:0:0:
256,192,71489,1,8,0:0:0:0:
256,192,71532,1,8,0:0:0:0:
256,192,71574,1,8,0:0:0:0:
256,192,71616,1,0,0:0:0:0:
256,192,71659,1,0,0:0:0:0:
256,192,71701,1,8,0:0:0:0:
256,192,71743,1,8,0:0:0:0:
256,192,71786,1,0,0:0:0:0:
256,192,71828,1,8,0:0:0:0:
236,216,71871,1,12,0:0:0:0:
226,181,71872,1,4,0:0:0:0:
257,160,71873,1,12,0:0:0:0:
286,183,71874,1,4,0:0:0:0:
273,218,71875,1,12,0:0:0:0:
256,192,72040,1,0,0:0:0:0:
256,192,72210,1,0,0:0:0:0:
256,192,72379,1,8,0:0:0:0:
256,192,72548,1,4,0:0:0:0:
256,192,72590,1,0,0:0:0:0:
256,192,72718,1,12,0:0:0:0:
256,192,72760,1,8,0:0:0:0:
256,192,72887,1,4,0:0:0:0:
256,192,72929,1,8,0:0:0:0:
256,192,73057,1,12,0:0:0:0:
256,192,73099,1,0,0:0:0:0:
256,192,73226,1,12,0:0:0:0:
256,192,73311,1,0,0:0:0:0:
256,192,73354,1,0,0:0:0:0:
256,192,73396,1,0,0:0:0:0:
256,192,73481,1,12,0:0:0:0:
256,192,73565,1,0,0:0:0:0:
256,192,73608,1,0,0:0:0:0:
256,192,73650,1,0,0:0:0:0:
256,192,73735,1,12,0:0:0:0:
256,192,73777,1,8,0:0:0:0:
256,192,73820,1,8,0:0:0:0:
256,192,73904,1,4,0:0:0:0:
256,192,73989,2,0,B|312:232|312:232|328:172|328:172|260:192,1,1
256,192,74032,2,0,B|312:232|312:232|328:172|328:172|260:192,1,1
256,192,74074,2,0,B|312:232|312:232|328:172|328:172|260:192,1,1
256,192,74116,2,0,B|312:232|312:232|328:172|328:172|260:192,1,1
256,192,74159,2,0,B|312:232|312:232|328:172|328:172|260:192,1,1
256,192,74201,2,0,B|312:232|312:232|328:172|328:172|260:192,1,1
256,192,74243,1,8,0:0:0:0:
256,192,74286,1,0,0:0:0:0:
256,192,74328,1,8,0:0:0:0:
256,192,74371,1,0,0:0:0:0:
256,192,74413,1,8,0:0:0:0:
256,192,74455,1,0,0:0:0:0:
256,192,74498,1,8,0:0:0:0:
256,192,74540,1,0,0:0:0:0:
236,216,74582,1,4,0:0:0:0:
226,181,74583,1,12,0:0:0:0:
257,160,74584,1,4,0:0:0:0:
286,183,74585,1,12,0:0:0:0:
273,218,74586,1,4,0:0:0:0:
256,192,74667,1,0,0:0:0:0:
256,192,74710,1,8,0:0:0:0:
256,192,74752,1,8,0:0:0:0:
256,192,74794,1,0,0:0:0:0:
256,192,74837,1,0,0:0:0:0:
256,192,74879,1,0,0:0:0:0:
256,192,74921,1,8,0:0:0:0:
256,192,74964,1,8,0:0:0:0:
256,192,75006,1,8,0:0:0:0:
256,192,75048,1,8,0:0:0:0:
256,192,75091,1,8,0:0:0:0:
256,192,75133,1,0,0:0:0:0:
256,192,75176,1,0,0:0:0:0:
256,192,75218,1,0,0:0:0:0:
256,192,75260,1,4,0:0:0:0:
256,192,75430,1,12,0:0:0:0:
256,192,75599,1,4,0:0:0:0:
256,192,75769,1,12,0:0:0:0:
256,192,75938,1,8,0:0:0:0:
256,192,75981,1,8,0:0:0:0:
256,192,76023,1,8,0:0:0:0:
256,192,76108,1,8,0:0:0:0:
256,192,76150,1,8,0:0:0:0:
256,192,76193,1,8,0:0:0:0:
256,192,76277,1,8,0:0:0:0:
256,192,76320,1,0,0:0:0:0:
256,192,76362,1,0,0:0:0:0:
256,192,76447,1,0,0:0:0:0:
256,192,76489,1,8,0:0:0:0:
256,192,76532,1,0,0:0:0:0:
256,192,76616,1,8,0:0:0:0:
256,192,76701,1,0,0:0:0:0:
256,192,76786,1,0,0:0:0:0:
256,192,76871,1,0,0:0:0:0:
256,192,76955,1,12,0:0:0:0:
256,192,77040,1,0,0:0:0:0:
256,192,77125,1,12,0:0:0:0:
256,192,77210,1,0,0:0:0:0:
236,216,77294,1,4,0:0:0:0:
228,180,77295,2,4,B|284:220|284:220|300:160|300:160|232:180,1,1
257,160,77296,1,4,0:0:0:0:
284,180,77297,2,4,B|340:220|340:220|356:160|356:160|288:180,1,1
273,218,77298,1,4,0:0:0:0:
256,192,77464,1,0,0:0:0:0:
256,192,77464,2,0,L|364:192,1,102.000000622559
256,192,77803,1,8,0:0:0:0:
256,192,77845,1,8,0:0:0:0:
256,192,77887,1,8,0:0:0:0:
256,192,77972,1,12,0:0:0:0:
256,192,78057,1,0,0:0:0:0:
256,192,78142,1,4,0:0:0:0:
256,192,78226,1,8,0:0:0:0:
256,192,78311,1,4,0:0:0:0:
256,192,78396,1,0,0:0:0:0:
256,192,78481,1,12,0:0:0:0:
256,192,78565,1,8,0:0:0:0:
256,192,78650,1,12,0:0:0:0:
256,192,78735,1,12,0:0:0:0:
256,192,78778,1,0,0:0:0:0:
256,192,78820,1,0,0:0:0:0:
256,192,78904,1,12,0:0:0:0:
256,192,78947,1,8,0:0:0:0:
256,192,78989,1,0,0:0:0:0:
256,192,79032,1,0,0:0:0:0:
256,192,79074,1,0,0:0:0:0:
256,192,79159,1,12,0:0:0:0:
256,192,79201,1,0,0:0:0:0:
256,192,79243,1,0,0:0:0:0:
256,192,79328,1,8,0:0:0:0:
256,192,79413,2,0,L|256:96,1,69.9999978637696
256,192,79498,1,4,0:0:0:0:
256,192,79582,1,12,0:0:0:0:
256,192,79667,1,4,0:0:0:0:
256,192,79752,1,12,0:0:0:0:
256,192,79837,1,4,0:0:0:0:
256,192,79837,2,0,L|176:248,1,75.0000028610231
236,216,80006,2,4,B|292:256|292:256|308:196|308:196|240:216,1,1
226,181,80007,1,12,0:0:0:0:
273,218,80008,2,4,B|329:258|329:258|345:198|345:198|277:218,1,1
286,183,80009,1,12,0:0:0:0:
257,160,80010,2,4,B|313:200|313:200|329:140|329:140|261:160,1,1
256,192,80176,2,4,B|312:232|312:232|328:172|328:172|260:192,1,1
256,192,80345,2,4,B|312:232|312:232|328:172|328:172|260:192,1,1
256,192,80515,2,4,B|312:232|312:232|328:172|328:172|260:192,1,1
256,192,80684,1,0,0:0:0:0:
256,192,80727,1,0,0:0:0:0:
256,192,80769,1,0,0:0:0:0:
256,192,80811,1,8,0:0:0:0:
256,192,80854,1,8,0:0:0:0:
256,192,80896,1,8,0:0:0:0:
256,192,80938,2,0,B|312:232|312:232|328:172|328:172|260:192,1,1
256,192,80981,2,0,B|312:232|312:232|328:172|328:172|260:192,1,1
256,192,81023,2,0,B|312:232|312:232|328:172|328:172|260:192,1,1
256,192,81065,1,0,0:0:0:0:
256,192,81108,1,8,0:0:0:0:
256,192,81150,2,0,B|312:232|312:232|328:172|328:172|260:192,1,1
256,192,81193,1,12,0:0:0:0:
256,192,81362,2,0,L|300:348,1,146.999993158722
296,334,81532,2,0,L|256:188,1,146.999993158722
256,192,81701,2,0,P|284:128|324:132,1,113.999998608398
256,192,82125,1,0,0:0:0:0:
256,192,82210,1,0,0:0:0:0:
256,192,82252,1,8,0:0:0:0:
256,192,82337,1,0,0:0:0:0:
256,192,82379,1,0,0:0:0:0:
256,192,82421,1,8,0:0:0:0:
256,192,82506,1,8,0:0:0:0:
256,192,82548,1,0,0:0:0:0:
256,192,82591,1,0,0:0:0:0:
256,192,82633,1,8,0:0:0:0:
236,216,82718,1,4,0:0:0:0:
226,181,82719,1,12,0:0:0:0:
257,160,82720,2,0,B|313:200|313:200|329:140|329:140|261:160,1,1
286,183,82721,1,12,0:0:0:0:
273,218,82722,1,4,0:0:0:0:
256,192,82887,2,4,B|232:192|232:192|292:192|292:192|280:192|280:192|304:192|304:192|272:192,1,148.000003613281
256,192,83396,1,8,0:0:0:0:
256,192,83565,1,8,0:0:0:0:
256,192,83735,1,8,0:0:0:0:
256,192,83904,1,8,0:0:0:0:
256,192,84032,1,0,0:0:0:0:
256,192,84074,1,4,0:0:0:0:
256,192,84243,1,0,0:0:0:0:
256,192,84286,1,0,0:0:0:0:
256,192,84328,1,4,0:0:0:0:
256,192,84497,1,0,0:0:0:0:
256,192,84539,1,8,0:0:0:0:
256,192,84582,1,12,0:0:0:0:
256,192,84752,1,12,0:0:0:0:
256,248,84752,1,0,0:0:0:0:
256,192,84921,1,0,0:0:0:0:
256,192,84921,2,0,B|204:180|204:180|248:136|248:136|164:116|164:116|248:64|248:64|132:72,1,400
256,192,85260,1,8,0:0:0:0:
256,192,85303,1,8,0:0:0:0:
256,192,85345,1,8,0:0:0:0:
256,192,85387,1,8,0:0:0:0:
236,216,85430,2,4,B|292:256|292:256|308:196|308:196|240:216,1,1
286,183,85431,2,4,B|342:223|342:223|358:163|358:163|290:183,1,1
273,218,85432,2,4,B|329:258|329:258|345:198|345:198|277:218,1,1
257,160,85434,2,4,B|313:200|313:200|329:140|329:140|261:160,1,1
226,181,85435,2,4,B|282:221|282:221|298:161|298:161|230:181,1,1
256,192,85599,1,0,0:0:0:0:
256,192,85642,1,0,0:0:0:0:
256,192,85684,1,0,0:0:0:0:
256,192,85726,1,8,0:0:0:0:
256,192,85769,2,0,B|300:184|224:164|292:216|284:152|176:188|244:248|288:124|208:132|300:256|336:152|160:232|300:112|284:300|192:128|356:140|180:288|248:100|344:292|132:204|396:192|208:328|288:64|116:136|444:264|104:280|360:88|288:316|240:28|124:188|424:208|144:300|312:60|80:120|384:288|428:144|120:160|436:216|112:232,1,328.000005004883
256,192,86277,1,12,0:0:0:0:
256,192,86447,1,4,0:0:0:0:
256,192,86616,1,12,0:0:0:0:
256,192,86786,1,0,0:0:0:0:
256,192,86828,1,0,0:0:0:0:
256,192,86870,1,0,0:0:0:0:
256,192,86955,1,0,0:0:0:0:
256,192,86997,1,0,0:0:0:0:
256,192,87040,1,0,0:0:0:0:
256,192,87125,1,0,0:0:0:0:
256,192,87167,1,8,0:0:0:0:
256,192,87209,1,8,0:0:0:0:
256,192,87294,1,8,0:0:0:0:
256,192,87336,1,0,0:0:0:0:
256,192,87379,1,8,0:0:0:0:
256,192,87463,1,0,0:0:0:0:
256,192,87548,1,8,0:0:0:0:
256,192,87633,1,8,0:0:0:0:
256,192,87718,1,8,0:0:0:0:
256,192,87802,1,4,0:0:0:0:
256,192,87887,1,8,0:0:0:0:
256,192,87972,1,4,0:0:0:0:
256,192,88057,1,8,0:0:0:0:
256,192,88142,5,4,0:0:0:0:
256,248,88142,1,2,0:0:0:0:
256,192,88481,1,8,0:0:0:0:
256,192,88650,1,0,0:0:0:0:
256,192,88820,1,0,0:0:0:0:
256,192,88989,1,8,0:0:0:0:
256,192,89159,1,4,0:0:0:0:
256,192,89328,1,8,0:0:0:0:
256,192,89371,1,8,0:0:0:0:
256,192,89413,1,8,0:0:0:0:
256,192,89667,1,0,0:0:0:0:
256,192,89710,1,0,0:0:0:0:
256,192,89752,1,0,0:0:0:0:
256,192,89837,1,4,0:0:0:0:
256,192,90006,1,8,0:0:0:0:
256,192,90176,2,0,B|312:232|312:232|328:172|328:172|260:192,1,1
256,192,90218,2,0,B|312:232|312:232|328:172|328:172|260:192,1,1
256,192,90260,2,0,B|312:232|312:232|328:172|328:172|260:192,1,1
256,192,90345,1,0,0:0:0:0:
256,192,90387,1,0,0:0:0:0:
256,192,90430,1,0,0:0:0:0:
256,192,90515,1,8,0:0:0:0:
256,192,90557,1,8,0:0:0:0:
256,192,90599,1,8,0:0:0:0:
256,192,90642,1,0,0:0:0:0:
256,192,90684,1,0,0:0:0:0:
256,192,90854,1,4,0:0:0:0:
256,192,91108,1,4,0:0:0:0:
256,192,91193,1,12,0:0:0:0:
256,192,91362,1,4,0:0:0:0:
256,192,91701,1,0,0:0:0:0:
256,192,91743,1,0,0:0:0:0:
256,192,91786,1,8,0:0:0:0:
256,192,91871,1,8,0:0:0:0:
256,192,91913,1,8,0:0:0:0:
256,192,91955,2,0,B|312:232|312:232|328:172|328:172|260:192,1,1
256,192,92040,2,0,B|312:232|312:232|328:172|328:172|260:192,1,1
256,192,92082,2,0,B|312:232|312:232|328:172|328:172|260:192,1,1
256,192,92125,1,0,0:0:0:0:
256,192,92210,1,4,0:0:0:0:
256,192,92294,1,0,0:0:0:0:
256,192,92379,1,8,0:0:0:0:
256,192,92464,1,0,0:0:0:0:
256,192,92548,1,8,0:0:0:0:
256,192,92887,1,4,0:0:0:0:
256,192,93057,1,0,0:0:0:0:
279,200,93099,1,0,0:0:0:0:
303,197,93141,1,0,0:0:0:0:
324,184,93184,1,0,0:0:0:0:
337,163,93226,1,0,0:0:0:0:
340,138,93268,1,0,0:0:0:0:
331,115,93311,1,0,0:0:0:0:
313,98,93353,1,0,0:0:0:0:
290,91,93395,1,0,0:0:0:0:
265,95,93438,1,0,0:0:0:0:
245,109,93480,1,0,0:0:0:0:
232,155,93565,1,4,0:0:0:0:
256,192,93565,2,0,B|276:220|276:220|300:204|300:204|264:148|264:148|212:176|212:176|248:236,1,250
256,192,94243,1,0,0:0:0:0:
256,192,94328,1,8,0:0:0:0:
256,192,94413,1,0,0:0:0:0:
256,192,94582,1,4,0:0:0:0:
256,192,94667,1,0,0:0:0:0:
256,192,94710,1,0,0:0:0:0:
256,192,94752,1,8,0:0:0:0:
256,192,94794,1,8,0:0:0:0:
256,192,94837,1,0,0:0:0:0:
256,192,95091,1,0,0:0:0:0:
256,192,95133,1,8,0:0:0:0:
256,192,95176,1,8,0:0:0:0:
256,192,95260,1,4,0:0:0:0:
256,192,95430,1,12,0:0:0:0:
256,192,95599,1,0,0:0:0:0:
256,192,95642,1,8,0:0:0:0:
256,192,95684,1,8,0:0:0:0:
256,192,95726,1,8,0:0:0:0:
256,192,95769,1,8,0:0:0:0:
256,192,95938,1,4,0:0:0:0:
256,192,96108,2,4,B|312:232|312:232|328:172|328:172|260:192,1,1
256,192,96277,1,6,0:0:0:0:
256,192,96532,1,6,0:0:0:0:
256,192,96616,1,4,0:0:0:0:
256,192,96786,1,4,0:0:0:0:
256,192,97125,1,4,0:0:0:0:
256,192,97210,1,12,0:0:0:0:
172,192,97464,1,8,0:0:0:0:
178,161,97506,1,8,0:0:0:0:
197,137,97548,1,8,0:0:0:0:
256,192,97633,1,4,0:0:0:0:
256,192,97803,1,4,0:0:0:0:
256,192,98057,1,4,0:0:0:0:
256,192,98311,1,4,0:0:0:0:
256,192,98650,1,4,0:0:0:0:
256,192,98820,1,4,0:0:0:0:
256,192,98904,1,4,0:0:0:0:
256,192,98989,1,4,0:0:0:0:
256,192,98989,2,0,B|224:224|224:224|232:152|232:152|152:184|152:184|268:192,1,300.000011444092
247,190,99328,1,0,0:0:0:0:
256,192,99667,1,0,0:0:0:0:
256,192,99752,1,8,0:0:0:0:
256,192,99837,1,0,0:0:0:0:
256,192,99921,1,8,0:0:0:0:
256,192,100006,1,0,0:0:0:0:
256,192,100006,2,0,B|340:232|292:320|292:320|436:232,1,300.000011444092
416,244,100345,1,0,0:0:0:0:
256,192,100515,1,8,0:0:0:0:
256,192,100515,2,0,P|216:208|192:188,1,75.0000028610231
193,190,100599,1,8,0:0:0:0:
256,192,100684,1,4,0:0:0:0:
256,192,100854,1,8,0:0:0:0:
256,192,101023,2,0,L|256:108,1,75.0000028610231
256,192,101023,1,0,0:0:0:0:
256,192,101108,1,0,0:0:0:0:
256,192,101193,1,4,0:0:0:0:
256,192,101362,1,4,0:0:0:0:
256,248,101362,1,2,0:0:0:0:
256,192,101701,1,12,0:0:0:0:
256,192,101955,1,12,0:0:0:0:
256,192,102040,1,4,0:0:0:0:
256,192,102210,1,12,0:0:0:0:
256,192,102548,1,0,0:0:0:0:
256,192,102718,1,8,0:0:0:0:
256,192,102887,1,0,0:0:0:0:
256,192,102887,2,0,B|284:164|284:164|304:192,1,75.0000028610231
304,192,102972,1,0,0:0:0:0:
256,192,103057,1,12,0:0:0:0:
256,192,103396,1,4,0:0:0:0:
256,192,103566,1,12,0:0:0:0:
256,192,103820,2,0,L|256:276,1,75.0000028610231
256,267,103904,1,8,0:0:0:0:
219,275,103946,1,8,0:0:0:0:
182,271,103988,1,8,0:0:0:0:
148,255,104031,1,8,0:0:0:0:
121,230,104073,1,8,0:0:0:0:
103,197,104115,1,8,0:0:0:0:
97,160,104158,1,8,0:0:0:0:
103,123,104200,1,8,0:0:0:0:
121,90,104242,1,8,0:0:0:0:
148,65,104285,1,8,0:0:0:0:
182,49,104327,1,8,0:0:0:0:
256,54,104412,1,12,0:0:0:0:
256,192,104413,2,4,P|300:200|264:20,1,350.00000333786
274,17,104752,1,12,0:0:0:0:
256,192,105091,1,8,0:0:0:0:
256,192,105176,1,8,0:0:0:0:
256,192,105260,1,0,0:0:0:0:
256,192,105345,1,0,0:0:0:0:
256,192,105430,1,8,0:0:0:0:
256,192,105599,1,0,0:0:0:0:
256,192,105599,2,0,B|248:168|248:168|268:152|268:152|256:112,1,87.500000834465
256,192,105684,1,8,0:0:0:0:
256,192,105938,1,8,0:0:0:0:
256,192,105938,2,0,B|196:256|196:256|280:168,1,175.00000166893
256,192,106108,1,12,0:0:0:0:
256,192,106447,2,0,L|320:128,1,87.500000834465
256,192,106786,2,4,B|312:232|312:232|328:172|328:172|260:192,1,1
256,192,107125,2,4,B|312:232|312:232|328:172|328:172|260:192,1,1
256,192,107379,1,6,0:0:0:0:
256,192,107464,1,4,0:0:0:0:
256,192,107633,2,4,B|312:232|312:232|328:172|328:172|260:192,1,1
256,192,107972,2,0,L|440:192,1,175.00000166893
431,192,108142,1,0,0:0:0:0:
256,192,108184,1,0,0:0:0:0:
431,192,108226,1,0,0:0:0:0:
256,192,108269,1,0,0:0:0:0:
431,192,108311,1,2,0:0:0:0:
256,192,108354,1,2,0:0:0:0:
431,192,108396,1,2,0:0:0:0:
256,192,108481,1,4,0:0:0:0:
256,192,108650,1,8,0:0:0:0:
256,192,108904,1,8,0:0:0:0:
256,192,109159,1,12,0:0:0:0:
256,192,109243,1,0,0:0:0:0:
256,192,109328,1,0,0:0:0:0:
256,192,109413,1,0,0:0:0:0:
256,192,109498,1,0,0:0:0:0:
256,192,109582,1,0,0:0:0:0:
256,192,109667,1,0,0:0:0:0:
256,192,109752,1,0,0:0:0:0:
256,192,109837,5,4,0:0:0:0:
256,192,120684,5,8,0:0:0:0:
256,192,121023,1,8,0:0:0:0:
256,192,121193,1,8,0:0:0:0:
256,192,121701,1,0,0:0:0:0:
256,192,122040,1,0,0:0:0:0:
256,192,122294,1,0,0:0:0:0:
256,192,122379,1,0,0:0:0:0:
256,192,122548,1,8,0:0:0:0:
256,192,122887,1,0,0:0:0:0:
256,192,123057,1,0,0:0:0:0:
256,192,123396,1,0,0:0:0:0:
256,192,123735,1,0,0:0:0:0:
256,192,123904,1,2,0:0:0:0:
256,192,124413,1,0,0:0:0:0:
256,192,124752,1,8,0:0:0:0:
256,192,125006,1,8,0:0:0:0:
256,192,125091,1,0,0:0:0:0:
256,192,125260,1,0,0:0:0:0:
256,192,125599,1,2,0:0:0:0:
256,192,125769,1,2,0:0:0:0:
256,192,126108,1,2,0:0:0:0:
256,192,126447,1,0,0:0:0:0:
256,192,126616,1,2,0:0:0:0:
256,192,126786,1,0,0:0:0:0:
256,192,127125,1,2,0:0:0:0:
256,192,127464,1,2,0:0:0:0:
256,192,127718,1,0,0:0:0:0:
256,192,127803,1,2,0:0:0:0:
256,192,127972,1,2,0:0:0:0:
256,192,128311,1,2,0:0:0:0:
256,192,128481,1,0,0:0:0:0:
256,192,128820,1,2,0:0:0:0:
256,192,129159,1,0,0:0:0:0:
256,192,129328,1,2,0:0:0:0:
256,192,129837,1,0,0:0:0:0:
256,192,130176,12,0,131532,0:0:0:0:
80,40,131532,6,0,P|60:64|132:152,1,160
118,153,134243,2,0,P|179:195|156:266,1,160
256,192,136955,2,0,L|320:128,1,80
256,192,138311,2,0,L|192:256,1,80
204,128,139667,2,0,L|308:256,1,160
356,84,142379,2,0,P|360:112|448:76,1,160
450,88,145091,2,0,B|448:192|448:192|440:216|408:240,1,160
413,235,147803,2,0,P|376:252|272:196,1,160
256,192,150515,12,0,153226,0:0:0:0:
256,192,153226,5,0,0:0:0:0:
256,192,153269,1,0,0:0:0:0:
256,192,153311,1,0,0:0:0:0:
256,192,153354,1,0,0:0:0:0:
256,192,153396,1,0,0:0:0:0:
256,192,153438,1,0,0:0:0:0:
256,192,153481,1,0,0:0:0:0:
256,192,153523,1,0,0:0:0:0:
256,192,153565,1,0,0:0:0:0:
256,192,153904,1,8,0:0:0:0:
256,192,153947,1,8,0:0:0:0:
256,192,153989,1,8,0:0:0:0:
256,192,154032,1,8,0:0:0:0:
256,192,154074,1,8,0:0:0:0:
256,192,154116,1,8,0:0:0:0:
256,192,154159,1,8,0:0:0:0:
256,192,154201,1,8,0:0:0:0:
256,192,154243,1,8,0:0:0:0:
256,192,154582,1,0,0:0:0:0:
256,192,154625,1,0,0:0:0:0:
256,192,154667,1,0,0:0:0:0:
256,192,154710,1,0,0:0:0:0:
256,192,154752,1,0,0:0:0:0:
256,192,154794,1,0,0:0:0:0:
256,192,154837,1,0,0:0:0:0:
256,192,154879,1,0,0:0:0:0:
256,192,154921,1,0,0:0:0:0:
256,192,155260,1,8,0:0:0:0:
256,192,155303,1,8,0:0:0:0:
256,192,155345,1,8,0:0:0:0:
256,192,155388,1,8,0:0:0:0:
256,192,155430,1,8,0:0:0:0:
256,192,155472,1,8,0:0:0:0:
256,192,155515,1,8,0:0:0:0:
256,192,155557,1,8,0:0:0:0:
256,192,155599,1,8,0:0:0:0:
256,192,155938,1,8,0:0:0:0:
256,192,155980,1,8,0:0:0:0:
256,192,156022,1,8,0:0:0:0:
256,192,156065,1,8,0:0:0:0:
256,192,156107,1,8,0:0:0:0:
256,192,156149,1,8,0:0:0:0:
256,192,156192,1,8,0:0:0:0:
256,192,156234,1,8,0:0:0:0:
256,192,156277,1,8,0:0:0:0:
256,192,156616,1,0,0:0:0:0:
256,192,156658,1,0,0:0:0:0:
256,192,156700,1,0,0:0:0:0:
256,192,156743,1,0,0:0:0:0:
256,192,156785,1,0,0:0:0:0:
256,192,156827,1,0,0:0:0:0:
256,192,156870,1,0,0:0:0:0:
256,192,156912,1,0,0:0:0:0:
256,192,156955,1,0,0:0:0:0:
256,192,157294,1,8,0:0:0:0:
256,192,157336,1,8,0:0:0:0:
256,192,157378,1,8,0:0:0:0:
256,192,157421,1,8,0:0:0:0:
256,192,157463,1,8,0:0:0:0:
256,192,157505,1,8,0:0:0:0:
256,192,157548,1,8,0:0:0:0:
256,192,157590,1,8,0:0:0:0:
256,192,157633,1,8,0:0:0:0:
256,192,157972,1,0,0:0:0:0:
256,192,158014,1,0,0:0:0:0:
256,192,158056,1,0,0:0:0:0:
256,192,158099,1,0,0:0:0:0:
256,192,158141,1,0,0:0:0:0:
256,192,158183,1,0,0:0:0:0:
256,192,158226,1,0,0:0:0:0:
256,192,158268,1,0,0:0:0:0:
256,192,158311,1,0,0:0:0:0:
256,192,158650,1,0,0:0:0:0:
256,192,158693,1,0,0:0:0:0:
256,192,158735,1,0,0:0:0:0:
256,192,158777,1,0,0:0:0:0:
256,192,158820,1,0,0:0:0:0:
256,192,158862,1,8,0:0:0:0:
256,192,158904,1,8,0:0:0:0:
256,192,158947,1,8,0:0:0:0:
256,192,158989,1,8,0:0:0:0:
256,192,159328,1,8,0:0:0:0:
256,192,159371,1,8,0:0:0:0:
256,192,159413,1,0,0:0:0:0:
256,192,159455,1,0,0:0:0:0:
256,192,159498,1,8,0:0:0:0:
256,192,159540,1,8,0:0:0:0:
256,192,159582,1,0,0:0:0:0:
256,192,159625,1,0,0:0:0:0:
256,192,159667,1,8,0:0:0:0:
256,192,160006,1,8,0:0:0:0:
256,192,160048,1,8,0:0:0:0:
256,192,160091,1,8,0:0:0:0:
256,192,160133,1,2,0:0:0:0:
256,192,160176,1,2,0:0:0:0:
256,192,160218,1,0,0:0:0:0:
256,192,160260,1,0,0:0:0:0:
256,192,160302,1,0,0:0:0:0:
256,192,160345,1,0,0:0:0:0:
256,192,160684,1,0,0:0:0:0:
256,192,160727,1,0,0:0:0:0:
256,192,160769,1,8,0:0:0:0:
256,192,160811,1,8,0:0:0:0:
256,192,160854,1,0,0:0:0:0:
256,192,160896,1,0,0:0:0:0:
256,192,160938,1,8,0:0:0:0:
256,192,160981,1,8,0:0:0:0:
256,192,161023,1,0,0:0:0:0:
256,192,161362,1,0,0:0:0:0:
256,192,161404,1,0,0:0:0:0:
256,192,161447,1,0,0:0:0:0:
256,192,161489,1,8,0:0:0:0:
256,192,161532,1,8,0:0:0:0:
256,192,161574,1,8,0:0:0:0:
256,192,161616,1,0,0:0:0:0:
256,192,161659,1,0,0:0:0:0:
256,192,161701,1,0,0:0:0:0:
256,192,162040,2,0,B|312:232|312:232|328:172|328:172|260:192,1,1
256,192,162082,2,0,B|312:232|312:232|328:172|328:172|260:192,1,1
256,192,162125,2,0,B|312:232|312:232|328:172|328:172|260:192,1,1
256,192,162167,2,0,B|312:232|312:232|328:172|328:172|260:192,1,1
256,192,162210,2,0,B|312:232|312:232|328:172|328:172|260:192,1,1
256,192,162252,2,0,B|312:232|312:232|328:172|328:172|260:192,1,1
256,192,162294,2,0,B|312:232|312:232|328:172|328:172|260:192,1,1
256,192,162337,2,0,B|312:232|312:232|328:172|328:172|260:192,1,1
256,192,162379,2,0,B|312:232|312:232|328:172|328:172|260:192,1,1
256,192,162718,1,2,0:0:0:0:
256,192,162760,1,2,0:0:0:0:
256,192,162803,1,2,0:0:0:0:
256,192,162845,1,0,0:0:0:0:
256,192,162888,1,0,0:0:0:0:
256,192,162930,1,0,0:0:0:0:
256,192,162972,1,8,0:0:0:0:
256,192,163015,1,8,0:0:0:0:
256,192,163057,1,8,0:0:0:0:
256,192,163396,2,0,B|312:232|312:232|328:172|328:172|260:192,1,1
256,192,163438,2,0,B|312:232|312:232|328:172|328:172|260:192,1,1
256,192,163481,2,0,B|312:232|312:232|328:172|328:172|260:192,1,1
256,192,163523,2,0,B|312:232|312:232|328:172|328:172|260:192,1,1
256,192,163566,2,0,B|312:232|312:232|328:172|328:172|260:192,1,1
256,192,163608,2,0,B|312:232|312:232|328:172|328:172|260:192,1,1
256,192,163650,2,0,B|312:232|312:232|328:172|328:172|260:192,1,1
256,192,163693,2,0,B|312:232|312:232|328:172|328:172|260:192,1,1
256,192,163735,2,0,B|312:232|312:232|328:172|328:172|260:192,1,1
256,192,164074,1,4,0:0:0:0:
256,192,164413,1,8,0:0:0:0:
256,192,164752,1,4,0:0:0:0:
256,192,165091,1,8,0:0:0:0:
256,192,165430,1,4,0:0:0:0:
256,192,165769,1,8,0:0:0:0:
256,192,166108,1,4,0:0:0:0:
256,192,166447,1,8,0:0:0:0:
256,192,166786,1,12,0:0:0:0:
256,192,167125,1,0,0:0:0:0:
256,192,167464,1,12,0:0:0:0:
256,192,167803,1,0,0:0:0:0:
256,192,168142,1,12,0:0:0:0:
256,192,168481,1,0,0:0:0:0:
256,192,168820,1,12,0:0:0:0:
256,192,169159,1,0,0:0:0:0:
256,192,169498,1,12,0:0:0:0:
256,192,169667,1,0,0:0:0:0:
256,192,169837,1,0,0:0:0:0:
256,192,170006,1,0,0:0:0:0:
256,192,170176,1,12,0:0:0:0:
256,192,170345,1,0,0:0:0:0:
256,192,170515,1,0,0:0:0:0:
256,192,170684,1,0,0:0:0:0:
256,192,170854,1,4,0:0:0:0:
256,192,171023,1,8,0:0:0:0:
256,192,171193,1,8,0:0:0:0:
256,192,171362,1,8,0:0:0:0:
256,192,171532,1,4,0:0:0:0:
256,192,171701,1,8,0:0:0:0:
256,192,171871,1,8,0:0:0:0:
256,192,172040,1,8,0:0:0:0:
256,192,172210,1,0,0:0:0:0:
256,192,172294,1,0,0:0:0:0:
256,192,172379,1,0,0:0:0:0:
256,192,172464,1,0,0:0:0:0:
256,192,172548,1,0,0:0:0:0:
256,192,172633,1,0,0:0:0:0:
256,192,172718,1,0,0:0:0:0:
256,192,172803,1,0,0:0:0:0:
256,192,172887,1,8,0:0:0:0:
256,192,172972,1,8,0:0:0:0:
256,192,173057,1,8,0:0:0:0:
256,192,173142,1,8,0:0:0:0:
256,192,173226,1,8,0:0:0:0:
256,192,173311,1,8,0:0:0:0:
256,192,173396,1,8,0:0:0:0:
256,192,173481,1,8,0:0:0:0:
256,192,173565,2,0,B|332:192|332:192|344:124|296:72|192:56|128:112|140:260|204:324|284:324|380:280|480:180|404:44|264:0|80:76|84:272|284:328|408:280|460:72|248:0|40:48|168:352|496:372|504:8|8:12|4:376|504:384|508:8|8:16|16:368|484:376|496:12|12:24|24:372|496:380|500:20|8:8|256:236|256:236|336:240|364:156|324:72|260:72|260:72|176:92|160:172,1,1200.00004577637
256,192,174921,5,6,0:0:0:0:
256,248,174921,1,0,0:0:0:0:
256,192,175260,1,0,0:0:0:0:
256,192,175429,1,8,0:0:0:0:
256,192,175599,1,8,0:0:0:0:
256,192,175768,1,0,0:0:0:0:
256,192,175938,1,12,0:0:0:0:
256,192,176107,1,0,0:0:0:0:
256,192,176150,1,0,0:0:0:0:
256,192,176192,1,0,0:0:0:0:
256,192,176446,1,8,0:0:0:0:
256,192,176489,1,8,0:0:0:0:
256,192,176531,1,8,0:0:0:0:
256,192,176616,1,12,0:0:0:0:
256,192,176785,1,0,0:0:0:0:
256,192,176955,2,0,B|312:232|312:232|328:172|328:172|260:192,1,1
256,192,176997,2,0,B|312:232|312:232|328:172|328:172|260:192,1,1
256,192,177039,2,0,B|312:232|312:232|328:172|328:172|260:192,1,1
256,192,177124,1,8,0:0:0:0:
256,192,177166,1,8,0:0:0:0:
256,192,177209,1,8,0:0:0:0:
256,192,177294,1,0,0:0:0:0:
256,192,177336,1,0,0:0:0:0:
256,192,177378,1,0,0:0:0:0:
256,192,177421,1,8,0:0:0:0:
256,192,177463,1,8,0:0:0:0:
256,192,177633,1,12,0:0:0:0:
256,192,177887,1,12,0:0:0:0:
256,192,177972,1,4,0:0:0:0:
256,192,178141,1,12,0:0:0:0:
256,192,178480,1,8,0:0:0:0:
256,192,178522,1,8,0:0:0:0:
256,192,178565,1,0,0:0:0:0:
256,192,178650,1,0,0:0:0:0:
256,192,178692,1,0,0:0:0:0:
256,192,178734,2,0,B|312:232|312:232|328:172|328:172|260:192,1,1
256,192,178819,2,0,B|312:232|312:232|328:172|328:172|260:192,1,1
256,192,178861,2,0,B|312:232|312:232|328:172|328:172|260:192,1,1
256,192,178904,1,8,0:0:0:0:
256,192,178989,1,12,0:0:0:0:
256,192,179073,1,8,0:0:0:0:
256,192,179158,1,0,0:0:0:0:
256,192,179243,1,8,0:0:0:0:
256,192,179327,1,0,0:0:0:0:
256,192,179666,1,12,0:0:0:0:
256,192,179836,1,8,0:0:0:0:
279,200,179878,1,8,0:0:0:0:
303,197,179920,1,8,0:0:0:0:
324,184,179963,1,8,0:0:0:0:
337,163,180005,1,8,0:0:0:0:
340,138,180047,1,8,0:0:0:0:
331,115,180090,1,8,0:0:0:0:
313,98,180132,1,8,0:0:0:0:
290,91,180174,1,8,0:0:0:0:
265,95,180217,1,8,0:0:0:0:
245,109,180259,1,8,0:0:0:0:
232,155,180344,1,12,0:0:0:0:
256,192,180344,2,0,B|236:164|236:164|212:180|212:180|248:236|248:236|300:208|300:208|236:108,1,300.000011444092
256,192,181022,1,8,0:0:0:0:
256,192,181107,1,0,0:0:0:0:
256,192,181192,1,8,0:0:0:0:
256,192,181361,1,12,0:0:0:0:
256,192,181446,1,8,0:0:0:0:
256,192,181489,1,8,0:0:0:0:
256,192,181531,1,0,0:0:0:0:
256,192,181573,1,0,0:0:0:0:
256,192,181616,1,8,0:0:0:0:
256,192,181870,1,8,0:0:0:0:
256,192,181912,1,0,0:0:0:0:
256,192,181955,1,0,0:0:0:0:
256,192,182039,1,12,0:0:0:0:
256,192,182209,1,4,0:0:0:0:
256,192,182378,1,8,0:0:0:0:
256,192,182421,1,0,0:0:0:0:
256,192,182463,1,0,0:0:0:0:
256,192,182505,1,0,0:0:0:0:
256,192,182548,1,0,0:0:0:0:
256,192,182717,1,12,0:0:0:0:
256,192,182887,2,4,B|312:232|312:232|328:172|328:172|260:192,1,1
256,192,183056,1,4,0:0:0:0:
256,192,183311,1,4,0:0:0:0:
256,192,183395,1,12,0:0:0:0:
256,192,183565,1,12,0:0:0:0:
256,192,183904,1,12,0:0:0:0:
256,192,183989,1,4,0:0:0:0:
172,192,184243,1,0,0:0:0:0:
178,161,184285,1,0,0:0:0:0:
197,137,184327,1,0,0:0:0:0:
256,192,184412,1,12,0:0:0:0:
256,192,184582,1,12,0:0:0:0:
256,192,184836,1,12,0:0:0:0:
256,192,185090,1,12,0:0:0:0:
256,192,185429,1,12,0:0:0:0:
256,192,185599,1,12,0:0:0:0:
256,192,185683,1,12,0:0:0:0:
256,192,185768,1,12,0:0:0:0:
256,192,185768,2,0,B|288:160|288:160|280:232|280:232|360:200|360:200|208:192,1,350.00000333786
247,190,186107,1,8,0:0:0:0:
256,192,186446,1,8,0:0:0:0:
256,192,186531,1,0,0:0:0:0:
256,192,186616,1,8,0:0:0:0:
256,192,186700,1,0,0:0:0:0:
256,192,186785,1,8,0:0:0:0:
256,192,186785,2,0,B|340:232|292:320|292:320|440:372|456:200,1,400
455,203,187124,1,8,0:0:0:0:
256,192,187294,1,0,0:0:0:0:
256,192,187294,2,0,P|216:208|176:168,1,100
177,173,187378,1,0,0:0:0:0:
256,192,187463,1,12,0:0:0:0:
256,192,187633,1,0,0:0:0:0:
256,192,187802,2,0,L|256:80,1,100
256,192,187802,1,8,0:0:0:0:
256,192,187887,1,8,0:0:0:0:
256,192,187972,1,12,0:0:0:0:
256,248,188141,1,6,0:0:0:0:
256,192,188141,1,0,0:0:0:0:
256,192,188480,1,4,0:0:0:0:
256,192,188734,1,4,0:0:0:0:
256,192,188819,1,12,0:0:0:0:
256,192,188989,1,4,0:0:0:0:
256,192,189327,1,8,0:0:0:0:
256,192,189497,1,0,0:0:0:0:
256,192,189666,1,8,0:0:0:0:
256,192,189666,2,0,B|284:164|284:164|348:192,1,100
339,188,189751,1,8,0:0:0:0:
256,192,189836,1,4,0:0:0:0:
256,192,190175,1,12,0:0:0:0:
256,192,190345,1,4,0:0:0:0:
256,192,190599,2,0,L|256:296,1,100
256,267,190683,1,8,0:0:0:0:
219,275,190725,1,0,0:0:0:0:
182,271,190767,1,0,0:0:0:0:
148,255,190810,1,0,0:0:0:0:
121,230,190852,1,0,0:0:0:0:
103,197,190894,1,0,0:0:0:0:
97,160,190937,1,0,0:0:0:0:
103,123,190979,1,0,0:0:0:0:
121,90,191021,1,0,0:0:0:0:
148,65,191064,1,0,0:0:0:0:
182,49,191106,1,0,0:0:0:0:
256,54,191191,1,4,0:0:0:0:
256,192,191192,2,4,P|300:200|244:16,1,400
249,13,191532,1,4,0:0:0:0:
256,192,191870,1,0,0:0:0:0:
256,192,191955,1,0,0:0:0:0:
256,192,192039,1,8,0:0:0:0:
256,192,192124,1,8,0:0:0:0:
256,192,192209,1,0,0:0:0:0:
256,192,192378,2,0,B|248:168|248:168|272:144|272:144|240:84,1,112.500004291535
256,192,192378,1,8,0:0:0:0:
256,192,192463,1,0,0:0:0:0:
256,192,192717,2,0,B|196:256|196:256|292:152,1,225.000008583069
256,192,192717,1,0,0:0:0:0:
256,192,192887,1,4,0:0:0:0:
256,192,193226,2,0,L|344:104,1,112.500004291535
256,192,193565,2,4,B|312:232|312:232|328:172|328:172|260:192,1,1
256,192,193904,2,4,B|312:232|312:232|328:172|328:172|260:192,1,1
256,192,194158,1,4,0:0:0:0:
256,192,194243,1,12,0:0:0:0:
256,192,194412,2,4,B|312:232|312:232|328:172|328:172|260:192,1,1
256,192,194751,2,0,L|488:192,1,225.000008583069
431,192,194921,1,0,0:0:0:0:
256,192,194963,1,8,0:0:0:0:
431,192,195005,1,8,0:0:0:0:
256,192,195048,1,8,0:0:0:0:
431,192,195090,1,0,0:0:0:0:
256,192,195133,1,0,0:0:0:0:
431,192,195175,1,0,0:0:0:0:
256,192,195260,1,12,0:0:0:0:
256,192,195430,1,0,0:0:0:0:
256,192,195684,1,0,0:0:0:0:
256,192,195938,1,4,0:0:0:0:
256,192,196022,1,8,0:0:0:0:
256,192,196107,1,8,0:0:0:0:
256,192,196192,1,8,0:0:0:0:
256,192,196277,1,8,0:0:0:0:
256,192,196361,1,8,0:0:0:0:
256,192,196446,1,8,0:0:0:0:
256,192,196531,1,8,0:0:0:0:
256,192,196616,5,12,0:0:0:0:
188,192,196786,2,4,B|256:136|256:136|328:192,1,175.00000166893
256,192,197125,1,4,0:0:0:0:
256,192,197633,1,12,0:0:0:0:
256,192,198142,1,0,0:0:0:0:
256,192,198184,1,0,0:0:0:0:
256,192,198226,1,0,0:0:0:0:
256,192,198269,1,0,0:0:0:0:
256,192,198311,1,8,0:0:0:0:
256,192,198354,1,8,0:0:0:0:
256,192,198396,1,8,0:0:0:0:
256,192,198438,1,8,0:0:0:0:
256,192,198481,1,8,0:0:0:0:
256,192,198650,1,8,0:0:0:0:
256,192,198693,1,8,0:0:0:0:
256,192,198735,1,8,0:0:0:0:
256,192,198777,1,8,0:0:0:0:
256,192,198820,1,0,0:0:0:0:
256,192,198862,1,0,0:0:0:0:
256,192,198904,1,0,0:0:0:0:
256,192,198989,1,4,0:0:0:0:
256,192,199159,1,12,0:0:0:0:
256,272,199328,2,0,P|316:248|176:176,1,350.00000333786
256,192,199837,1,12,0:0:0:0:
256,192,200006,2,0,B|312:232|312:232|328:172|328:172|260:192,1,1
256,192,200091,2,4,B|312:232|312:232|328:172|328:172|260:192,1,1
256,192,200176,2,4,B|312:232|312:232|328:172|328:172|260:192,1,1
256,192,200345,1,4,0:0:0:0:
256,192,200515,1,12,0:0:0:0:
256,192,200684,2,4,B|132:232|132:232|132:104|132:104|212:160,1,350.00000333786
207,156,201023,2,0,L|256:156,1,43.7500004172325
250,156,201065,2,0,L|252:108,1,43.7500004172325
251,112,201108,2,0,L|204:112,1,43.7500004172325
208,112,201150,2,0,L|208:164,1,43.7500004172325
204,164,201193,2,0,L|256:164,1,43.7500004172325
248,164,201235,2,0,L|248:108,1,43.7500004172325
248,120,201362,2,0,L|248:164,1,43.7500004172325
248,120,201404,2,0,L|248:164,1,43.7500004172325
248,120,201447,2,0,L|248:164,1,43.7500004172325
247,164,201489,2,0,L|204:164,1,43.7500004172325
208,155,201532,2,0,L|208:112,1,43.7500004172325
208,112,201574,2,0,L|251:112,1,43.7500004172325
251,112,201617,2,0,L|250:156,1,43.7500004172325
250,156,201659,2,0,L|207:156,1,43.7500004172325
207,156,201702,2,4,B|132:104|132:104|132:232|132:232|256:192,1,350.00000333786
256,192,202040,1,4,0:0:0:0:
368,192,202210,2,0,L|368:288,1,87.500000834465
388,192,202294,2,0,L|388:288,1,87.500000834465
256,192,202548,1,12,0:0:0:0:
256,192,203057,1,12,0:0:0:0:
256,192,203226,1,4,0:0:0:0:
256,192,203396,1,8,0:0:0:0:
281,157,203438,1,8,0:0:0:0:
322,143,203480,1,8,0:0:0:0:
363,154,203523,1,8,0:0:0:0:
390,188,203565,1,8,0:0:0:0:
256,192,203735,1,8,0:0:0:0:
230,226,203777,1,8,0:0:0:0:
189,240,203819,1,8,0:0:0:0:
148,229,203862,1,8,0:0:0:0:
121,195,203904,1,8,0:0:0:0:
256,192,204074,1,4,0:0:0:0:
256,192,204243,1,0,0:0:0:0:
256,192,204413,1,8,0:0:0:0:
256,192,204752,1,4,0:0:0:0:
256,192,204921,2,0,P|320:176|344:64,1,175.00000166893
351,80,205091,2,4,P|316:176|184:60,1,350.00000333786
256,192,205769,1,12,0:0:0:0:
256,192,205938,1,4,0:0:0:0:
256,192,206108,6,0,L|372:192,2,87.500000834465
256,192,206278,2,0,P|168:176|284:28,1,350.00000333786
256,192,206617,2,0,P|168:164|136:320,1,262.500002503395
256,192,206871,2,0,L|340:104,1,87.500000834465
328,123,206956,2,0,B|256:192|256:192|208:148|176:160,1,175.00000166893
256,192,207125,1,6,0:0:0:0:
164,166,207210,2,0,B|208:148|252:196|252:196,1,87.500000834465
256,64,207295,1,4,0:0:0:0:
256,192,207464,1,4,0:0:0:0:
188,192,207633,2,4,B|256:136|256:136|328:192,1,175.00000166893
256,192,207972,1,12,0:0:0:0:
256,192,208481,1,4,0:0:0:0:
256,192,208989,1,8,0:0:0:0:
256,192,209031,1,8,0:0:0:0:
256,192,209073,1,8,0:0:0:0:
256,192,209116,1,8,0:0:0:0:
256,192,209158,1,0,0:0:0:0:
256,192,209201,1,0,0:0:0:0:
256,192,209243,1,0,0:0:0:0:
256,192,209285,1,0,0:0:0:0:
256,192,209328,1,0,0:0:0:0:
256,192,209497,1,0,0:0:0:0:
256,192,209540,1,0,0:0:0:0:
256,192,209582,1,0,0:0:0:0:
256,192,209624,1,0,0:0:0:0:
256,192,209667,1,8,0:0:0:0:
256,192,209709,1,8,0:0:0:0:
256,192,209751,1,8,0:0:0:0:
256,192,209837,1,12,0:0:0:0:
256,192,210007,1,4,0:0:0:0:
256,272,210176,2,0,P|316:248|176:176,1,350.00000333786
256,192,210685,1,4,0:0:0:0:
256,192,210854,2,0,B|312:232|312:232|328:172|328:172|260:192,1,1
256,192,210939,2,4,B|312:232|312:232|328:172|328:172|260:192,1,1
256,192,211024,2,4,B|312:232|312:232|328:172|328:172|260:192,1,1
256,192,211193,1,12,0:0:0:0:
256,192,211363,1,4,0:0:0:0:
256,192,211532,2,4,B|380:152|380:152|380:280|380:280|300:224,1,350.00000333786
305,228,211871,2,0,L|256:228,1,43.7500004172325
262,228,211913,2,0,L|260:276,1,43.7500004172325
261,272,211956,2,0,L|308:272,1,43.7500004172325
304,272,211998,2,0,L|304:220,1,43.7500004172325
308,220,212041,2,0,L|256:220,1,43.7500004172325
264,220,212083,2,0,L|264:276,1,43.7500004172325
264,264,212210,2,0,L|264:220,1,43.7500004172325
264,264,212252,2,0,L|264:220,1,43.7500004172325
264,264,212295,2,0,L|264:220,1,43.7500004172325
265,220,212337,2,0,L|308:220,1,43.7500004172325
304,229,212380,2,0,L|304:272,1,43.7500004172325
304,272,212422,2,0,L|261:272,1,43.7500004172325
261,272,212465,2,0,L|262:228,1,43.7500004172325
262,228,212507,2,0,L|305:228,1,43.7500004172325
305,228,212550,2,4,B|380:280|380:280|380:152|380:152|256:192,1,350.00000333786
256,192,212888,1,12,0:0:0:0:
255,192,213057,1,4,0:0:0:0:
255,192,213226,1,12,0:0:0:0:
255,192,213396,1,4,0:0:0:0:
255,192,213565,1,12,0:0:0:0:
255,192,213735,1,4,0:0:0:0:
256,192,213905,1,4,0:0:0:0:
256,192,214074,1,12,0:0:0:0:
256,192,214243,1,4,0:0:0:0:
256,192,214413,1,12,0:0:0:0:
256,192,214582,1,4,0:0:0:0:
256,192,214752,1,12,0:0:0:0:
256,192,214921,1,4,0:0:0:0:
256,192,215091,1,12,0:0:0:0:
256,192,215260,1,4,0:0:0:0:
256,192,215430,1,12,0:0:0:0:
256,192,215599,1,12,0:0:0:0:
256,192,215684,1,0,0:0:0:0:
256,192,215769,1,8,0:0:0:0:
256,192,215854,1,0,0:0:0:0:
256,192,215938,1,0,0:0:0:0:
256,192,216023,1,8,0:0:0:0:
256,192,216108,1,8,0:0:0:0:
256,192,216193,1,8,0:0:0:0:
256,192,216277,1,0,0:0:0:0:
256,192,216362,1,0,0:0:0:0:
256,192,216447,1,0,0:0:0:0:
256,192,216532,1,0,0:0:0:0:
256,192,216617,1,4,0:0:0:0:
256,192,216786,1,12,0:0:0:0:
256,192,216955,12,0,217125,0:0:0:0:
256,192,217125,8,0,217464,0:0:0:0:
256,192,217464,8,0,217718,0:0:0:0:
256,192,217718,8,0,217803,0:0:0:0:
256,192,217803,8,0,217972,0:0:0:0:
256,192,218057,8,0,218142,0:0:0:0:
236,216,218311,5,12,0:0:0:0:
226,181,218312,1,12,0:0:0:0:
257,160,218313,1,12,0:0:0:0:
286,183,218314,1,12,0:0:0:0:
273,218,218315,1,12,0:0:0:0:
256,192,218480,1,8,0:0:0:0:
256,192,218649,1,8,0:0:0:0:
256,192,218819,1,0,0:0:0:0:
256,192,218904,1,0,0:0:0:0:
256,192,218988,1,4,0:0:0:0:
256,192,219073,1,2,0:0:0:0:
256,192,219158,1,2,0:0:0:0:
256,192,219200,1,2,0:0:0:0:
256,192,219243,1,2,0:0:0:0:
256,192,219328,1,0,0:0:0:0:
256,192,219370,1,0,0:0:0:0:
256,192,219412,1,0,0:0:0:0:
256,192,219497,2,0,B|312:232|312:232|328:172|328:172|260:192,1,1
256,192,219539,2,0,B|312:232|312:232|328:172|328:172|260:192,1,1
256,192,219582,2,0,B|312:232|312:232|328:172|328:172|260:192,1,1
256,192,219666,1,12,0:0:0:0:
256,192,219836,1,0,0:0:0:0:
256,192,219921,1,12,0:0:0:0:
256,192,219963,1,8,0:0:0:0:
256,192,220005,1,8,0:0:0:0:
256,192,220048,1,8,0:0:0:0:
256,192,220090,2,0,B|312:232|312:232|328:172|328:172|260:192,1,1
256,192,220175,1,0,0:0:0:0:
256,192,220217,1,0,0:0:0:0:
256,192,220260,1,8,0:0:0:0:
256,192,220344,1,4,0:0:0:0:
256,192,220387,1,0,0:0:0:0:
256,192,220429,1,8,0:0:0:0:
256,192,220472,1,0,0:0:0:0:
256,192,220514,1,12,0:0:0:0:
256,192,220599,1,0,0:0:0:0:
256,192,220641,1,0,0:0:0:0:
256,192,220683,1,8,0:0:0:0:
256,192,220726,1,8,0:0:0:0:
256,192,220768,1,0,0:0:0:0:
256,192,220811,1,0,0:0:0:0:
256,192,220853,2,0,B|312:232|312:232|328:172|328:172|260:192,1,1
256,192,220895,2,0,B|312:232|312:232|328:172|328:172|260:192,1,1
256,192,220938,2,0,B|312:232|312:232|328:172|328:172|260:192,1,1
236,216,221023,1,4,0:0:0:0:
226,181,221024,1,4,0:0:0:0:
257,160,221025,1,4,0:0:0:0:
286,183,221026,1,4,0:0:0:0:
273,218,221027,1,4,0:0:0:0:
256,192,221107,1,8,0:0:0:0:
256,192,221150,1,8,0:0:0:0:
256,192,221192,1,0,0:0:0:0:
256,192,221234,1,8,0:0:0:0:
256,192,221277,1,0,0:0:0:0:
256,192,221319,1,0,0:0:0:0:
256,192,221361,1,8,0:0:0:0:
256,192,221404,1,8,0:0:0:0:
256,192,221446,1,8,0:0:0:0:
256,192,221489,1,0,0:0:0:0:
256,192,221531,1,0,0:0:0:0:
256,192,221574,1,0,0:0:0:0:
256,192,221616,1,2,0:0:0:0:
256,192,221658,1,2,0:0:0:0:
256,192,221700,1,4,0:0:0:0:
256,192,221870,1,2,0:0:0:0:
256,192,221912,1,2,0:0:0:0:
256,192,221955,1,2,0:0:0:0:
256,192,222039,1,2,0:0:0:0:
256,192,222082,1,2,0:0:0:0:
256,192,222124,1,0,0:0:0:0:
256,192,222209,1,2,0:0:0:0:
256,192,222251,1,0,0:0:0:0:
256,192,222294,1,0,0:0:0:0:
256,192,222336,2,0,B|312:232|312:232|328:172|328:172|260:192,1,1
256,192,222378,1,12,0:0:0:0:
256,192,222463,1,0,0:0:0:0:
256,192,222548,1,6,0:0:0:0:
256,192,222632,1,0,0:0:0:0:
256,192,222717,1,12,0:0:0:0:
256,192,222802,1,0,0:0:0:0:
256,192,222887,1,12,0:0:0:0:
256,192,222972,1,0,0:0:0:0:
256,192,223057,2,4,B|312:232|312:232|328:172|328:172|260:192,1,1
256,192,223141,1,0,0:0:0:0:
256,192,223225,1,8,0:0:0:0:
256,192,223268,1,8,0:0:0:0:
256,192,223310,1,8,0:0:0:0:
256,192,223353,1,0,0:0:0:0:
256,192,223396,1,0,0:0:0:0:
256,192,223438,1,0,0:0:0:0:
256,192,223480,1,8,0:0:0:0:
256,192,223523,1,8,0:0:0:0:
256,192,223565,1,0,0:0:0:0:
256,192,223607,1,0,0:0:0:0:
256,192,223650,1,8,0:0:0:0:
256,192,223692,1,0,0:0:0:0:
236,216,223735,1,4,0:0:0:0:
226,181,223736,1,12,0:0:0:0:
257,160,223737,1,4,0:0:0:0:
286,183,223738,1,12,0:0:0:0:
273,218,223739,1,4,0:0:0:0:
256,192,223904,1,8,0:0:0:0:
256,192,224073,1,8,0:0:0:0:
256,192,224243,1,0,0:0:0:0:
256,192,224412,1,12,0:0:0:0:
256,192,224455,1,8,0:0:0:0:
256,192,224582,1,4,0:0:0:0:
256,192,224624,1,0,0:0:0:0:
256,192,224751,1,12,0:0:0:0:
256,192,224793,1,0,0:0:0:0:
256,192,224921,1,4,0:0:0:0:
256,192,224963,1,8,0:0:0:0:
256,192,225090,1,4,0:0:0:0:
256,192,225175,1,8,0:0:0:0:
256,192,225218,1,8,0:0:0:0:
256,192,225260,1,8,0:0:0:0:
256,192,225345,1,4,0:0:0:0:
256,192,225429,1,8,0:0:0:0:
256,192,225472,1,8,0:0:0:0:
256,192,225514,1,8,0:0:0:0:
256,192,225599,1,4,0:0:0:0:
256,192,225641,1,0,0:0:0:0:
256,192,225684,1,0,0:0:0:0:
256,192,225768,1,12,0:0:0:0:
256,192,225853,2,0,B|312:232|312:232|328:172|328:172|260:192,1,1
256,192,225896,2,0,B|312:232|312:232|328:172|328:172|260:192,1,1
256,192,225938,2,0,B|312:232|312:232|328:172|328:172|260:192,1,1
256,192,225980,2,0,B|312:232|312:232|328:172|328:172|260:192,1,1
256,192,226023,2,0,B|312:232|312:232|328:172|328:172|260:192,1,1
256,192,226065,2,0,B|312:232|312:232|328:172|328:172|260:192,1,1
256,192,226107,1,0,0:0:0:0:
256,192,226150,1,8,0:0:0:0:
256,192,226192,1,0,0:0:0:0:
256,192,226235,1,8,0:0:0:0:
256,192,226277,1,0,0:0:0:0:
256,192,226319,1,8,0:0:0:0:
256,192,226362,1,0,0:0:0:0:
256,192,226404,1,8,0:0:0:0:
236,216,226447,1,12,0:0:0:0:
226,181,226448,1,4,0:0:0:0:
257,160,226449,1,12,0:0:0:0:
286,183,226450,1,4,0:0:0:0:
273,218,226451,1,12,0:0:0:0:
256,192,226531,1,8,0:0:0:0:
256,192,226574,1,0,0:0:0:0:
256,192,226616,1,0,0:0:0:0:
256,192,226658,1,8,0:0:0:0:
256,192,226701,1,8,0:0:0:0:
256,192,226743,1,8,0:0:0:0:
256,192,226785,1,0,0:0:0:0:
256,192,226828,1,0,0:0:0:0:
256,192,226870,1,0,0:0:0:0:
256,192,226912,1,0,0:0:0:0:
256,192,226955,1,0,0:0:0:0:
256,192,226997,1,8,0:0:0:0:
256,192,227040,1,8,0:0:0:0:
256,192,227082,1,8,0:0:0:0:
256,192,227124,1,12,0:0:0:0:
256,192,227294,1,4,0:0:0:0:
256,192,227463,1,12,0:0:0:0:
256,192,227633,1,4,0:0:0:0:
256,192,227802,1,0,0:0:0:0:
256,192,227845,1,0,0:0:0:0:
256,192,227887,1,0,0:0:0:0:
256,192,227972,1,0,0:0:0:0:
256,192,228014,1,0,0:0:0:0:
256,192,228057,1,0,0:0:0:0:
256,192,228141,1,0,0:0:0:0:
256,192,228184,1,8,0:0:0:0:
256,192,228226,1,8,0:0:0:0:
256,192,228311,1,8,0:0:0:0:
256,192,228353,1,0,0:0:0:0:
256,192,228396,1,8,0:0:0:0:
256,192,228480,1,0,0:0:0:0:
256,192,228565,1,8,0:0:0:0:
256,192,228650,1,8,0:0:0:0:
256,192,228735,1,8,0:0:0:0:
256,192,228819,1,4,0:0:0:0:
256,192,228904,1,8,0:0:0:0:
256,192,228989,1,4,0:0:0:0:
256,192,229074,1,8,0:0:0:0:
236,216,229159,1,12,0:0:0:0:
228,180,229160,2,4,B|284:220|284:220|300:160|300:160|232:180,1,1
257,160,229161,1,12,0:0:0:0:
284,180,229162,2,4,B|340:220|340:220|356:160|356:160|288:180,1,1
273,218,229163,1,12,0:0:0:0:
256,192,229328,2,2,L|416:192,1,146.00000401001
256,192,229328,1,2,0:0:0:0:
256,192,229667,1,0,0:0:0:0:
256,192,229709,1,0,0:0:0:0:
256,192,229751,1,0,0:0:0:0:
256,192,229836,1,4,0:0:0:0:
256,192,229921,1,8,0:0:0:0:
256,192,230006,1,12,0:0:0:0:
256,192,230090,1,0,0:0:0:0:
256,192,230175,1,12,0:0:0:0:
256,192,230260,1,8,0:0:0:0:
256,192,230345,1,4,0:0:0:0:
256,192,230429,1,0,0:0:0:0:
256,192,230514,1,4,0:0:0:0:
256,192,230599,1,4,0:0:0:0:
256,192,230642,1,8,0:0:0:0:
256,192,230684,1,8,0:0:0:0:
256,192,230768,1,4,0:0:0:0:
256,192,230811,1,0,0:0:0:0:
256,192,230853,1,8,0:0:0:0:
256,192,230896,1,8,0:0:0:0:
256,192,230938,1,8,0:0:0:0:
256,192,231023,1,4,0:0:0:0:
256,192,231065,1,8,0:0:0:0:
256,192,231107,1,8,0:0:0:0:
256,192,231192,1,0,0:0:0:0:
256,192,231277,2,0,L|256:88,1,79.000001928711
256,192,231362,1,12,0:0:0:0:
256,192,231446,1,4,0:0:0:0:
256,192,231531,1,12,0:0:0:0:
256,192,231616,1,4,0:0:0:0:
256,192,231701,1,12,0:0:0:0:
256,192,231701,2,0,L|176:248,1,75.0000028610231
236,216,231871,2,4,B|292:256|292:256|308:196|308:196|240:216,1,1
226,181,231872,1,4,0:0:0:0:
273,218,231873,2,4,B|329:258|329:258|345:198|345:198|277:218,1,1
286,183,231874,1,4,0:0:0:0:
257,160,231875,2,4,B|313:200|313:200|329:140|329:140|261:160,1,1
256,192,232040,2,4,B|312:232|312:232|328:172|328:172|260:192,1,1
256,192,232209,2,4,B|312:232|312:232|328:172|328:172|260:192,1,1
256,192,232379,2,4,B|312:232|312:232|328:172|328:172|260:192,1,1
256,192,232548,1,8,0:0:0:0:
256,192,232591,1,8,0:0:0:0:
256,192,232633,1,8,0:0:0:0:
256,192,232675,1,0,0:0:0:0:
256,192,232718,1,0,0:0:0:0:
256,192,232760,1,0,0:0:0:0:
256,192,232802,2,0,B|312:232|312:232|328:172|328:172|260:192,1,1
256,192,232845,2,0,B|312:232|312:232|328:172|328:172|260:192,1,1
256,192,232887,2,0,B|312:232|312:232|328:172|328:172|260:192,1,1
256,192,232929,1,8,0:0:0:0:
256,192,232972,1,0,0:0:0:0:
256,192,233014,2,0,B|312:232|312:232|328:172|328:172|260:192,1,1
256,192,233057,1,4,0:0:0:0:
256,192,233226,2,0,L|208:16,1,172.000002624512
210,26,233395,2,0,L|256:192,1,172.000002624512
256,192,233565,2,0,P|228:256|96:236,2,211.000004346466
256,192,233989,1,8,0:0:0:0:
256,192,234074,1,8,0:0:0:0:
256,192,234116,1,0,0:0:0:0:
256,192,234201,1,8,0:0:0:0:
256,192,234243,1,8,0:0:0:0:
256,192,234285,1,0,0:0:0:0:
256,192,234370,1,0,0:0:0:0:
256,192,234412,1,8,0:0:0:0:
256,192,234455,1,8,0:0:0:0:
256,192,234497,1,0,0:0:0:0:
236,216,234582,1,12,0:0:0:0:
226,181,234583,1,4,0:0:0:0:
257,160,234584,2,0,B|313:200|313:200|329:140|329:140|261:160,1,1
286,183,234585,1,4,0:0:0:0:
273,218,234586,1,12,0:0:0:0:
256,192,234751,2,4,B|232:192|232:192|292:192|292:192|280:192|280:192|304:192|304:192|252:192,2,165.000001573563
256,192,235260,1,0,0:0:0:0:
256,192,235429,1,0,0:0:0:0:
256,192,235599,1,0,0:0:0:0:
256,192,235768,1,0,0:0:0:0:
256,192,235896,1,8,0:0:0:0:
256,192,235938,1,12,0:0:0:0:
256,192,236107,1,8,0:0:0:0:
256,192,236150,1,8,0:0:0:0:
256,192,236192,1,12,0:0:0:0:
256,192,236361,1,8,0:0:0:0:
256,192,236403,1,0,0:0:0:0:
256,192,236446,1,4,0:0:0:0:
256,192,236616,1,4,0:0:0:0:
256,248,236616,1,8,0:0:0:0:
256,192,236785,2,0,B|308:204|308:204|264:248|264:248|348:268|348:268|264:320|264:320|392:308|392:308|332:352,1,485.999996848297
256,192,236785,1,0,0:0:0:0:
256,192,237124,1,8,0:0:0:0:
256,192,237167,1,0,0:0:0:0:
256,192,237209,1,0,0:0:0:0:
256,192,237251,1,0,0:0:0:0:
236,216,237294,2,4,B|292:256|292:256|308:196|308:196|240:216,1,1
286,183,237295,2,4,B|342:223|342:223|358:163|358:163|290:183,1,1
273,218,237296,2,4,B|329:258|329:258|345:198|345:198|277:218,1,1
257,160,237297,2,4,B|313:200|313:200|329:140|329:140|261:160,1,1
226,181,237298,2,4,B|282:221|282:221|298:161|298:161|230:181,1,1
256,192,237463,1,8,0:0:0:0:
256,192,237506,1,8,0:0:0:0:
256,192,237548,1,8,0:0:0:0:
256,192,237590,1,0,0:0:0:0:
256,192,237633,2,0,B|212:200|288:220|220:168|228:232|336:196|268:136|224:260|304:252|212:128|176:232|352:152|212:272|228:84|320:256|156:244|332:96|264:284|168:92|380:180|116:192|304:56|224:320|396:248|68:120|408:104|152:296|224:68|272:356|388:196|88:176|368:84|200:324|432:264|128:96|84:240|392:224|76:168|389:152|389:152|388:312,1,466.000018665314
256,192,238141,1,4,0:0:0:0:
256,192,238311,1,12,0:0:0:0:
256,192,238480,1,4,0:0:0:0:
256,192,238650,1,8,0:0:0:0:
256,192,238692,1,8,0:0:0:0:
256,192,238734,1,8,0:0:0:0:
256,192,238819,1,8,0:0:0:0:
256,192,238861,1,8,0:0:0:0:
256,192,238904,1,8,0:0:0:0:
256,192,238989,1,8,0:0:0:0:
256,192,239031,1,0,0:0:0:0:
256,192,239073,1,0,0:0:0:0:
256,192,239158,1,0,0:0:0:0:
256,192,239200,1,8,0:0:0:0:
256,192,239243,1,0,0:0:0:0:
256,192,239327,1,8,0:0:0:0:
256,192,239412,1,0,0:0:0:0:
256,192,239497,1,0,0:0:0:0:
256,192,239582,1,0,0:0:0:0:
256,192,239666,1,12,0:0:0:0:
256,192,239751,1,0,0:0:0:0:
256,192,239836,1,12,0:0:0:0:
256,192,239921,1,0,0:0:0:0:
256,192,240006,5,12,0:0:0:0:
256,248,240006,1,0,0:0:0:0:
256,192,240260,1,0,0:0:0:0:
256,192,240514,1,8,0:0:0:0:
256,192,240768,1,0,0:0:0:0:
256,192,241022,1,8,0:0:0:0:
256,192,241277,1,0,0:0:0:0:
256,192,241531,1,8,0:0:0:0:
256,192,241785,1,0,0:0:0:0:
256,192,242039,1,8,0:0:0:0:
256,192,242294,1,8,0:0:0:0:
256,192,242548,1,8,0:0:0:0:
256,192,242717,12,0,245429,0:0:0:0:
256,192,245429,5,4,0:0:0:0:
256,192,245683,1,8,0:0:0:0:
256,192,245937,1,0,0:0:0:0:
256,192,246191,1,8,0:0:0:0:
256,192,246445,1,0,0:0:0:0:
256,192,246700,1,8,0:0:0:0:
256,192,246954,1,0,0:0:0:0:
256,192,247208,1,8,0:0:0:0:
256,192,247462,1,0,0:0:0:0:
256,192,247717,1,0,0:0:0:0:
256,192,247971,1,0,0:0:0:0:
256,192,248141,12,0,250853,0:0:0:0:
256,192,250853,5,4,0:0:0:0:
256,192,251107,2,0,B|312:232|312:232|328:172|328:172|260:192,1,1
256,192,251361,1,8,0:0:0:0:
256,192,251616,1,0,0:0:0:0:
256,192,251870,2,0,B|312:232|312:232|328:172|328:172|260:192,1,1
256,192,252124,1,8,0:0:0:0:
256,192,252379,1,0,0:0:0:0:
256,192,252633,1,8,0:0:0:0:
256,192,252887,2,0,B|312:232|312:232|328:172|328:172|260:192,1,1
256,192,253141,2,0,B|312:232|312:232|328:172|328:172|260:192,1,1
256,192,253395,2,0,B|312:232|312:232|328:172|328:172|260:192,1,1
256,192,253565,2,0,L|256:248,32,50
256,192,256277,1,12,0:0:0:0:
256,192,256531,1,0,0:0:0:0:
256,192,256785,1,8,0:0:0:0:
256,192,257039,1,8,0:0:0:0:
256,192,257294,2,0,B|312:232|312:232|328:172|328:172|260:192,1,1
256,192,257548,1,0,0:0:0:0:
256,192,257802,1,8,0:0:0:0:
256,192,258056,1,8,0:0:0:0:
256,192,258311,1,4,0:0:0:0:
256,192,258565,1,12,0:0:0:0:
256,192,258820,2,4,B|312:232|312:232|328:172|328:172|260:192,1,1
256,192,258989,2,4,B|12:12|12:12|500:12|500:12|500:372|500:372|40:372,1,1600
256,192,261700,12,0,265768,0:0:0:0:
256,192,261701,5,0,0:0:0:0:
