osu file format v12

[General]
AudioFilename: we are young.mp3
AudioLeadIn: 0
PreviewTime: 49092
Countdown: 0
SampleSet: Soft
StackLeniency: 0.7
Mode: 0
LetterboxInBreaks: 0
WidescreenStoryboard: 0

[Editor]
Bookmarks: 117119,143779,101635
DistanceSpacing: 1.2
BeatDivisor: 4
GridSize: 4

[Metadata]
Title:We Are Young (feat. Janelle Monae)
TitleUnicode:We Are Young (feat. Janelle MonĂ¡e)
Artist:Fun.
ArtistUnicode:Fun.
Creator:Tony
Version:Relaxing.
Source:
Tags:some nights
BeatmapID:211607
BeatmapSetID:69892

[Difficulty]
HPDrainRate:2
CircleSize:2
OverallDifficulty:2
ApproachRate:3
SliderMultiplier:1.1
SliderTickRate:2

[Events]
//Background and Video events
0,0,"background.jpg",0,0
//Break Periods
2,41792,47981
2,194736,214165
//Storyboard Layer 0 (Background)
//Storyboard Layer 1 (Fail)
//Storyboard Layer 2 (Pass)
//Storyboard Layer 3 (Foreground)
//Storyboard Sound Samples
//Background Colour Transformations
3,100,163,162,255

[TimingPoints]
213,517.241379310345,4,2,0,70,1,0
8488,-100,4,2,0,70,0,0
41592,666.666666666667,4,2,0,70,1,0
42925,631.578947368421,4,2,0,70,1,0
44188,666.666666666667,4,2,0,70,1,0
45521,631.578947368421,4,2,0,70,1,0
46784,659.340659340659,4,2,0,70,1,0
49421,652.173913043478,4,2,0,70,1,0
49421,-80,4,2,0,70,0,0
88551,621.761658031088,4,2,0,70,1,0
89794,-100,4,2,0,10,0,0
89949,-100,4,2,0,70,0,0
91038,638.297872340426,4,2,0,70,1,0
91038,-83.3333333333333,4,2,0,70,0,0
91676,625,4,2,0,70,1,0
91676,-83.3333333333333,4,2,0,70,0,0
93551,625,4,2,0,70,1,0
93551,-83.3333333333333,4,2,0,70,0,0
108551,638.297872340426,4,2,0,70,1,0
108551,-83.3333333333333,4,2,0,70,0,0
109827,681.818181818182,4,2,0,70,1,0
109827,-71.4285714285714,4,2,0,70,0,0
110508,750,4,2,0,70,1,0
111258,652.173913043478,4,2,0,70,1,0
111258,-80,4,2,0,70,0,0
151692,-80,4,2,0,10,0,0
152997,-80,4,2,0,70,0,0
215605,-80,4,2,0,70,0,1
235171,-100,4,2,0,40,0,0
236475,638.297872340426,4,2,0,40,1,0
236475,-80,4,2,0,40,0,0
239028,697.674418604651,4,2,0,40,1,0
239028,-80,4,2,0,40,0,0
239725,740.740740740741,4,2,0,40,1,0
239725,-80,4,2,0,40,0,0
240465,697.674418604651,4,2,0,40,1,0
240465,-80,4,2,0,40,0,0
241860,681.818181818182,4,2,0,40,1,0
241860,-77.5193798449612,4,2,0,30,0,0
243223,759.493670886076,4,2,0,30,1,0
244931,-100,4,2,0,10,0,0

[Colours]
Combo1 : 169,160,86
Combo2 : 125,150,95
Combo3 : 91,122,153
Combo4 : 152,107,92

[HitObjects]
208,108,8488,6,0,B|284:52|364:100,2,165,4|2|0,0:0|0:0|0:0,0:0:0:0:
116,204,10557,2,0,B|56:131|99:48,2,165,2|2|0,0:0|0:0|0:0,0:0:0:0:
196,308,12626,6,0,B|117:359|39:307,2,165,2|2|0,0:0|0:0|0:0,0:0:0:0:
300,224,14695,2,0,B|351:302|299:380,2,165,2|2|0,0:0|0:0|0:0,0:0:0:0:
200,308,16764,6,0,B|150:359|82:359|35:299|33:223|85:179|156:187,1,330,4|2,0:0|0:0,0:0:0:0:
280,148,18833,2,0,B|329:96|397:96|444:156|446:232|394:276|323:268,1,330,2|2,0:0|0:0,0:0:0:0:
192,240,20902,5,4,0:0:0:0:
60,240,21419,2,0,B|52:301|104:333,2,110,2|0|2,0:0|0:0|0:0,0:0:0:0:
135,133,22971,2,0,B|152:46|256:3|359:46|377:133,1,330,4|2,0:0|0:0,0:0:0:0:
256,188,25040,6,0,B|256:356,2,165,4|0|0,0:0|0:0|0:0,0:0:0:0:
148,112,27109,1,0,1:0:0:0:
256,36,27626,1,0,0:0:0:0:
364,112,28144,1,0,1:0:0:0:
256,188,28661,1,0,0:0:0:0:
256,320,29178,6,0,B|84:320,2,165,2|0|0,0:0|0:0|0:0,0:0:0:0:
388,320,31247,1,0,1:0:0:0:
388,188,31764,1,0,0:0:0:0:
336,68,32281,2,0,B|272:52|228:88,1,110,0|0,1:0|0:0,1:0:0:0:
260,216,33316,6,0,B|204:280|108:248,2,165,4|2|0,0:0|0:0|0:0,0:0:0:0:
388,188,35385,2,0,B|452:244|420:340,2,165,2|2|0,0:0|0:0|0:0,0:0:0:0:
304,88,37454,6,0,B|352:44|416:68,2,110,0|0|0,1:0|0:0|1:0,0:0:0:0:
212,184,39006,1,0,0:0:0:0:
96,120,39523,2,0,B|49:98|4:116|-10:169|8:220|54:235|99:211,1,220,0|2,1:0|0:0,0:0:0:0:
212,184,41075,1,0,0:0:0:0:
184,312,41592,5,2,0:0:0:0:
336,76,49421,6,0,B|416:92|428:176,2,137.5,4|8|0,0:0|1:0|0:0,0:0:0:0:
256,220,51377,1,8,1:0:0:0:
200,376,52029,2,0,B|120:360|108:276,1,137.5,0|8,0:0|1:0,0:0:0:0:
112,120,53334,5,2,0:0:0:0:
256,40,53986,1,8,1:0:0:0:
400,120,54638,2,0,B|460:160|452:240,2,137.5,4|8|0,0:0|1:0|0:0,0:0:0:0:
280,232,56594,1,8,1:0:0:0:
168,352,57247,6,0,B|108:312|116:232,2,137.5,2|8|0,0:0|1:0|0:0,0:0:0:0:
280,232,59203,1,8,1:0:0:0:
400,120,59855,2,0,B|460:160|452:240,1,137.5,4|8,0:0|1:0,0:0:0:0:
128,292,61812,5,8,1:0:0:0:
248,180,62464,2,0,B|308:220|300:300,2,137.5,4|8|0,0:0|1:0|0:0,0:0:0:0:
88,136,64420,6,0,B|164:4|328:48,1,275,8|8,1:0|1:0,0:0:0:0:
248,192,66377,1,2,0:0:0:0:
404,248,67029,2,0,B|328:380|164:336,1,275,8|8,1:0|1:0,0:0:0:0:
248,192,68986,1,2,0:0:0:0:
404,248,69638,1,8,1:0:0:0:
448,88,70290,6,0,B|400:31|324:45,1,137.5,4|8,0:0|1:0,0:0:0:0:
248,192,71594,2,0,B|208:248|128:248,1,137.5,2|8,0:0|1:0,0:0:0:0:
124,84,72899,1,2,0:0:0:0:
248,192,73551,1,8,1:0:0:0:
344,328,74203,6,0,B|424:300|416:224,1,137.5,2|8,0:0|1:0,0:0:0:0:
484,76,75507,2,0,B|420:44|352:76,1,137.5,4|8,0:0|1:0,0:0:0:0:
196,128,76812,1,0,0:0:0:0:
92,256,77464,1,8,1:0:0:0:
256,280,78116,6,0,B|320:312|388:280,2,137.5,2|8|0,0:0|1:0|0:0,0:0:0:0:
196,128,80073,1,8,1:0:0:0:
344,56,80725,2,0,B|392:108|356:188,1,137.5,4|8,0:0|1:0,0:0:0:0:
32,128,82681,5,8,1:0:0:0:
180,56,83334,2,0,B|228:108|192:188,1,137.5,4|8,0:0|1:0,0:0:0:0:
64,288,84638,1,0,0:0:0:0:
32,128,85290,1,8,1:0:0:0:
180,56,85942,5,4,0:0:0:0:
228,216,86594,2,0,B|380:284|484:188,1,275,8|8,1:0|1:0,0:0:0:0:
436,60,88551,2,0,P|344:120|240:64,1,220,4|0,0:0|0:0,0:0:0:0:
128,312,91038,6,0,B|192:344|256:312,1,131.99999597168,4|8,0:0|1:0,0:0:0:0:
324,168,92301,2,0,B|260:136|196:168,1,131.99999597168,2|8,0:0|1:0,0:0:0:0:
128,312,93551,1,4,0:0:0:0:
24,192,94176,1,8,1:0:0:0:
92,48,94801,1,2,0:0:0:0:
196,168,95426,2,0,B|263:191|323:152,1,131.99999597168,8|4,1:0|0:0,0:0:0:0:
452,60,96676,5,8,1:0:0:0:
412,212,97301,2,8,B|388:279|427:339,2,131.99999597168,2|8|4,0:0|1:0|0:0,0:0:0:0:
256,188,99176,1,8,1:0:0:0:
100,212,99801,2,0,B|123:279|84:339,2,131.99999597168,2|8|4,0:0|1:0|0:0,0:0:0:0:
132,56,101676,6,0,B|256:136|380:56,1,263.99999194336,8|8,1:0|1:0,0:0:0:0:
460,192,103551,1,4,0:0:0:0:
380,328,104176,2,0,B|256:248|132:328,1,263.99999194336,8|8,1:0|1:0,0:0:0:0:
52,192,106051,5,4,0:0:0:0:
140,60,106676,1,8,1:0:0:0:
192,208,107301,2,0,B|256:244|320:208,1,131.99999597168,2|8,0:0|1:0,0:0:0:0:
372,60,108551,5,2,0:0:0:0:
460,192,109189,1,2,0:0:0:0:
368,320,109827,2,0,B|288:352|220:308,1,153.999995300293,2|2,0:0|0:0,0:0:0:0:
156,136,111258,6,0,B|76:152|64:236,2,137.5,4|8|0,0:0|1:0|0:0,0:0:0:0:
300,216,113214,2,0,B|375:203|393:129|393:129|410:53|487:41,1,275,8|8,1:0|1:0,0:0:0:0:
472,204,115171,2,0,B|448:272|368:300,1,137.5,2|8,0:0|1:0,0:0:0:0:
228,364,116475,5,4,0:0:0:0:
160,212,117127,2,0,B|160:52|329:30,1,275,8|8,1:0|1:0,0:0:0:0:
400,179,119084,2,0,B|320:195|308:271,2,137.5,2|8|2,0:0|1:0|0:0,0:0:0:0:
460,332,121040,1,8,1:0:0:0:
309,269,121692,5,4,0:0:0:0:
160,336,122344,2,0,B|36:245|67:95,1,275,8|8,1:0|1:0,0:0:0:0:
188,208,124301,1,4,0:0:0:0:
200,44,124953,2,0,B|323:134|292:284,1,275,8|8,1:0|1:0,0:0:0:0:
444,352,126910,6,0,B|480:288|464:220,1,137.5,4|8,0:0|1:0,0:0:0:0:
336,116,128214,2,0,B|372:180|356:248,1,137.5,0|8,0:0|1:0,0:0:0:0:
200,308,129518,1,4,0:0:0:0:
44,256,130171,1,8,1:0:0:0:
92,100,130823,1,0,0:0:0:0:
248,148,131475,1,8,1:0:0:0:
200,308,132127,5,4,0:0:0:0:
360,352,132779,2,0,B|417:328|410:267|385:237|385:237|423:246|480:223|474:161,1,275,8|8,1:0|1:0,0:0:0:0:
400,16,134736,1,2,0:0:0:0:
320,160,135388,2,0,B|262:183|269:244|294:274|294:274|256:265|199:288|205:350,1,275,8|8,1:0|1:0,0:0:0:0:
52,296,137344,6,0,B|52:216|128:188,1,137.5,4|8,0:0|1:0,0:0:0:0:
192,40,138649,1,2,0:0:0:0:
256,192,139301,1,8,1:0:0:0:
320,40,139953,1,2,0:0:0:0:
388,189,140605,6,0,B|460:216|460:296,1,137.5,8|2,1:0|0:0,0:3:0:0:
296,300,141910,1,8,1:0:0:0:
136,340,142562,2,0,B|0:376,1,137.5,4|8,0:0|1:0,0:0:0:0:
220,124,144518,5,8,1:0:0:0:
380,84,145171,2,0,B|516:48,1,137.5,4|8,0:0|1:0,0:0:0:0:
256,256,147127,5,8,1:0:0:0:
112,336,147779,2,0,B|52:179|196:106,1,275,4|0,0:0|0:0,0:0:0:0:
256,256,149736,1,8,1:0:0:0:
315,106,150388,2,0,B|459:179|400:336,1,275,4|0,0:0|0:0,0:0:0:0:
76,276,152997,6,0,B|140:232|204:276,1,137.5,4|8,0:0|1:0,0:0:0:0:
320,160,154301,2,0,B|256:204|192:160,1,137.5,2|8,0:0|1:0,0:0:0:0:
308,276,155605,2,0,B|372:232|436:276,1,137.5,4|8,0:0|1:0,0:0:0:0:
420,112,156910,1,2,0:0:0:0:
256,84,157562,1,8,1:0:0:0:
92,112,158214,6,0,B|71:143|92:175|92:175|114:207|92:240,1,137.5,4|8,0:0|1:0,0:0:0:0:
192,372,159518,2,0,B|256:328|320:372,1,137.5,2|8,0:0|1:0,0:0:0:0:
419,240,160823,2,0,B|397:207|419:175|419:175|440:143|420:112,1,137.5,4|8,0:0|1:0,0:0:0:0:
256,84,162127,1,2,0:0:0:0:
92,112,162779,1,8,1:0:0:0:
192,244,163431,6,0,B|256:288|320:244,1,137.5,4|8,0:0|1:0,0:0:0:0:
448,136,164736,2,0,B|384:92|320:136,2,137.5,2|8|4,0:0|1:0|0:0,0:0:0:0:
384,288,166692,1,8,1:0:0:0:
220,260,167344,1,2,0:0:0:0:
172,100,167997,1,8,1:0:0:0:
60,220,168649,6,0,B|30:292|84:360,1,137.5,4|8,0:0|1:0,0:0:0:0:
220,260,169953,2,0,B|292:289|363:241,2,137.5,2|8|4,0:0|1:0|0:0,0:0:0:0:
172,100,171910,1,8,1:0:0:0:
60,220,172562,2,0,B|30:292|78:363,2,137.5,2|8|4,0:0|1:0|0:0,0:0:0:0:
172,100,174518,5,8,1:0:0:0:
336,124,175171,2,0,B|472:140,1,137.5,2|8,0:0|1:0,0:0:0:0:
448,304,176475,1,4,0:0:0:0:
284,284,177127,1,8,1:0:0:0:
140,200,177779,2,0,B|99:258|128:331,2,137.5,2|8|4,0:0|1:0|0:0,0:0:0:0:
252,76,179736,5,8,1:0:0:0:
392,160,180388,2,0,B|432:101|403:28,2,137.5,2|8|4,0:0|1:0|0:0,0:0:0:0:
256,252,182344,1,8,1:0:0:0:
156,120,182997,2,0,B|83:90|24:131,2,137.5,2|8|4,0:0|1:0|0:0,0:0:0:0:
100,276,184953,5,8,1:0:0:0:
376,92,186257,1,8,1:0:0:0:
324,248,186910,2,0,B|396:277|455:236,1,137.5,4|8,0:0|1:0,0:0:0:0:
132,176,188866,5,8,1:0:0:0:
156,336,189518,2,0,B|84:360|28:304,1,137.5,4|8,0:0|1:0,0:0:0:0:
132,176,190823,5,2,0:0:0:0:
256,68,191475,1,8,1:0:0:0:
380,176,192127,2,0,B|412:256|344:296,2,137.5,4|8|0,0:0|1:0|0:0,0:0:0:0:
256,68,194084,1,8,1:0:0:0:
448,88,215605,6,0,B|400:31|324:45,1,137.5,4|8,0:0|1:0,0:0:0:0:
248,192,216910,2,0,B|208:248|128:248,1,137.5,0|8,0:0|1:0,0:0:0:0:
124,84,218214,5,0,0:0:0:0:
248,192,218866,1,8,1:0:0:0:
344,328,219518,2,0,B|424:300|416:224,1,137.5,2|8,0:0|1:0,0:0:0:0:
484,76,220823,6,0,B|420:44|352:76,1,137.5,4|8,0:0|1:0,0:0:0:0:
196,128,222127,1,0,0:0:0:0:
92,256,222779,1,8,1:0:0:0:
256,280,223431,6,0,B|320:312|388:280,2,137.5,0|8|2,0:0|1:0|0:0,0:0:0:0:
196,128,225388,1,8,1:0:0:0:
344,56,226040,2,0,B|392:108|356:188,1,137.5,4|8,0:0|1:0,0:0:0:0:
32,128,227997,5,8,1:0:0:0:
180,56,228649,2,0,B|228:108|192:188,1,137.5,4|8,0:0|1:0,0:0:0:0:
64,288,229953,1,0,0:0:0:0:
32,128,230605,1,8,1:0:0:0:
180,56,231257,5,4,0:0:0:0:
228,216,231910,2,8,B|380:284|484:188,1,275,8|8,1:0|1:0,0:0:0:0:
400,48,233866,2,0,B|348:96|272:62,1,137.5,2|0,0:0|0:0,0:0:0:0:
120,132,235171,5,2,0:0:0:0:
84,292,235823,1,0,0:0:0:0:
240,240,236475,2,0,B|400:296|476:156,1,275
156,164,239028,6,0,P|140:232|164:320,1,137.5
336,228,240465,1,0,0:0:0:0:
436,40,241860,6,0,B|152:12,1,283.800004330444,2|0,0:0|0:0,0:0:0:0:
44,216,244552,2,0,L|88:228,1,27.5,0|2,0:0|0:0,0:0:0:0:
256,192,244931,12,0,247779,0:0:0:0:
