osu file format v12

[General]
AudioFilename: we are young.mp3
AudioLeadIn: 0
PreviewTime: 49092
Countdown: 0
SampleSet: Soft
StackLeniency: 0.7
Mode: 0
LetterboxInBreaks: 0
WidescreenStoryboard: 0

[Editor]
Bookmarks: 10557,19221,34092,36937,67678,117119,159821
DistanceSpacing: 0.9
BeatDivisor: 4
GridSize: 4

[Metadata]
Title:We Are Young (feat. Janelle Monae)
TitleUnicode:We Are Young (feat. Janelle MonĂ¡e)
Artist:Fun.
ArtistUnicode:Fun.
Creator:Tony
Version:Fun.
Source:
Tags:some nights
BeatmapID:297648
BeatmapSetID:69892

[Difficulty]
HPDrainRate:7
CircleSize:4
OverallDifficulty:7
ApproachRate:7
SliderMultiplier:2.1
SliderTickRate:2

[Events]
//Background and Video events
0,0,"background.jpg",0,0
//Break Periods
2,41792,48356
2,194935,212097
//Storyboard Layer 0 (Background)
//Storyboard Layer 1 (Fail)
//Storyboard Layer 2 (Pass)
//Storyboard Layer 3 (Foreground)
//Storyboard Sound Samples
//Background Colour Transformations
3,100,163,162,255

[TimingPoints]
213,517.241379310345,4,2,0,70,1,0
8488,-133.333333333333,4,2,0,70,0,0
41592,666.666666666667,4,2,0,70,1,0
42925,631.578947368421,4,2,0,70,1,0
44188,666.666666666667,4,2,0,70,1,0
45521,631.578947368421,4,2,0,70,1,0
46784,659.340659340659,4,2,0,70,1,0
49421,652.173913043478,4,2,0,70,1,0
49421,-80,4,2,0,70,0,0
88551,621.761658031088,4,2,0,70,1,0
89794,-100,4,2,0,10,0,0
89949,-100,4,2,0,70,0,0
91038,638.297872340426,4,2,0,70,1,0
91038,-83.3333333333333,4,2,0,70,0,0
91676,625,4,2,0,70,1,0
91676,-83.3333333333333,4,2,0,70,0,0
93551,625,4,2,0,70,1,0
93551,-83.3333333333333,4,2,0,70,0,0
108551,638.297872340426,4,2,0,70,1,0
108551,-83.3333333333333,4,2,0,70,0,0
109827,681.818181818182,4,2,0,70,1,0
109827,-71.4285714285714,4,2,0,70,0,0
110508,750,4,2,0,70,1,0
111258,652.173913043478,4,2,0,70,1,0
111258,-80,4,2,0,70,0,0
151692,-80,4,2,0,10,0,0
152997,-80,4,2,0,70,0,0
215605,-80,4,2,0,70,0,1
235171,-100,4,2,0,40,0,0
236475,638.297872340426,4,2,0,40,1,0
239028,697.674418604651,4,2,0,40,1,0
239028,-80,4,2,0,40,0,0
239725,740.740740740741,4,2,0,40,1,0
239725,-80,4,2,0,40,0,0
240465,697.674418604651,4,2,0,40,1,0
240465,-80,4,2,0,40,0,0
241860,681.818181818182,4,2,0,40,1,0
241860,-77.5193798449612,4,2,0,30,0,0
243223,759.493670886076,4,2,0,30,1,0
244931,-100,4,2,0,10,0,0

[Colours]
Combo1 : 169,160,86
Combo2 : 125,150,95
Combo3 : 91,122,153
Combo4 : 152,107,92

[HitObjects]
380,112,8488,2,0,P|428:108|492:208,1,157.500006008148,4|0,0:0|0:0,0:0:0:0:
408,192,9264,1,2,0:0:0:0:
436,276,9523,2,0,P|388:280|324:180,1,157.500006008148,0|2,0:0|0:0,0:0:0:0:
292,120,10299,1,0,0:0:0:0:
244,48,10557,6,0,P|204:36|172:52,1,78.7500030040742,2|0,0:0|0:0,0:0:0:0:
160,92,10945,2,0,P|144:128|108:148,1,78.7500030040742,0|2,0:0|0:0,0:0:0:0:
68,268,11592,1,0,0:0:0:0:
128,332,11850,1,2,0:0:0:0:
208,296,12109,1,0,0:0:0:0:
148,232,12368,1,2,0:0:0:0:
156,148,12626,6,0,P|178:118|216:108,1,78.7500030040742,4|0,0:0|0:0,0:0:0:0:
296,108,13144,2,0,P|356:112|388:88,1,78.7500030040742,2|0,0:0|0:0,0:0:0:0:
404,80,13531,2,0,P|440:52|488:60,2,78.7500030040742,0|2|0,0:0|0:0|0:0,0:0:0:0:
408,124,14178,1,0,0:0:0:0:
436,156,14307,1,2,0:0:0:0:
336,240,14695,6,0,L|300:312,1,78.7500030040742,2|0,0:0|0:0,0:0:0:0:
211,310,15213,2,0,L|176:240,1,78.7500030040742,0|2,0:0|0:0,0:0:0:0:
156,204,15600,2,0,P|128:176|84:176,2,78.7500030040742,0|0|2,0:0|0:0|0:0,0:0:0:0:
175,239,16247,2,0,P|214:236|241:208,1,78.7500030040742,0|2,0:0|0:0,0:0:0:0:
264,120,16764,6,0,P|317:66|389:89,1,157.500006008148,4|0,0:0|0:0,0:0:0:0:
340,160,17540,1,2,0:0:0:0:
416,204,17799,1,0,0:0:0:0:
348,256,18057,1,0,0:0:0:0:
424,296,18316,2,0,P|392:340|296:328,1,157.500006008148,2|2,0:0|0:0,0:0:0:0:
220,292,19092,5,0,0:0:0:0:
220,292,19221,2,0,P|176:272|116:280,1,78.7500030040742,2|0,0:0|0:0,0:0:0:0:
104,268,19609,2,0,P|36:244|28:164,1,157.500006008148,2|0,0:0|0:0,0:0:0:0:
112,180,20385,1,2,0:0:0:0:
180,124,20644,1,0,0:0:0:0:
317,39,20902,6,0,P|280:48|252:76,2,78.7500030040742,4|0|0,0:0|0:0|0:0,0:0:0:0:
328,124,21678,1,2,0:0:0:0:
336,212,21937,2,0,P|373:203|401:175,2,78.7500030040742,0|0|2,0:0|0:0|0:0,0:0:0:0:
56,360,22971,5,4,0:0:0:0:
88,280,23230,2,0,L|124:188,1,78.7500030040742
132,168,23618,1,2,0:0:0:0:
168,92,23876,2,0,P|256:52|344:92,1,196.875007510186,0|2,0:0|0:0,0:0:0:0:
456,360,25040,5,4,0:0:0:0:
396,300,25299,1,0,0:0:0:0:
352,292,25428,1,0,0:0:0:0:
324,260,25557,2,0,P|308:208|332:156,1,78.7500030040742,0|0,1:0|0:0,0:0:0:0:
372,124,26075,5,0,0:0:0:0:
416,132,26204,1,0,0:0:0:0:
444,164,26333,2,0,P|460:216|436:268,1,78.7500030040742,0|0,0:0|1:0,0:0:0:0:
396,300,26850,1,0,0:0:0:0:
344,368,27109,6,0,P|304:360|280:328,1,78.7500030040742,2|0,0:0|0:0,0:0:0:0:
256,296,27497,2,0,P|212:256|156:264,1,118.125004506111,2|0,0:0|0:0,0:0:0:0:
112,336,28144,5,2,0:0:0:0:
80,308,28273,1,0,0:0:0:0:
64,268,28402,2,0,P|52:208|76:172,1,78.7500030040742,0|0,0:0|1:0,0:0:0:0:
92,116,28919,2,0,P|108:92|116:84,1,39.3750015020371
152,60,29178,6,0,P|196:56|244:84,1,78.7500030040742,4|0,0:0|0:0,0:0:0:0:
280,140,29695,1,2,0:0:0:0:
284,276,29954,1,0,0:0:0:0:
364,160,30213,1,0,1:0:0:0:
228,208,30471,1,0,0:0:0:0:
364,248,30730,1,2,0:0:0:0:
280,140,30988,1,0,0:0:0:0:
284,276,31247,6,0,P|236:328|176:328,1,118.125004506111,0|0,1:0|0:0,0:0:0:0:
148,320,31764,1,2,0:0:0:0:
96,252,32023,1,0,0:0:0:0:
68,172,32281,2,0,L|28:184,2,39.3750015020371,0|0|0,1:0|0:0|0:0,0:0:0:0:
56,84,32799,1,2,0:0:0:0:
136,112,33057,1,0,0:0:0:0:
215,147,33316,6,0,P|281:185|356:166,1,157.500006008148,4|0,0:0|1:0,0:0:0:0:
292,108,34092,2,0,L|276:268,1,157.500006008148,2|0,0:0|0:0,0:0:0:0:
268,352,34868,1,0,1:0:0:0:
268,352,35126,1,0,0:0:0:0:
196,308,35385,6,0,P|156:304|116:324,2,78.7500030040742,4|0|0,0:0|0:0|1:0,0:0:0:0:
344,312,36161,2,0,P|384:316|424:296,2,78.7500030040742,0|2|0,0:0|0:0|0:0,0:0:0:0:
268,352,36937,2,0,L|280:188,1,157.500006008148,0|4,1:0|0:0,0:0:0:0:
280,108,37713,5,0,0:0:0:0:
216,52,37971,1,0,1:0:0:0:
200,172,38230,1,0,0:0:0:0:
104,152,38488,1,2,0:0:0:0:
204,272,38747,1,0,0:0:0:0:
108,316,39006,1,0,1:0:0:0:
204,272,39264,6,0,P|272:252|344:324,2,157.500006008148,2|0|0,0:0|0:0|0:0,0:0:0:0:
256,340,40557,5,2,0:0:0:0:
337,301,40816,1,0,0:0:0:0:
368,220,41075,1,0,1:0:0:0:
336,140,41333,1,0,0:0:0:0:
256,100,41592,1,0,1:0:0:0:
152,316,49256,5,0,0:0:0:0:
152,316,49421,2,0,P|272:348|348:240,1,262.5,4|8,0:0|1:0,0:0:0:0:
316,136,50399,1,0,0:0:0:0:
412,68,50725,5,0,0:0:0:0:
464,96,50888,1,0,0:0:0:0:
484,152,51051,2,0,P|508:212|492:280,1,131.25,0|8,0:0|1:0,0:0:0:0:
404,352,51703,1,0,0:0:0:0:
348,248,52029,2,0,P|288:224|220:240,2,131.25,0|0|8,0:0|0:0|1:0,0:0:0:0:
404,352,53007,1,0,0:0:0:0:
348,248,53334,5,2,0:0:0:0:
304,140,53660,1,0,0:0:0:0:
140,60,53986,1,8,1:0:0:0:
188,168,54312,1,0,0:0:0:0:
123,327,54638,6,0,P|192:320|232:276,2,131.25,4|0|8,0:0|0:0|1:0,0:0:0:0:
72,220,55616,1,0,0:0:0:0:
140,60,55942,2,0,P|71:67|31:111,2,131.25,0|0|8,0:0|0:0|1:0,0:0:0:0:
188,168,56921,1,0,0:0:0:0:
232,276,57247,6,0,P|348:328|384:224,1,262.5,2|8,0:0|1:0,0:0:0:0:
416,116,58225,1,0,0:0:0:0:
252,100,58551,1,2,0:0:0:0:
385,228,58877,1,0,0:0:0:0:
340,24,59203,1,8,1:0:0:0:
272,216,59529,1,0,0:0:0:0:
416,116,59855,6,0,P|480:136|464:304,1,262.5,4|8,0:0|1:0,0:0:0:0:
360,344,60834,2,0,B|302:367|230:339|230:339|170:315|102:339,1,262.5
40,240,61812,1,8,1:0:0:0:
40,240,61975,1,0,0:0:0:0:
40,240,62138,1,0,0:0:0:0:
40,120,62464,6,0,P|64:52|228:100,1,262.5,4|8,0:0|1:0,0:0:0:0:
264,188,63442,2,0,P|421:212|445:144,1,262.5,0|0,0:0|0:0,0:0:0:0:
336,96,64420,1,8,1:0:0:0:
264,188,64747,6,0,P|144:244|164:356,1,262.5,2|0,0:0|0:0,0:0:0:0:
268,300,65725,1,8,1:0:0:0:
268,300,66051,2,0,P|364:308|336:96,1,393.75,2|8,0:0|1:0,0:0:0:0:
264,188,67355,5,0,0:0:0:0:
208,84,67681,2,0,P|148:176|176:268,1,196.875,2|0,0:0|0:0,0:0:0:0:
166,255,68334,1,8,1:0:0:0:
264,188,68660,2,0,P|356:248|435:229,1,196.875,2|0,0:0|0:0,0:0:0:0:
435,228,69312,1,0,0:0:0:0:
372,132,69638,1,8,1:0:0:0:
264,188,69964,1,0,0:0:0:0:
56,288,70290,6,0,P|16:232|20:152,1,131.25,4|0,0:0|0:0,0:0:0:0:
72,68,70942,2,0,P|112:124|108:204,1,131.25,8|0,1:0|0:0,0:0:0:0:
164,292,71594,1,0,0:0:0:0:
164,292,71757,1,0,0:0:0:0:
164,292,71921,1,0,0:0:0:0:
276,324,72247,2,0,P|368:320|408:264,1,131.25,8|0,1:0|0:0,0:0:0:0:
472,208,72899,5,0,0:0:0:0:
452,92,73225,1,0,0:0:0:0:
340,48,73551,2,0,P|248:52|208:108,1,131.25,8|0,1:0|0:0,0:0:0:0:
196,192,74203,6,0,P|136:224|76:208,1,131.25,2|0,0:0|0:0,0:0:0:0:
256,244,74855,2,0,L|256:376,1,131.25,8|0,1:0|0:0,0:0:0:0:
316,192,75507,2,0,P|376:224|436:208,1,131.25,4|0,0:0|0:0,0:0:0:0:
434,209,75997,1,0,0:0:0:0:
434,209,76160,5,8,1:0:0:0:
388,100,76486,1,0,0:0:0:0:
316,192,76812,1,0,0:0:0:0:
256,292,77138,1,0,0:0:0:0:
196,192,77464,2,0,P|136:224|76:208,2,131.25,8|0|0,1:0|0:0|0:0,0:0:0:0:
124,96,78442,1,0,0:0:0:0:
240,84,78768,6,0,L|380:76,1,131.25,8|0,1:0|0:0,0:0:0:0:
492,208,79420,2,0,L|352:200,1,131.25,2|0,0:0|0:0,0:0:0:0:
276,324,80073,2,0,L|416:316,2,131.25,8|0|4,1:0|0:0|0:0,0:0:0:0:
156,328,81051,1,0,0:0:0:0:
156,328,81214,1,0,0:0:0:0:
156,328,81377,6,0,P|56:276|84:144,1,262.5,8|0,1:0|0:0,0:0:0:0:
176,220,82355,2,0,P|240:223|296:179,1,131.25,0|8,0:0|1:0,0:0:0:0:
292,184,82844,1,0,0:0:0:0:
292,184,83007,1,0,0:0:0:0:
348,80,83334,6,0,P|432:100|440:260,1,262.5,4|8,0:0|1:0,0:0:0:0:
368,344,84312,2,0,B|310:367|238:339|238:339|178:315|110:339,1,262.5
60,232,85290,1,8,1:0:0:0:
68,116,85616,6,0,P|120:60|244:248,1,393.75,2|8,0:0|1:0,0:0:0:0:
176,148,86920,2,0,P|320:108|352:304,1,393.75,2|8,0:0|1:0,0:0:0:0:
256,236,88225,1,0,0:0:0:0:
256,192,88551,12,0,89794,0:0:0:0:
256,128,90571,5,2,0:0:0:0:
256,128,90727,1,0,0:0:0:0:
360,80,91038,2,0,P|408:32|464:32,1,125.999996154785,4|0,0:0|0:0,0:0:0:0:
348,196,91676,2,0,P|372:264|248:360,1,251.999992309571,8|0,1:0|0:0,0:0:0:0:
144,316,92613,1,0,0:0:0:0:
144,316,92926,1,8,1:0:0:0:
80,52,93551,5,4,0:0:0:0:
128,156,93863,1,0,0:0:0:0:
204,72,94176,2,0,B|262:95|334:67|334:67|394:43|462:67,1,251.999992309571,8|0,1:0|0:0,0:0:0:0:
396,164,95113,1,0,0:0:0:0:
324,252,95426,2,0,P|284:300|220:316,1,125.999996154785,8|0,1:0|0:0,0:0:0:0:
40,316,96051,5,4,0:0:0:0:
40,316,96207,2,0,P|16:340|8:368,2,62.9999980773926,0|0|0,0:0|0:0|0:0,0:0:0:0:
40,316,96676,2,0,P|100:280|108:96,1,251.999992309571,8|0,1:0|0:0,0:0:0:0:
120,113,97457,1,0,0:0:0:0:
120,113,97613,2,0,P|109:49|185:37,2,125.999996154785,2|8|0,0:0|1:0|0:0,0:0:0:0:
232,96,98551,6,0,P|280:128|356:120,1,125.999996154785,4|0,0:0|0:0,0:0:0:0:
364,72,99019,1,0,0:0:0:0:
416,48,99176,1,8,1:0:0:0:
468,72,99332,1,0,0:0:0:0:
476,128,99488,1,0,0:0:0:0:
444,176,99644,1,0,0:0:0:0:
388,176,99801,6,0,P|356:212|356:292,1,125.999996154785,2|0,0:0|0:0,0:0:0:0:
158,286,100426,2,0,P|156:212|124:176,1,125.999996154785,8|0,1:0|0:0,0:0:0:0:
170,121,100894,2,0,P|210:149|338:121,1,188.999994232178,2|0,0:0|0:0,0:0:0:0:
256,40,101676,1,8,1:0:0:0:
256,280,101988,5,0,0:0:0:0:
256,280,102144,1,0,0:0:0:0:
256,280,102301,2,0,P|372:296|388:264,1,125.999996154785,2|0,0:0|0:0,0:0:0:0:
362,304,102769,1,0,0:0:0:0:
362,304,102926,2,0,P|396:252|352:176,1,125.999996154785,8|0,1:0|0:0,0:0:0:0:
268,168,103551,6,0,P|184:116|72:184,1,188.999994232178,4|0,0:0|0:0,0:0:0:0:
103,141,104176,1,8,1:0:0:0:
172,232,104488,1,0,0:0:0:0:
172,232,104644,1,0,0:0:0:0:
172,232,104801,2,0,P|168:308|272:336,1,188.999994232178,2|0,0:0|0:0,0:0:0:0:
261,341,105426,1,8,1:0:0:0:
368,304,105738,1,0,0:0:0:0:
408,196,106051,6,0,P|412:120|308:92,1,188.999994232178,4|0,0:0|0:0,0:0:0:0:
318,86,106676,1,8,1:0:0:0:
208,120,106988,1,0,0:0:0:0:
208,120,107144,1,0,0:0:0:0:
208,120,107301,6,0,P|112:164|68:148,1,125.999996154785,2|0,0:0|0:0,0:0:0:0:
36,300,107926,2,0,P|132:256|176:272,1,125.999996154785,0|0,1:0|0:0,0:0:0:0:
288,208,108551,2,0,P|244:304|260:348,2,125.999996154785,2|0|2,0:0|0:0|0:0,0:0:0:0:
480,328,109827,6,0,P|500:240|412:48,1,293.999991027832,2|0,0:0|0:0,0:0:0:0:
224,64,111070,5,0,0:0:0:0:
224,64,111258,2,0,P|100:84|48:200,1,262.5,4|8,0:0|1:0,0:0:0:0:
40,332,112236,1,0,0:0:0:0:
168,372,112562,2,0,P|204:368|268:304,2,131.25,0|0|8,0:0|0:0|1:0,0:0:0:0:
164,256,113540,5,0,0:0:0:0:
160,136,113866,2,0,P|123:139|59:203,2,131.25,0|0|8,0:0|0:0|1:0,0:0:0:0:
164,256,114844,1,0,0:0:0:0:
260,188,115171,2,0,P|296:112|264:40,1,131.25,2|0,0:0|0:0,0:0:0:0:
344,220,115823,2,0,P|308:296|340:368,1,131.25,8|0,1:0|0:0,0:0:0:0:
424,208,116475,6,0,P|452:128|525:100,1,131.25,4|0,0:0|0:0,0:0:0:0:
396,36,117127,1,8,1:0:0:0:
286,69,117453,1,0,0:0:0:0:
172,104,117779,1,0,0:0:0:0:
56,132,118105,1,0,0:0:0:0:
136,216,118431,6,0,L|164:344,1,131.25,8|0,1:0|0:0,0:0:0:0:
256,272,119084,1,0,0:0:0:0:
368,236,119410,1,0,0:0:0:0:
488,236,119736,6,0,P|448:184|452:108,1,131.25,8|0,1:0|0:0,0:0:0:0:
368,236,120388,2,0,P|408:288|404:364,1,131.25,2|0,0:0|0:0,0:0:0:0:
296,308,121040,2,0,P|256:256|260:180,1,131.25,8|0,1:0|0:0,0:0:0:0:
368,152,121692,6,0,P|320:80|200:88,1,196.875,4|0,0:0|0:0,0:0:0:0:
217,76,122344,1,8,1:0:0:0:
256,192,122671,2,0,P|192:254|220:371,1,196.875
204,353,123323,1,0,0:0:0:0:
324,352,123649,1,8,1:0:0:0:
324,352,123812,1,0,0:0:0:0:
324,352,123975,1,0,0:0:0:0:
420,280,124301,6,0,P|456:220|428:96,1,196.875,4|0,0:0|0:0,0:0:0:0:
432,100,124953,1,8,1:0:0:0:
356,192,125279,2,0,P|296:156|172:184,1,196.875
176,179,125931,1,0,0:0:0:0:
256,264,126258,1,8,1:0:0:0:
96,88,126584,6,0,P|278:33|461:131,1,393.75,2|8,0:0|1:0,0:0:0:0:
404,241,127888,2,0,P|312:141|108:241,1,393.75,2|8,0:0|1:0,0:0:0:0:
148,348,129192,1,0,0:0:0:0:
268,324,129518,6,0,P|381:355|404:240,1,262.5,2|8,0:0|1:0,0:0:0:0:
340,136,130497,2,0,P|227:105|204:220,1,262.5,2|0,0:0|0:0,0:0:0:0:
320,248,131475,1,8,1:0:0:0:
120,296,131964,5,0,0:0:0:0:
108,224,132127,2,0,P|120:116|228:16,1,262.5,4|8,0:0|1:0,0:0:0:0:
332,72,133105,1,0,0:0:0:0:
332,72,133268,1,0,0:0:0:0:
332,72,133431,2,0,P|393:94|452:72,1,131.25,0|0,0:0|0:0,0:0:0:0:
316,188,134084,6,0,P|255:166|196:188,1,131.25,8|0,1:0|0:0,0:0:0:0:
100,252,134736,1,0,0:0:0:0:
100,252,134899,1,0,0:0:0:0:
100,252,135062,1,0,0:0:0:0:
196,328,135388,2,0,P|257:350|316:328,1,131.25,8|0,1:0|0:0,0:0:0:0:
420,168,136040,5,2,0:0:0:0:
316,224,136366,1,0,0:0:0:0:
196,224,136692,1,8,1:0:0:0:
92,168,137018,1,0,0:0:0:0:
200,116,137344,6,0,P|244:88|312:116,1,131.25,4|0,0:0|0:0,0:0:0:0:
312,328,137997,2,0,P|268:356|200:328,1,131.25,8|0,1:0|0:0,0:0:0:0:
116,240,138649,1,0,0:0:0:0:
116,240,138812,1,0,0:0:0:0:
116,240,138975,2,0,P|52:256|40:328,2,131.25,0|8|0,0:0|1:0|0:0,0:0:0:0:
96,124,139953,2,0,P|168:136|224:172,1,131.25
301,250,140605,5,8,1:0:0:0:
393,98,140931,1,0,0:0:0:0:
217,166,141258,1,2,0:0:0:0:
400,204,141584,1,0,0:0:0:0:
281,66,141910,1,8,1:0:0:0:
301,250,142236,1,0,0:0:0:0:
217,166,142562,6,0,P|137:202|177:298,1,196.875,4|0,0:0|0:0,0:0:0:0:
162,291,143214,1,8,1:0:0:0:
281,290,143540,2,0,P|361:254|321:158,1,196.875
335,164,144192,1,0,0:0:0:0:
217,166,144518,1,8,1:0:0:0:
217,166,144681,1,0,0:0:0:0:
217,166,144844,1,0,0:0:0:0:
436,124,145171,6,0,P|468:200|444:308,1,196.875,4|0,0:0|0:0,0:0:0:0:
443,308,145823,1,8,1:0:0:0:
348,220,146149,2,0,P|270:190|163:218,1,196.875
163,218,146801,1,0,0:0:0:0:
256,304,147127,1,8,1:0:0:0:
104,115,147453,6,0,P|250:65|412:116,1,328.125,2|0,0:0|0:0,0:0:0:0:
411,115,148431,1,8,1:0:0:0:
376,304,148758,2,0,P|256:176|136:304,1,393.75,2|8,0:0|1:0,0:0:0:0:
257,359,150062,1,0,0:0:0:0:
256,192,150388,12,0,151692,0:0:0:0:
180,244,152997,6,0,P|216:320|332:244,1,262.5,4|8,0:0|1:0,0:0:0:0:
256,156,153975,1,0,0:0:0:0:
356,96,154301,2,0,P|416:124|456:196,1,131.25
256,156,154953,2,0,P|196:128|156:56,1,131.25,8|0,1:0|0:0,0:0:0:0:
44,104,155605,6,0,P|52:176|224:284,1,262.5,4|8,0:0|1:0,0:0:0:0:
308,252,156584,1,0,0:0:0:0:
392,332,156910,2,0,P|436:280|424:204,1,131.25
392,32,157562,2,0,P|348:84|360:160,1,131.25,8|0,1:0|0:0,0:0:0:0:
308,252,158214,6,0,P|216:292|64:228,1,262.5,4|8,0:0|1:0,0:0:0:0:
64,120,159192,1,0,0:0:0:0:
120,16,159518,2,0,P|184:64|184:136,1,131.25
212,308,160171,2,0,P|148:260|140:213,1,131.25,8|0,1:0|0:0,0:0:0:0:
64,120,160823,6,0,P|184:40|320:96,1,262.5,4|8,0:0|1:0,0:0:0:0:
348,172,161801,1,0,0:0:0:0:
316,284,162127,2,0,P|360:340|424:360,1,131.25
196,284,162779,2,0,P|152:340|88:360,1,131.25,8|0,1:0|0:0,0:0:0:0:
164,172,163431,6,0,P|236:200|348:172,1,196.875,4|0,0:0|0:0,0:0:0:0:
348,171,164084,1,8,1:0:0:0:
256,96,164410,1,0,0:0:0:0:
256,96,164573,2,0,P|276:32|376:40,1,131.25,2|2,0:0|0:0,0:0:0:0:
332,14,165062,1,0,0:0:0:0:
452,144,165388,1,8,1:0:0:0:
360,292,165714,1,0,0:0:0:0:
188,256,166040,6,0,P|88:208|76:124,1,196.875,4|0,0:0|0:0,0:0:0:0:
74,131,166692,1,8,1:0:0:0:
192,144,167018,1,0,0:0:0:0:
192,144,167181,2,0,P|260:120|268:56,1,131.25,2|2,0:0|0:0,0:0:0:0:
271,68,167671,1,0,0:0:0:0:
444,40,167997,1,8,1:0:0:0:
488,208,168323,1,0,0:0:0:0:
308,256,168649,6,0,P|208:288|168:372,1,196.875,4|0,0:0|0:0,0:0:0:0:
168,365,169301,1,8,1:0:0:0:
104,268,169627,1,0,0:0:0:0:
104,268,169790,2,0,P|148:204|212:176,1,131.25,2|2,0:0|0:0,0:0:0:0:
194,179,170279,1,0,0:0:0:0:
364,144,170605,1,8,1:0:0:0:
248,16,170931,1,0,0:0:0:0:
194,179,171257,6,0,P|88:164|60:80,1,196.875,4|0,0:0|0:0,0:0:0:0:
58,89,171910,1,8,1:0:0:0:
12,196,172236,2,0,P|32:228|60:248,1,65.625,0|2,0:0|0:0,0:0:0:0:
64,364,172725,2,0,P|44:332|16:312,1,65.625,2|0,0:0|0:0,0:0:0:0:
196,320,173214,1,8,1:0:0:0:
356,248,173540,1,0,0:0:0:0:
436,100,173866,6,0,P|384:52|236:160,1,262.5,4|8,0:0|1:0,0:0:0:0:
236,172,174681,1,0,0:0:0:0:
220,208,174844,1,0,0:0:0:0:
184,228,175007,1,0,0:0:0:0:
144,232,175171,2,0,P|88:272|96:328,2,131.25,2|0|8,0:0|0:0|1:0,0:0:0:0:
228,316,176149,1,0,0:0:0:0:
340,284,176475,6,0,P|428:224|424:68,1,262.5,4|8,0:0|1:0,0:0:0:0:
404,52,177290,1,0,0:0:0:0:
368,36,177453,1,0,0:0:0:0:
328,40,177616,1,0,0:0:0:0:
296,60,177779,2,0,P|292:124|232:144,1,131.25,2|0,0:0|0:0,0:0:0:0:
196,132,178268,1,0,0:0:0:0:
156,120,178431,2,0,P|99:140|95:204,1,131.25,8|0,1:0|0:0,0:0:0:0:
144,312,179084,6,0,P|232:368|368:312,1,262.5,4|8,0:0|1:0,0:0:0:0:
376,272,179899,1,0,0:0:0:0:
360,236,180062,2,0,P|372:164|448:152,1,131.25,0|2,0:0|0:0,0:0:0:0:
308,40,180714,2,0,P|296:112|220:124,2,131.25,0|8|0,0:0|1:0|0:0,0:0:0:0:
160,48,181692,5,2,0:0:0:0:
100,152,182018,1,0,0:0:0:0:
44,256,182344,1,8,1:0:0:0:
260,356,182997,6,0,P|328:304|360:132,1,262.5,2|8,0:0|1:0,0:0:0:0:
460,72,183975,2,0,P|488:188|456:344,1,262.5,2|0,0:0|0:0,0:0:0:0:
364,264,184953,5,8,1:0:0:0:
364,264,185116,2,0,P|388:204|374:140,1,131.25
336,96,185605,2,0,P|279:65|215:73,2,131.25,2|0|8,0:0|0:0|1:0,0:0:0:0:
256,200,186584,1,0,0:0:0:0:
256,200,186910,6,0,P|272:272|184:340,1,196.875,4|0,0:0|0:0,0:0:0:0:
152,336,187562,1,8,1:0:0:0:
120,324,187725,1,0,0:0:0:0:
92,304,187888,2,0,P|60:328|48:376,2,65.625,0|0|2,0:0|0:0|0:0,0:0:0:0:
140,196,188540,1,0,0:0:0:0:
256,200,188866,2,0,P|320:172|332:116,1,131.25,8|0,1:0|0:0,0:0:0:0:
424,44,189518,6,0,P|432:168|408:236,1,196.875,4|0,0:0|0:0,0:0:0:0:
408,235,190171,1,8,1:0:0:0:
336,328,190497,2,0,P|356:344|396:352,2,65.625,0|0|2,0:0|0:0|0:0,0:0:0:0:
408,236,191149,5,0,0:0:0:0:
352,132,191475,1,8,1:0:0:0:
256,64,191801,1,0,0:0:0:0:
159,131,192127,6,0,P|71:139|7:75,2,131.25,2|0|8,0:0|0:0|1:0,0:0:0:0:
256,64,193105,1,0,0:0:0:0:
352,132,193431,2,0,P|444:180|348:236,2,262.5,2|8|4,0:0|1:0|0:0,0:0:0:0:
256,192,212997,12,8,214953,1:0:0:0:
360,68,215442,5,0,0:0:0:0:
360,68,215605,2,0,P|240:36|164:144,1,262.5,4|8,0:0|1:0,0:0:0:0:
196,248,216584,1,0,0:0:0:0:
100,316,216910,5,2,0:0:0:0:
48,288,217073,1,0,0:0:0:0:
28,232,217236,2,0,P|4:172|20:104,1,131.25,0|8,0:0|1:0,0:0:0:0:
108,32,217888,1,0,0:0:0:0:
164,136,218214,2,0,P|224:160|292:144,2,131.25,2|0|8,0:0|0:0|1:0,0:0:0:0:
108,32,219192,1,0,0:0:0:0:
164,136,219518,5,2,0:0:0:0:
208,244,219844,1,0,0:0:0:0:
372,324,220171,1,8,1:0:0:0:
324,216,220497,1,0,0:0:0:0:
389,57,220823,6,0,P|320:64|280:108,2,131.25,4|0|8,0:0|0:0|1:0,0:0:0:0:
440,164,221801,1,0,0:0:0:0:
372,324,222127,2,0,P|441:317|481:273,2,131.25,2|0|8,0:0|0:0|1:0,0:0:0:0:
324,216,223105,1,0,0:0:0:0:
280,108,223431,6,0,P|164:56|128:160,1,262.5,2|8,0:0|1:0,0:0:0:0:
96,268,224410,1,0,0:0:0:0:
260,284,224736,1,2,0:0:0:0:
126,155,225062,1,0,0:0:0:0:
172,360,225388,1,8,1:0:0:0:
240,168,225714,1,0,0:0:0:0:
96,268,226040,6,0,P|32:248|48:80,1,262.5,4|8,0:0|1:0,0:0:0:0:
152,40,227018,2,0,B|210:17|282:45|282:45|342:69|410:45,1,262.5,2|0,0:0|0:0,0:0:0:0:
472,144,227997,1,8,1:0:0:0:
472,144,228160,1,0,0:0:0:0:
472,144,228323,1,0,0:0:0:0:
472,264,228649,6,0,P|448:332|284:284,1,262.5,4|8,0:0|1:0,0:0:0:0:
248,196,229627,2,0,P|91:172|67:240,1,262.5,2|0,0:0|0:0,0:0:0:0:
176,288,230605,1,8,1:0:0:0:
248,196,230931,6,0,P|368:140|348:28,1,262.5,2|0,0:0|0:0,0:0:0:0:
244,84,231910,1,8,1:0:0:0:
244,84,232236,2,0,P|148:76|176:288,1,393.75,2|8,0:0|1:0,0:0:0:0:
248,196,233540,5,0,0:0:0:0:
318,291,233866,2,0,P|414:207|350:107,1,262.5,2|0,0:0|0:0,0:0:0:0:
116,116,235171,6,0,P|80:140|72:200,1,105,2|0,0:0|0:0,0:0:0:0:
144,256,235823,2,0,P|188:236|208:132,1,157.5,0|0,0:0|0:0,0:0:0:0:
204,116,236475,2,0,P|283:56|438:87,1,262.5,2|0,0:0|0:0,2:0:0:0:
435,85,237432,1,0,0:0:0:0:
412,180,237751,5,2,0:0:0:0:
496,224,238070,2,0,P|428:272|328:216,1,210
312,328,239028,6,0,P|264:288|244:224,1,131.25,2|0,0:0|0:0,0:0:0:0:
120,244,239725,2,0,P|144:188|216:152,1,131.25,2|0,0:0|0:0,0:0:0:0:
328,144,240465,6,0,P|272:32|140:52,1,262.5,2|0,0:0|0:0,0:0:0:0:
72,136,241511,1,0,0:0:0:0:
164,232,241860,5,2,0:0:0:0:
164,232,242200,2,0,P|196:338|336:340,1,270.900004133606
424,252,243223,6,0,P|364:108|174:111,1,367.5,2|0,0:0|0:0,0:0:0:0:
174,110,244741,1,2,0:0:0:0:
256,192,244931,12,0,247779,0:0:0:0:
