osu file format v13

[General]
AudioFilename: Bleach_-_Aoi_Tori.mp3
AudioLeadIn: 0
PreviewTime: 45891
Countdown: 1
SampleSet: Soft
StackLeniency: 1
Mode: 0
LetterboxInBreaks: 1
WidescreenStoryboard: 0

[Editor]
DistanceSpacing: 0.7
BeatDivisor: 4
GridSize: 4
TimelineZoom: 2.8

[Metadata]
Title:Aoi Tori
TitleUnicode:Aoi Tori
Artist:Fumika
ArtistUnicode:Fumika
Creator:Avishay
Version:Insane
Source:BLEACH
Tags:
BeatmapID:363685
BeatmapSetID:145994

[Difficulty]
HPDrainRate:7
CircleSize:4
OverallDifficulty:8.5
ApproachRate:8.5
SliderMultiplier:1.8
SliderTickRate:1

[Events]
//Background and Video events
0,0,"b.jpg",0,0
//Break Periods
//Storyboard Layer 0 (Background)
//Storyboard Layer 1 (Fail)
//Storyboard Layer 2 (Pass)
//Storyboard Layer 3 (Foreground)
//Storyboard Sound Samples
//Background Colour Transformations
3,100,163,162,255

[TimingPoints]
507,384.615384615385,4,2,1,40,1,0
795,-100,4,2,1,5,0,0
891,-100,4,2,1,40,0,0
1180,-100,4,2,1,5,0,0
1276,-100,4,2,1,40,0,0
1564,-100,4,2,1,5,0,0
1660,-100,4,2,1,40,0,0
3583,-200,4,2,1,40,0,0
9353,-100,4,2,1,40,0,0
17430,-133.333333333333,4,2,1,40,0,0
17814,-100,4,2,1,40,0,0
28199,-100,4,2,1,40,0,0
34353,-133.333333333333,4,2,1,40,0,0
43872,-133.333333333333,4,2,1,5,0,0
45122,-133.333333333333,4,2,1,40,0,0
45507,-100,4,2,1,40,0,0
45891,-100,4,2,1,40,0,0
46083,-76.9230769230769,4,2,1,60,0,1
48007,-66.6666666666667,4,2,1,60,0,1
49545,-76.9230769230769,4,2,1,60,0,1
50891,-66.6666666666667,4,2,1,60,0,1
56180,-66.6666666666667,4,2,1,5,0,1
56276,-66.6666666666667,4,2,1,60,0,1
58391,-76.9230769230769,4,2,1,60,0,1
62622,-100,4,2,1,60,0,1
66660,-66.6666666666667,4,2,1,60,0,1
74160,-133.333333333333,4,2,1,60,0,1
74737,-133.333333333333,4,2,1,40,0,1
74930,-133.333333333333,4,2,1,30,0,1
77430,-100,4,2,1,45,0,0
78968,-100,4,1,1,50,0,0
79016,-100,4,2,1,25,0,0
79545,-100,4,2,1,60,0,0
86660,-100,4,1,1,85,0,0
87430,-100,4,2,1,50,0,0
111083,-133.333333333333,4,2,1,35,0,0
114641,-133.333333333333,4,2,1,5,0,0
114737,-133.333333333333,4,2,1,20,0,0
115122,-133.333333333333,4,2,1,40,0,0
120122,-100,4,2,1,40,0,0
122430,-66.6666666666667,4,2,1,55,0,0
123007,-66.6666666666667,4,2,1,60,0,1
125507,-57.1428571428571,4,2,1,60,0,1
126660,-66.6666666666667,4,2,1,60,0,1
133103,-66.6666666666667,4,2,1,10,0,1
133199,-66.6666666666667,4,2,1,60,0,1
141468,-100,4,2,1,60,0,1
142430,-66.6666666666667,4,2,1,60,0,1
148199,-57.1428571428571,4,2,1,60,0,1
148583,-66.6666666666667,4,2,1,60,0,1
148968,-80,4,2,1,60,0,1
149353,-66.6666666666667,4,2,1,60,0,1
154160,-66.6666666666667,4,2,1,50,0,0
162814,-100,4,2,1,50,0,0
163103,-100,4,2,1,5,0,0
163199,-100,4,2,1,50,0,0
172718,-100,4,2,1,45,0,0
173391,-100,4,2,1,35,0,0
173968,-100,4,2,1,45,0,0
181276,-100,4,2,1,55,0,0
182333,-100,4,2,1,5,0,0
182430,-100,4,2,1,45,0,0
188103,-100,4,2,1,5,0,0
188199,-100,4,2,1,50,0,0
189641,-100,4,2,1,5,0,0
189737,-100,4,2,1,50,0,0
193968,-133.333333333333,4,2,1,50,0,0
195507,-133.333333333333,4,2,1,35,0,0
196276,-133.333333333333,4,2,1,45,0,0
196468,-133.333333333333,4,2,1,55,0,0
196660,-133.333333333333,4,2,1,65,0,0
196853,-133.333333333333,4,2,1,35,0,0
202910,-133.333333333333,4,2,1,5,0,0
203007,-133.333333333333,4,2,1,35,0,0
206660,-200,4,2,1,45,0,0
208007,-66.6666666666667,4,2,1,50,0,0
208583,-66.6666666666667,4,2,1,25,0,0
208776,-66.6666666666667,4,2,1,50,0,0
209160,-66.6666666666667,4,2,1,60,0,1
215795,-133.333333333333,4,2,1,60,0,1
216853,-66.6666666666667,4,2,1,60,0,1
228199,-100,4,2,1,55,0,0
258583,-100,4,2,1,5,0,0

[Colours]
Combo1 : 250,180,75
Combo2 : 128,255,0
Combo3 : 255,255,0
Combo4 : 255,128,255
Combo5 : 128,255,255

[HitObjects]
24,192,507,6,0,B|48:272|112:112|128:216|128:216,1,135,8|0,0:0|0:0,0:0:0:0:
152,232,891,2,0,P|192:248|264:200,1,135,8|0,0:0|0:0,0:0:0:0:
284,180,1276,2,0,P|324:152|396:192,1,135,8|0,0:0|0:0,0:0:0:0:
404,220,1660,2,0,P|392:288|324:300,1,135,8|0,0:0|0:0,0:0:0:0:
308,296,2045,6,0,L|260:296,3,45
240,276,2430,2,0,L|180:276,3,45
172,264,2814,1,0,0:0:0:0:
156,252,2910,1,0,0:0:0:0:
140,240,3007,1,0,0:0:0:0:
128,220,3103,1,0,0:0:0:0:
124,196,3199,1,0,0:0:0:0:
128,172,3295,1,0,0:0:0:0:
140,152,3391,1,0,0:0:0:0:
160,136,3487,1,0,0:0:0:0:
184,137,3583,2,0,B|160:256|360:256|332:133,1,270
56,40,4930,5,0,0:0:0:0:
88,112,5122,2,0,B|89:120|65:168|121:192|57:216|120:160|120:256,1,135,0|4,0:0|0:0,0:0:0:0:
156,328,5891,1,8,0:0:0:0:
208,208,6083,5,2,0:0:0:0:
300,328,6276,1,0,0:0:0:0:
196,220,6468,1,0,0:0:0:0:
328,344,6660,2,0,P|376:288|376:128,1,225,2|0,0:0|0:0,0:0:0:0:
288,192,7814,6,0,P|272:152|224:136,1,90
88,176,8583,2,0,L|88:192,11,11.25
176,256,9160,1,8,0:0:0:0:
304,288,9353,2,0,P|368:272|432:180,1,180,8|10,0:0|0:0,0:0:0:0:
265,187,10122,6,0,B|324:227|324:227|303:288,2,135,0|0|0,0:0|0:0|0:0,0:0:0:0:
348,88,10891,1,0,0:0:0:0:
220,212,11083,1,0,0:0:0:0:
40,224,11276,2,0,P|88:192|104:156,1,90
180,88,11660,1,8,0:0:0:0:
252,168,11853,1,2,0:0:0:0:
284,184,11949,1,2,0:0:0:0:
320,192,12045,1,2,0:0:0:0:
400,80,12237,5,0,0:0:0:0:
424,168,12430,1,0,0:0:0:0:
444,256,12622,1,2,0:0:0:0:
448,300,12718,1,2,0:0:0:0:
452,344,12814,2,0,P|392:252|324:268,1,180,8|8,0:0|0:0,0:0:0:0:
244,332,13391,1,0,0:0:0:0:
304,184,13583,1,0,0:0:0:0:
200,264,13776,2,0,L|104:244,2,90
440,272,14353,5,0,0:0:0:0:
200,240,14545,1,2,0:0:0:0:
308,160,14737,1,8,0:0:0:0:
320,248,14930,1,2,0:0:0:0:
323,279,15026,1,2,0:0:0:0:
326,311,15122,1,2,0:0:0:0:
72,184,15314,5,0,0:0:0:0:
248,132,15507,1,0,0:0:0:0:
148,92,15699,1,0,0:0:0:0:
284,224,15891,2,8,P|256:260|212:300,1,90,8|0,0:0|0:0,0:0:0:0:
248,132,16276,1,8,0:0:0:0:
72,184,16468,2,2,P|128:188|176:216,1,90,2|8,0:0|0:0,0:0:0:0:
256,280,16853,5,0,0:0:0:0:
256,280,17045,1,8,0:0:0:0:
312,340,17237,1,0,0:0:0:0:
312,340,17430,2,0,P|388:332|408:308,1,101.250003862381,8|0,0:0|0:0,0:0:0:0:
408,296,17814,2,0,L|420:196,1,90,8|0,0:0|0:0,0:0:0:0:
292,184,18199,1,0,0:0:0:0:
232,100,18391,1,0,0:0:0:0:
320,48,18583,2,0,P|376:48|416:52,1,90,0|0,0:0|0:0,0:0:0:0:
288,60,18872,1,0,0:0:0:0:
260,76,18968,1,0,0:0:0:0:
56,184,19353,5,8,0:0:0:0:
204,132,19545,2,0,L|235:100,2,45,2|2|2,0:0|0:0|0:0,0:0:0:0:
228,300,19930,1,2,0:0:0:0:
228,300,20026,1,2,0:0:0:0:
227,299,20122,2,0,P|304:336|392:288,2,180,2|2|2,0:0|0:0|0:0,0:0:0:0:
288,164,21276,5,2,0:0:0:0:
228,300,21660,5,2,0:0:0:0:
48,32,22045,5,8,0:0:0:0:
108,152,22430,5,0,0:0:0:0:
340,112,22622,1,2,0:0:0:0:
340,112,22718,1,2,0:0:0:0:
340,112,22814,2,0,P|312:112|256:148,1,90,2|2,0:0|0:0,0:0:0:0:
224,224,23199,2,0,B|252:224|252:224|300:272|336:240,1,90,8|0,0:0|0:0,0:0:0:0:
396,252,23583,1,0,0:0:0:0:
396,252,23776,5,0,0:0:0:0:
224,224,23968,1,8,0:0:0:0:
196,124,24160,1,2,0:0:0:0:
172,104,24257,1,2,0:0:0:0:
140,80,24353,1,2,0:0:0:0:
64,208,24545,1,0,0:0:0:0:
64,208,24737,1,0,0:0:0:0:
244,192,25122,1,8,0:0:0:0:
424,216,25507,6,0,B|444:256|448:304|492:336,2,135,8|2|8,0:0|0:0|0:0,0:0:0:0:
360,152,26276,1,0,0:0:0:0:
276,120,26468,1,0,0:0:0:0:
188,108,26660,1,0,0:0:0:0:
284,240,26853,1,0,0:0:0:0:
200,268,27045,1,0,0:0:0:0:
116,236,27237,1,0,0:0:0:0:
104,216,27333,2,0,L|124:175,1,45,8|0,0:0|0:0,0:0:0:0:
224,148,27622,5,0,0:0:0:0:
260,252,27814,1,0,0:0:0:0:
164,48,28007,1,0,0:0:0:0:
164,48,28103,1,0,0:0:0:0:
164,48,28199,2,0,P|81:81|54:164,1,180,8|0,0:0|0:0,0:0:0:0:
156,152,28776,2,0,B|248:208|248:208|300:152,1,180,8|0,0:0|0:0,0:0:0:0:
388,160,29353,1,8,0:0:0:0:
344,260,29545,5,0,0:0:0:0:
388,160,29737,2,0,P|352:84|252:80,1,180,0|8,0:0|0:0,0:0:0:0:
300,152,30314,1,2,0:0:0:0:
304,184,30410,1,2,0:0:0:0:
316,216,30507,1,2,0:0:0:0:
176,212,30699,5,0,0:0:0:0:
128,288,30891,1,0,0:0:0:0:
288,192,31083,1,2,0:0:0:0:
256,160,31180,1,2,0:0:0:0:
216,140,31276,2,0,P|143:131|84:216,1,180,10|0,0:0|0:0,0:0:0:0:
176,212,31853,1,2,0:0:0:0:
152,172,31949,1,2,0:0:0:0:
124,136,32045,1,8,0:0:0:0:
128,288,32237,1,0,0:0:0:0:
36,168,32430,5,8,0:0:0:0:
96,107,32622,2,0,P|140:105|182:119,1,90
292,305,33007,5,2,0:0:0:0:
292,78,33199,1,8,0:0:0:0:
159,262,33391,1,2,0:0:0:0:
375,192,33583,1,8,0:0:0:0:
375,192,33680,1,0,0:0:0:0:
375,192,33776,5,0,0:0:0:0:
272,108,33968,1,2,0:0:0:0:
144,148,34160,1,2,0:0:0:0:
56,280,34353,6,0,P|81:194|76:160,1,101.250003862381,8|0,0:0|0:0,0:0:0:0:
52,132,34737,2,0,P|108:136|140:128,1,67.5000025749208,0|0,0:0|0:0,0:0:0:0:
172,176,35026,1,0,0:0:0:0:
172,176,35122,2,0,L|248:156,2,67.5000025749208,0|0|8,0:0|0:0|0:0,0:0:0:0:
312,296,35699,1,8,0:0:0:0:
368,212,35891,1,0,0:0:0:0:
372,188,35987,1,0,0:0:0:0:
376,164,36083,1,0,0:0:0:0:
372,140,36180,1,0,0:0:0:0:
364,116,36276,1,0,0:0:0:0:
240,172,36468,1,0,0:0:0:0:
156,148,36660,6,0,P|180:108|204:92,2,67.5000025749208,2|0|0,0:0|0:0|0:0,0:0:0:0:
316,128,37237,1,8,0:0:0:0:
391,140,37430,2,0,P|370:78|309:51,2,135.000005149842,8|0|0,0:0|0:0|0:0,0:0:0:0:
316,128,38391,2,0,P|306:161|252:172,2,67.5000025749208,0|0|0,0:0|0:0|0:0,0:0:0:0:
368,64,38872,1,0,0:0:0:0:
368,64,38968,2,0,P|336:48|236:52,1,135.000005149842,0|0,0:0|0:0,0:0:0:0:
216,60,39449,1,0,0:0:0:0:
196,72,39545,1,0,0:0:0:0:
204,212,39737,6,0,P|179:189|147:179,1,67.5000025749208,10|2,0:0|0:0,0:0:0:0:
80,172,40122,1,10,0:0:0:0:
240,136,40314,1,0,0:0:0:0:
112,276,40507,1,10,0:0:0:0:
212,292,40699,1,0,0:0:0:0:
312,288,40891,1,0,0:0:0:0:
211,261,41083,1,0,0:0:0:0:
291,113,41276,5,0,0:0:0:0:
399,282,41468,1,0,0:0:0:0:
348,204,41660,1,0,0:0:0:0:
256,192,41853,1,0,0:0:0:0:
364,28,42045,2,0,P|372:56|372:112,1,67.5000025749208,2|0,0:0|0:0,0:0:0:0:
376,176,42430,1,0,0:0:0:0:
336,248,42622,5,2,0:0:0:0:
324,284,42718,1,2,0:0:0:0:
304,320,42814,2,0,P|255:339|216:332,2,67.5000025749208,2|0|0,0:0|0:0|0:0,0:0:0:0:
364,160,43391,1,0,0:0:0:0:
256,192,43583,2,0,P|209:191|220:128,1,101.250003862381
260,76,43968,2,0,L|356:72,1,90,0|8,0:0|0:0,0:0:0:0:
256,192,44353,12,8,44930,0:0:0:0:
68,136,45122,5,8,0:0:0:0:
68,136,45314,1,8,0:0:0:0:
68,136,45507,2,0,P|96:96|140:72,1,90,2|0,0:0|0:0,0:0:0:0:
160,88,45795,2,0,P|212:124|300:88,1,135,2|0,0:0|0:0,0:0:0:0:
392,84,46276,2,0,B|363:146|363:146|360:194,1,116.999994644165,2|8,0:0|0:0,0:0:0:0:
256,248,46660,2,0,P|324:300|412:292,1,175.499991966248
456,256,47045,2,0,P|479:202|483:144,1,116.999994644165,0|2,0:0|0:0,0:0:0:0:
476,88,47333,2,0,P|446:80|448:52,1,58.4999973220826,2|2,0:0|0:0,0:0:0:0:
328,64,47622,5,2,0:0:0:0:
296,72,47718,1,2,0:0:0:0:
264,68,47814,1,2,0:0:0:0:
132,96,48007,2,0,B|92:244|92:244|248:276|140:368,1,270.000010299683,0|2,0:0|0:0,0:0:0:0:
268,196,48583,1,8,0:0:0:0:
396,152,48776,1,0,0:0:0:0:
396,152,48872,1,0,0:0:0:0:
396,152,48968,1,0,0:0:0:0:
152,220,49160,1,0,0:0:0:0:
52,128,49353,5,0,0:0:0:0:
156,52,49545,1,0,0:0:0:0:
128,260,49737,2,0,B|184:208|184:208|240:96|304:108,1,233.999989288331,0|2,0:0|0:0,0:0:0:0:
300,156,50218,1,0,0:0:0:0:
308,204,50314,1,0,0:0:0:0:
300,252,50410,1,0,0:0:0:0:
276,292,50507,2,0,P|232:320|152:340,1,116.999994644165,8|8,0:0|0:0,0:0:0:0:
436,132,50891,6,0,L|392:268,1,135.000005149842,8|0,0:0|0:0,0:0:0:0:
117,260,51468,2,0,L|76:132,1,135.000005149842,8|0,0:0|0:0,0:0:0:0:
156,72,51853,1,2,0:0:0:0:
156,72,51949,1,2,0:0:0:0:
156,72,52045,2,0,P|224:80|284:144,1,135.000005149842,2|0,0:0|0:0,0:0:0:0:
436,264,52430,1,8,0:0:0:0:
228,296,52622,1,8,0:0:0:0:
328,176,52814,1,8,0:0:0:0:
136,80,53199,5,0,0:0:0:0:
308,128,53391,1,2,0:0:0:0:
308,128,53487,1,0,0:0:0:0:
308,128,53583,1,0,0:0:0:0:
160,224,53776,1,0,0:0:0:0:
408,116,53968,1,8,0:0:0:0:
84,200,54160,1,0,0:0:0:0:
256,316,54545,5,0,0:0:0:0:
256,316,54737,2,0,L|248:176,1,135.000005149842
240,148,55026,1,0,0:0:0:0:
212,120,55122,1,0,0:0:0:0:
172,120,55218,1,0,0:0:0:0:
127,147,55314,2,0,B|80:200|80:200|160:216,1,135.000005149842,0|8,0:0|0:0,0:0:0:0:
96,64,55699,1,0,0:0:0:0:
127,147,55891,2,0,P|135:239|211:183,1,202.500007724762
267,219,56276,2,0,P|327:247|387:222,1,135.000005149842,8|0,0:0|0:0,0:0:0:0:
412,188,56564,1,0,0:0:0:0:
432,152,56660,1,0,0:0:0:0:
420,16,56853,5,0,0:0:0:0:
316,104,57045,2,0,P|264:136|184:136,1,135.000005149842,8|0,0:0|0:0,0:0:0:0:
96,40,57430,1,0,0:0:0:0:
84,176,57622,1,0,0:0:0:0:
56,204,57718,1,0,0:0:0:0:
20,224,57814,1,0,0:0:0:0:
152,228,58007,1,0,0:0:0:0:
180,256,58103,1,0,0:0:0:0:
204,288,58199,1,0,0:0:0:0:
320,308,58391,5,0,0:0:0:0:
408,232,58583,1,0,0:0:0:0:
440,120,58776,2,0,P|372:92|316:100,1,116.999994644165,0|8,0:0|0:0,0:0:0:0:
224,160,59160,1,2,0:0:0:0:
84,135,59353,2,0,P|101:80|144:41,1,116.999994644165
192,136,59737,2,0,P|240:160|304:144,1,116.999994644165
84,136,60122,1,8,0:0:0:0:
177,211,60314,6,0,B|224:300|256:232|256:232|284:300|331:203,1,233.999989288331
168,192,60891,1,8,0:0:0:0:
364,168,61083,2,0,B|308:136|272:136|260:164|260:164|248:136|216:136|132:180,1,233.999989288331
364,292,61660,6,0,P|444:256|476:120,2,233.999989288331,8|0|0,0:0|0:0|0:0,0:0:0:0:
364,168,62622,2,0,L|408:140,2,45,2|2|2,0:0|0:0|0:0,0:0:0:0:
364,292,63007,1,0,0:0:0:0:
276,228,63199,1,0,0:0:0:0:
180,236,63391,2,0,P|120:272|156:208,1,180,8|0,0:0|0:0,0:0:0:0:
176,124,63968,5,0,0:0:0:0:
260,92,64160,1,2,0:0:0:0:
300,104,64257,1,2,0:0:0:0:
328,136,64353,1,2,0:0:0:0:
420,224,64545,1,2,0:0:0:0:
396,212,64641,1,2,0:0:0:0:
372,212,64737,5,8,0:0:0:0:
352,224,64833,1,2,0:0:0:0:
320,232,64930,1,2,0:0:0:0:
288,224,65026,1,2,0:0:0:0:
260,208,65122,2,0,B|236:160|172:139|172:139|152:152|116:184,1,180,12|8,0:0|0:0,0:0:0:0:
72,256,65699,2,0,L|48:304,2,45,2|2|8,0:0|0:0|0:0,0:0:0:0:
128,128,66083,1,2,0:0:0:0:
263,124,66276,1,2,0:0:0:0:
272,320,66468,1,2,0:0:0:0:
188,264,66660,6,2,P|240:224|316:228,2,135.000005149842,8|2|10,0:0|0:0|0:0,0:0:0:0:
120,336,67237,1,2,0:0:0:0:
92,316,67333,1,2,0:0:0:0:
64,296,67430,2,8,L|64:159,1,135.000005149842,8|10,0:0|0:0,0:0:0:0:
316,56,67814,5,0,0:0:0:0:
448,160,68007,1,2,0:0:0:0:
448,160,68103,1,2,0:0:0:0:
448,160,68199,2,0,P|384:208|312:236,1,135.000005149842,8|0,0:0|0:0,0:0:0:0:
180,272,68583,1,8,0:0:0:0:
112,92,68776,1,2,0:0:0:0:
136,80,68872,1,2,0:0:0:0:
159,72,68968,2,0,P|248:88|276:140,1,135.000005149842,8|2,0:0|0:0,0:0:0:0:
224,200,69353,1,0,0:0:0:0:
296,276,69545,2,0,P|169:287|124:172,1,270.000010299683
380,344,70122,5,8,0:0:0:0:
372,312,70218,1,2,0:0:0:0:
360,280,70314,1,2,0:0:0:0:
356,248,70410,1,2,0:0:0:0:
344,180,70507,5,8,0:0:0:0:
312,168,70603,1,2,0:0:0:0:
280,168,70699,1,2,0:0:0:0:
248,180,70795,1,2,0:0:0:0:
180,176,70891,5,8,0:0:0:0:
160,148,70987,1,2,0:0:0:0:
152,116,71083,1,2,0:0:0:0:
295,72,71276,6,8,P|353:40|414:63,1,135.000005149842,8|2,0:0|0:0,0:0:0:0:
216,311,71660,2,8,P|158:343|97:320,1,135.000005149842,8|2,0:0|0:0,0:0:0:0:
360,136,72045,2,0,P|408:183|467:215,1,135.000005149842,8|2,0:0|0:0,0:0:0:0:
152,248,72430,2,0,P|103:200|44:168,1,135.000005149842,8|2,0:0|0:0,0:0:0:0:
84,60,72814,1,8,0:0:0:0:
360,72,73007,1,2,0:0:0:0:
200,160,73199,1,8,0:0:0:0:
260,252,73391,1,2,0:0:0:0:
292,264,73487,1,2,0:0:0:0:
324,276,73583,1,8,0:0:0:0:
208,228,73776,5,8,0:0:0:0:
324,184,73968,1,2,0:0:0:0:
103,318,74160,1,0,0:0:0:0:
103,318,74353,2,0,P|192:272|220:288,1,135.000005149842
224,304,74930,2,0,B|256:224|32:272|112:128|32:0|192:32|236:64|236:64|240:68|256:72|272:68|276:64|276:64|320:32|480:0|400:128|480:272|256:224|304:304,1,877.50003347397,2|8,0:0|0:0,0:0:0:0:
432,312,77622,1,0,0:0:0:0:
400,176,77814,1,10,0:0:0:0:
280,104,78007,1,0,0:0:0:0:
268,124,78103,1,2,0:0:0:0:
256,140,78199,1,2,0:0:0:0:
140,48,78391,2,0,P|184:76|192:128,1,90,2|8,0:0|0:0,0:0:0:0:
212,216,78776,1,0,0:0:0:0:
204,320,78968,6,0,P|176:324|168:324,12,22.5,2|0|0|0|0|0|0|0|0|0|0|0|0,0:0|0:0|0:0|0:0|0:0|0:0|0:0|0:0|0:0|0:0|0:0|0:0|0:0,0:0:0:0:
248,304,79641,1,0,0:0:0:0:
296,320,79737,2,0,P|352:328|392:320,1,90,8|2,0:0|0:0,0:0:0:0:
360,204,80026,2,0,L|332:252,1,45,2|2,0:0|0:0,0:0:0:0:
448,160,80218,2,0,L|476:112,1,45,2|2,0:0|0:0,0:0:0:0:
376,96,80410,1,2,0:0:0:0:
376,96,80507,2,0,P|343:64|302:47,1,90,8|0,0:0|0:0,0:0:0:0:
96,132,80891,6,8,P|168:116|208:96,1,90,0|2,0:0|0:0,0:0:0:0:
212,96,81180,1,2,0:0:0:0:
244,88,81276,1,2,0:0:0:0:
204,216,81468,1,0,0:0:0:0:
334,284,81660,2,0,P|379:290|424:286,1,90,8|2,0:0|0:0,0:0:0:0:
427,143,82045,2,0,P|385:128|341:122,1,90,8|2,0:0|0:0,0:0:0:0:
208,280,82430,2,0,L|236:184,1,90,8|2,0:0|0:0,0:0:0:0:
256,116,82718,1,2,0:0:0:0:
256,116,82814,2,0,B|256:94|256:94|240:102|200:142|164:136,1,90,10|2,0:0|0:0,0:0:0:0:
60,96,83199,6,0,B|108:136|84:192|84:192|112:232|132:268|132:268,1,180,8|10,0:0|0:0,0:0:0:0:
452,96,83968,2,0,B|404:136|428:192|428:192|400:232|380:268|380:268,1,180,8|10,0:0|0:0,0:0:0:0:
332,188,84545,2,0,P|276:160|240:144,1,90,2|0,0:0|0:0,0:0:0:0:
96,128,84930,6,0,L|132:44,1,90,2|8,0:0|0:0,0:0:0:0:
202,305,85314,1,0,0:0:0:0:
224,160,85507,1,0,0:0:0:0:
80,248,85699,1,2,0:0:0:0:
68,200,85795,1,2,0:0:0:0:
64,160,85891,5,8,0:0:0:0:
88,112,85987,1,2,0:0:0:0:
128,80,86083,1,2,0:0:0:0:
248,72,86276,1,8,0:0:0:0:
376,104,86468,1,2,0:0:0:0:
392,120,86564,1,2,0:0:0:0:
408,144,86660,1,4,0:0:0:0:
311,311,87430,6,0,P|185:312|148:192,1,270,8|8,0:0|0:0,0:0:0:0:
208,128,88199,1,2,0:0:0:0:
288,84,88391,1,8,0:0:0:0:
58,192,88583,2,0,P|103:196|148:191,1,90,2|2,0:0|0:0,0:0:0:0:
272,200,88968,1,8,0:0:0:0:
124,52,89160,1,2,0:0:0:0:
148,192,89353,1,2,0:0:0:0:
156,160,89449,1,2,0:0:0:0:
164,128,89545,1,2,0:0:0:0:
236,72,89737,5,2,0:0:0:0:
412,40,90122,1,8,0:0:0:0:
354,151,90314,1,2,0:0:0:0:
342,172,90410,1,2,0:0:0:0:
328,192,90507,2,0,P|275:231|235:229,1,90,2|2,0:0|0:0,0:0:0:0:
128,232,90891,2,0,L|38:245,2,90,2|0|0,0:0|0:0|0:0,0:0:0:0:
164,84,91468,5,2,0:0:0:0:
308,256,91660,1,8,0:0:0:0:
128,232,91853,2,0,L|116:176,2,45,2|2|8,0:0|0:0|0:0,0:0:0:0:
272,180,92237,5,2,0:0:0:0:
372,196,92430,2,0,B|301:256|306:258|306:258|348:246,1,135,2|0,0:0|0:0,0:0:0:0:
400,176,92814,2,0,P|400:120|368:80,1,90,8|2,0:0|0:0,0:0:0:0:
225,251,93199,2,0,P|258:222|272:180,1,90,8|2,0:0|0:0,0:0:0:0:
288,140,93487,2,0,L|336:108,1,45,2|8,0:0|0:0,0:0:0:0:
172,180,93776,1,0,0:0:0:0:
154,304,93968,2,0,P|111:295|80:264,2,90,8|2|2,0:0|0:0|0:0,0:0:0:0:
296,268,94737,5,8,0:0:0:0:
192,236,94930,1,2,0:0:0:0:
196,216,95026,1,2,0:0:0:0:
200,196,95122,1,2,0:0:0:0:
224,80,95314,1,0,0:0:0:0:
328,120,95507,2,0,B|360:88|360:88|400:88|408:124,1,90,0|2,0:0|0:0,0:0:0:0:
412,124,95795,1,2,0:0:0:0:
424,144,95891,5,8,0:0:0:0:
436,168,95987,1,2,0:0:0:0:
440,196,96083,1,2,0:0:0:0:
444,224,96180,1,2,0:0:0:0:
444,252,96276,2,0,P|380:260|340:252,1,90,0|2,0:0|0:0,0:0:0:0:
328,256,96564,1,2,0:0:0:0:
300,256,96660,1,8,0:0:0:0:
236,192,96853,1,0,0:0:0:0:
176,124,97045,6,0,P|147:90|106:72,1,90
286,71,97430,2,0,B|286:93|246:121|246:121|250:159|278:181,1,135,8|0,0:0|0:0,0:0:0:0:
321,236,97814,2,0,B|358:213|358:213|344:178|278:181,1,135,8|2,0:0|0:0,0:0:0:0:
189,171,98199,2,0,B|225:180|225:180|278:181,2,90,8|0|2,0:0|0:0|0:0,0:0:0:0:
64,120,98776,1,2,0:0:0:0:
160,64,98968,1,8,0:0:0:0:
416,48,99353,5,0,0:0:0:0:
396,136,99545,1,2,0:0:0:0:
396,136,99641,1,2,0:0:0:0:
396,136,99737,2,0,B|368:176|368:176|329:190,1,90,0|0,0:0|0:0,0:0:0:0:
240,208,100122,1,0,0:0:0:0:
280,124,100314,2,8,P|327:199|296:280,1,180
208,296,100891,1,0,0:0:0:0:
160,124,101083,1,0,0:0:0:0:
132,176,101180,1,0,0:0:0:0:
112,232,101276,2,0,P|100:280|96:320,2,90
72,168,101853,5,2,0:0:0:0:
160,124,102045,2,0,P|248:116|312:160,1,135,8|0,0:0|0:0,0:0:0:0:
308,156,102430,1,2,0:0:0:0:
328,256,102622,1,0,0:0:0:0:
352,268,102718,1,0,0:0:0:0:
380,272,102814,1,0,0:0:0:0:
444,208,103007,1,2,0:0:0:0:
244,312,103199,1,8,0:0:0:0:
151,184,103391,2,0,P|120:144|72:128,2,90,2|0|2,0:0|0:0|0:0,0:0:0:0:
280,56,103968,6,2,L|192:88,1,90,8|2,0:0|0:0,0:0:0:0:
152,184,104257,1,2,0:0:0:0:
152,184,104353,2,8,L|240:216,1,90,8|8,0:0|0:0,0:0:0:0:
192,296,104737,1,2,0:0:0:0:
104,56,104930,5,2,0:0:0:0:
104,56,105026,1,2,0:0:0:0:
104,56,105122,2,0,P|64:96|80:216,1,180,8|8,0:0|0:0,0:0:0:0:
192,296,105699,1,2,0:0:0:0:
244,300,105795,1,2,0:0:0:0:
296,296,105891,1,2,0:0:0:0:
344,268,105987,1,2,0:0:0:0:
372,220,106083,2,0,P|368:152|324:112,1,90,2|8,0:0|0:0,0:0:0:0:
372,220,106468,5,2,0:0:0:0:
192,296,106660,2,0,P|168:224|56:200,1,180
75,193,107237,1,2,0:0:0:0:
84,172,107333,1,2,0:0:0:0:
96,152,107430,2,0,P|124:120|168:120,1,90,0|0,0:0|0:0,0:0:0:0:
224,188,107814,1,8,0:0:0:0:
112,272,108007,5,2,0:0:0:0:
112,272,108103,1,2,0:0:0:0:
112,272,108199,2,0,P|258:306|300:300,1,180,8|0,0:0|0:0,0:0:0:0:
368,268,108776,1,2,0:0:0:0:
404,240,108872,1,2,0:0:0:0:
427,199,108968,2,0,P|399:165|358:149,1,90,2|2,0:0|0:0,0:0:0:0:
240,108,109353,1,8,0:0:0:0:
132,44,109545,5,8,0:0:0:0:
132,44,109930,1,2,0:0:0:0:
344,128,110122,1,8,0:0:0:0:
68,216,110314,1,8,0:0:0:0:
424,280,110507,1,8,0:0:0:0:
428,292,110603,1,2,0:0:0:0:
432,304,110699,1,2,0:0:0:0:
436,316,110795,1,2,0:0:0:0:
440,328,110891,6,0,L|388:320,2,45,8|2|2,0:0|0:0|0:0,0:0:0:0:
304,268,111180,2,0,L|348:272,1,33.7500012874604,2|8,0:0|0:0,0:0:0:0:
144,256,111660,2,0,B|160:240|185:227|185:227|156:212|128:216,1,90.0000034332277,8|4,0:0|0:0,0:0:0:0:
48,192,112045,2,0,P|56:152|76:120,1,67.5000025749208,8|0,0:0|0:0,0:0:0:0:
80,116,112301,2,0,L|148:104,1,45.0000017166138,0|8,0:0|0:0,0:0:0:0:
212,160,112622,6,0,L|296:176,1,67.5000025749208,8|2,0:0|0:0,0:0:0:0:
278,172,113199,1,0,0:0:0:0:
440,284,113391,1,2,0:0:0:0:
460,248,113487,1,2,0:0:0:0:
480,212,113583,2,0,L|480:144,2,67.5000025749208,10|10|2,0:0|0:0|0:0,0:0:0:0:
380,224,114160,1,8,0:0:0:0:
284,196,114353,2,0,P|272:132|232:80,1,101.250003862381,8|2,0:0|0:0,0:0:0:0:
232,84,114737,6,8,L|172:116,1,67.5000025749208,0|0,0:0|0:0,0:0:0:0:
100,192,115026,2,0,L|144:184,1,33.7500012874604,8|8,0:0|0:0,0:0:0:0:
240,264,115314,5,8,0:0:0:0:
120,312,115507,1,2,0:0:0:0:
196,168,115699,1,2,0:0:0:0:
212,140,115795,1,2,0:0:0:0:
224,112,115891,2,0,B|292:108|344:96|344:96|344:108|332:120,1,135.000005149842,2|8,0:0|0:0,0:0:0:0:
288,344,116468,5,2,0:0:0:0:
364,280,116660,1,8,0:0:0:0:
428,200,116853,1,8,0:0:0:0:
460,104,117045,6,0,P|427:96|393:94,1,67.5000025749208,8|0,0:0|0:0,0:0:0:0:
312,72,117333,1,0,0:0:0:0:
312,72,117430,2,0,P|288:40|240:24,1,67.5000025749208
168,72,117814,2,0,P|176:136|192:160,1,67.5000025749208
256,196,118199,1,0,0:0:0:0:
168,72,118391,5,0,0:0:0:0:
56,156,118583,2,0,P|56:196|84:236,1,67.5000025749208
136,268,118968,2,0,B|164:280|164:280|184:288|184:288|200:280|200:280|220:288|220:288|236:280|236:280|268:272,1,135.000005149842
448,72,119545,5,8,0:0:0:0:
416,80,119641,1,0,0:0:0:0:
384,88,119737,1,0,0:0:0:0:
448,192,119930,1,0,0:0:0:0:
268,320,120122,1,0,0:0:0:0:
88,280,120314,1,0,0:0:0:0:
88,64,120507,1,0,0:0:0:0:
88,64,121276,5,2,0:0:0:0:
424,64,121660,5,8,0:0:0:0:
256,296,122045,5,4,0:0:0:0:
364,192,122237,1,0,0:0:0:0:
244,116,122430,6,0,L|244:268,1,135.000005149842,2|8,0:0|0:0,0:0:0:0:
228,292,122718,1,2,0:0:0:0:
193,320,122814,1,8,0:0:0:0:
148,328,122910,1,2,0:0:0:0:
104,312,123007,5,2,0:0:0:0:
72,276,123103,1,2,0:0:0:0:
56,232,123199,1,8,0:0:0:0:
52,184,123295,1,2,0:0:0:0:
60,136,123391,1,2,0:0:0:0:
84,96,123487,1,2,0:0:0:0:
124,72,123583,5,4,0:0:0:0:
212,112,123776,1,0,0:0:0:0:
268,188,123968,2,0,B|336:112|336:112|380:108,1,135.000005149842,8|2,0:0|0:0,0:0:0:0:
404,148,124257,1,2,0:0:0:0:
432,192,124353,1,2,0:0:0:0:
240,72,124545,1,0,0:0:0:0:
396,232,124737,1,0,0:0:0:0:
71,106,124930,2,0,B|119:94|123:122|119:150|151:170|183:162|207:142|227:118|227:118|239:166|268:188,1,270.000010299683,8|0,0:0|0:0,0:0:0:0:
299,118,125507,6,0,B|272:36|200:56|200:56|179:74|171:94,1,157.500001502037,0|2,0:0|0:0,0:0:0:0:
131,94,125795,1,2,0:0:0:0:
71,106,125891,2,0,B|67:130|87:158|87:158|75:218|91:242|91:242|106:240,1,157.500001502037,2|8,0:0|0:0,0:0:0:0:
248,196,126276,1,0,0:0:0:0:
260,184,126468,1,2,0:0:0:0:
232,52,126660,2,0,P|172:72|132:132,1,135.000005149842,8|0,0:0|0:0,0:0:0:0:
280,332,127045,2,0,P|342:310|379:254,1,135.000005149842,8|2,0:0|0:0,0:0:0:0:
280,332,127333,1,2,0:0:0:0:
280,332,127430,2,0,P|220:280|164:264,1,135.000005149842,8|4,0:0|0:0,0:0:0:0:
132,252,127814,5,0,0:0:0:0:
352,96,128007,1,0,0:0:0:0:
328,112,128391,1,2,0:0:0:0:
232,52,128583,1,8,0:0:0:0:
112,64,128776,5,2,0:0:0:0:
88,96,128872,1,2,0:0:0:0:
80,136,128968,1,8,0:0:0:0:
220,176,129160,1,2,0:0:0:0:
376,256,129353,2,0,B|304:208|240:328|112:272,1,270.000010299683,8|4,0:0|0:0,0:0:0:0:
432,320,130122,6,0,P|456:272|432:192,1,135.000005149842,8|0,0:0|0:0,0:0:0:0:
376,256,130410,1,2,0:0:0:0:
376,256,130507,1,2,0:0:0:0:
232,332,130699,1,0,0:0:0:0:
120,260,130891,2,0,P|176:212|248:200,1,135.000005149842,8|0,0:0|0:0,0:0:0:0:
360,232,131468,5,0,0:0:0:0:
432,96,131660,2,0,P|376:144|328:104,1,135.000005149842,8|2,0:0|0:0,0:0:0:0:
296,88,131949,1,2,0:0:0:0:
264,56,132045,2,0,P|207:30|165:78,1,135.000005149842,2|8,0:0|0:0,0:0:0:0:
124,176,132430,1,4,0:0:0:0:
240,320,132814,6,0,B|240:316|240:316|248:300|248:300|236:300|236:300|248:284|248:284|236:284|236:284|248:268|248:268|236:268|236:268|248:252|248:252|236:252|236:252|248:236|248:236|236:236|236:236|248:220|248:220|236:220|236:220|248:204|248:204|236:204|236:204|248:188|248:188|236:188|236:188,1,202.500007724762
239,176,133199,2,0,P|277:120|336:90,1,135.000005149842,8|2,0:0|0:0,0:0:0:0:
416,64,133487,2,0,L|384:124,1,67.5000025749208,2|4,0:0|0:0,0:0:0:0:
152,72,133776,1,2,0:0:0:0:
300,48,133968,1,10,0:0:0:0:
436,120,134160,1,2,0:0:0:0:
436,120,134257,1,2,0:0:0:0:
436,120,134353,5,10,0:0:0:0:
312,192,134545,1,0,0:0:0:0:
440,252,134737,1,10,0:0:0:0:
300,136,134930,1,2,0:0:0:0:
252,128,135026,1,2,0:0:0:0:
204,120,135122,1,14,0:0:0:0:
192,216,135314,1,0,0:0:0:0:
216,304,135507,2,0,P|264:272|292:200,1,135.000005149842,8|2,0:0|0:0,0:0:0:0:
256,80,135795,1,2,0:0:0:0:
256,80,135891,6,0,P|192:60|128:84,1,135.000005149842,10|0,0:0|0:0,0:0:0:0:
68,168,136276,2,0,P|132:188|196:164,1,135.000005149842,10|0,0:0|0:0,0:0:0:0:
248,168,136564,1,0,0:0:0:0:
284,208,136660,1,0,0:0:0:0:
296,316,136853,1,0,0:0:0:0:
396,276,137045,2,0,P|428:228|432:148,1,135.000005149842,8|4,0:0|0:0,0:0:0:0:
368,76,137622,5,2,0:0:0:0:
340,156,137814,2,0,P|280:184|188:156,1,135.000005149842,8|2,0:0|0:0,0:0:0:0:
214,173,138103,1,2,0:0:0:0:
214,173,138199,1,2,0:0:0:0:
368,76,138391,1,0,0:0:0:0:
208,52,138583,1,4,0:0:0:0:
84,236,138776,1,2,0:0:0:0:
96,260,138872,1,2,0:0:0:0:
111,283,138968,6,0,P|238:306|318:206,1,270.000010299683,8|8,0:0|0:0,0:0:0:0:
332,108,139545,1,2,0:0:0:0:
352,84,139641,1,2,0:0:0:0:
372,56,139737,1,0,0:0:0:0:
412,176,139930,1,0,0:0:0:0:
272,232,140122,5,8,0:0:0:0:
156,295,140314,2,2,P|36:280|59:162,1,270.000010299683,8|2,0:0|0:0,0:0:0:0:
104,232,140891,2,0,P|180:184|244:176,1,135.000005149842,8|2,0:0|0:0,0:0:0:0:
272,168,141180,1,2,0:0:0:0:
319,168,141276,1,0,0:0:0:0:
224,84,141468,6,0,L|280:80,1,45,2|2,0:0|0:0,0:0:0:0:
160,168,141660,2,0,L|104:172,1,45,2|2,0:0|0:0,0:0:0:0:
240,176,141853,1,2,0:0:0:0:
320,108,142045,1,4,0:0:0:0:
364,332,142237,1,0,0:0:0:0:
412,64,142430,5,8,0:0:0:0:
160,136,142622,1,2,0:0:0:0:
168,148,142718,1,2,0:0:0:0:
176,156,142814,1,10,0:0:0:0:
284,228,143007,1,0,0:0:0:0:
284,228,143199,2,0,B|324:260|324:260|360:260|360:260|404:288|404:288,1,135.000005149842,0|8,0:0|0:0,0:0:0:0:
400,285,143487,1,8,0:0:0:0:
400,285,143583,1,4,0:0:0:0:
96,184,143776,6,0,B|68:132|100:88|100:88|88:44,1,135.000005149842,8|0,0:0|0:0,0:0:0:0:
124,272,144160,1,2,0:0:0:0:
160,232,144257,1,2,0:0:0:0:
184,184,144353,1,8,0:0:0:0:
344,124,144545,1,0,0:0:0:0:
344,124,144737,5,4,0:0:0:0:
216,60,144930,1,2,0:0:0:0:
216,60,145026,1,2,0:0:0:0:
216,59,145122,2,0,P|152:82|101:125,1,135.000005149842,4|2,0:0|0:0,0:0:0:0:
84,176,145410,2,0,L|152:140,1,67.5000025749208,2|2,0:0|0:0,0:0:0:0:
160,308,145699,1,0,0:0:0:0:
216,232,145891,1,0,0:0:0:0:
240,144,146083,1,12,0:0:0:0:
320,88,146276,1,0,0:0:0:0:
416,80,146468,6,0,B|416:88|416:88|424:88|424:88|416:96|416:96|424:96|424:96|416:104|416:104|424:104|424:104|416:112|416:112|424:112|424:112|416:124|416:124|424:124|424:124|416:136|416:136|424:136|424:136|416:148|416:148|424:148|424:148|436:176|424:213,1,202.500007724762
416,240,146853,1,2,0:0:0:0:
368,300,147045,2,0,L|228:300,1,135.000005149842,8|2,0:0|0:0,0:0:0:0:
196,192,147430,2,0,L|184:258,1,67.5000025749208,2|2,0:0|0:0,0:0:0:0:
84,322,147622,2,0,L|96:256,1,67.5000025749208,2|2,0:0|0:0,0:0:0:0:
208,126,147814,2,0,L|196:192,1,67.5000025749208,2|2,0:0|0:0,0:0:0:0:
96,256,148007,1,2,0:0:0:0:
208,126,148199,6,0,P|140:159|64:131,1,157.500001502037,4|0,0:0|0:0,0:0:0:0:
236,249,148583,6,0,P|294:276|300:341,1,135.000005149842,4|0,0:0|0:0,0:0:0:0:
316,180,148968,6,0,P|306:126|341:84,1,112.5,4|0,0:0|0:0,0:0:0:0:
140,100,149353,6,0,B|124:160|88:192|88:192|48:200,2,135.000005149842,8|8|4,0:0|0:0|0:0,0:0:0:0:
272,68,149930,1,0,0:0:0:0:
380,120,150122,1,0,0:0:0:0:
308,196,150314,2,0,B|252:244|252:244|236:288|196:312|196:312|137:223,1,270.000010299683,2|0,0:0|0:0,0:0:0:0:
204,188,150891,2,0,B|259:139|259:139|275:95|315:71|315:71|374:160,2,270.000010299683,0|2|0,0:0|0:0|0:0,0:0:0:0:
136,236,151853,1,0,0:0:0:0:
108,240,151949,1,0,0:0:0:0:
80,244,152045,1,0,0:0:0:0:
224,224,152237,1,0,0:0:0:0:
48,320,152430,5,0,0:0:0:0:
224,224,152622,2,0,B|224:84|224:84|272:172|336:136|336:136,1,270.000010299683,8|0,0:0|0:0,0:0:0:0:
420,92,153199,1,8,0:0:0:0:
308,144,153391,1,2,0:0:0:0:
308,144,153487,1,2,0:0:0:0:
308,144,153583,2,0,P|236:104|224:36,1,135.000005149842,2|0,0:0|0:0,0:0:0:0:
176,164,153968,1,4,0:0:0:0:
376,240,154160,5,8,0:0:0:0:
460,116,154353,2,0,P|324:136|332:44,1,270.000010299683,2|8,0:0|0:0,0:0:0:0:
228,56,154930,1,2,0:0:0:0:
204,56,155026,1,2,0:0:0:0:
180,60,155122,1,2,0:0:0:0:
84,172,155314,5,0,0:0:0:0:
192,280,155507,1,8,0:0:0:0:
344,296,155699,1,4,0:0:0:0:
356,284,156083,5,0,0:0:0:0:
416,200,156276,2,0,P|400:159|311:106,1,135.000005149842,8|0,0:0|0:0,0:0:0:0:
336,136,156564,1,2,0:0:0:0:
344,160,156660,1,2,0:0:0:0:
248,92,156853,1,0,0:0:0:0:
139,123,157045,2,0,P|226:218|348:178,1,270.000010299683,8|4,0:0|0:0,0:0:0:0:
440,120,157814,5,8,0:0:0:0:
408,265,158007,1,2,2:0:0:0:
416,236,158103,1,2,2:0:0:0:
420,208,158199,1,10,2:0:0:0:
340,108,158391,1,0,0:0:0:0:
340,108,158583,2,0,P|300:169|236:168,1,135.000005149842,8|0,0:0|0:0,0:0:0:0:
100,56,158968,6,0,L|128:188,1,135.000005149842
312,288,159353,2,0,L|240:164,1,135.000005149842,8|0,0:0|0:0,0:0:0:0:
128,48,159641,1,0,0:0:0:0:
160,44,159737,1,0,0:0:0:0:
248,80,159930,1,0,0:0:0:0:
340,108,160122,1,8,0:0:0:0:
160,44,160507,5,8,0:0:0:0:
176,64,160699,1,4,0:0:0:0:
320,280,161083,5,8,0:0:0:0:
356,200,161276,1,4,0:0:0:0:
176,168,161660,5,8,0:0:0:0:
392,112,161853,1,4,0:0:0:0:
304,84,162237,5,8,0:0:0:0:
152,256,162430,1,2,0:0:0:0:
64,56,162622,1,8,0:0:0:0:
304,84,162814,2,0,P|304:148|248:196,1,135,8|0,0:0|0:0,0:0:0:0:
236,120,163199,2,0,L|317:157,1,90,8|2,0:0|0:0,0:0:0:0:
336,164,163487,2,0,L|392:148,1,45,2|4,0:0|0:0,0:0:0:0:
428,248,163968,6,0,P|420:284|364:328,1,90,8|0,0:0|0:0,0:0:0:0:
364,324,164257,1,0,0:0:0:0:
348,324,164353,1,0,0:0:0:0:
400,156,164545,1,0,0:0:0:0:
400,156,164737,1,8,0:0:0:0:
336,88,164930,2,0,B|304:60|304:60|252:116|176:100,1,180
104,76,165507,1,8,0:0:0:0:
128,172,165699,1,0,0:0:0:0:
136,204,165795,1,0,0:0:0:0:
128,236,165891,5,0,0:0:0:0:
252,292,166083,1,0,0:0:0:0:
380,339,166276,2,0,P|434:273|432:184,1,180,8|0,0:0|0:0,0:0:0:0:
260,120,167045,5,8,0:0:0:0:
360,76,167237,1,2,0:0:0:0:
388,116,167333,1,2,0:0:0:0:
416,156,167430,2,0,L|320:168,1,90,0|0,0:0|0:0,0:0:0:0:
136,92,167814,1,8,0:0:0:0:
136,91,168007,2,0,P|212:116|260:200,1,180,0|0,0:0|0:0,0:0:0:0:
208,280,168583,1,8,0:0:0:0:
115,257,168776,1,2,0:0:0:0:
136,217,168872,1,2,0:0:0:0:
156,176,168968,1,2,0:0:0:0:
256,320,169160,5,0,0:0:0:0:
404,228,169353,1,8,0:0:0:0:
364,148,169545,1,2,0:0:0:0:
384,188,169641,1,2,0:0:0:0:
404,228,169737,1,2,0:0:0:0:
396,48,170122,5,8,0:0:0:0:
360,248,170314,2,0,L|328:296,2,45,2|2|8,0:0|0:0|0:0,0:0:0:0:
288,128,170699,1,0,0:0:0:0:
456,232,170891,1,8,0:0:0:0:
188,292,171083,1,2,0:0:0:0:
216,136,171468,1,0,0:0:0:0:
150,202,171853,1,8,0:0:0:0:
136,196,171949,1,8,0:0:0:0:
124,188,172045,5,8,0:0:0:0:
96,100,172237,1,2,0:0:0:0:
215,51,172430,2,0,B|280:71|280:71|304:112|304:112|376:136,2,180,0|0|0,0:0|0:0|0:0,0:0:0:0:
248,177,173391,1,2,0:0:0:0:
220,177,173487,1,2,0:0:0:0:
198,176,173583,2,0,L|111:153,1,90,2|4,0:0|0:0,0:0:0:0:
294,336,173968,6,0,L|271:249,1,90,8|0,0:0|0:0,0:0:0:0:
298,149,174257,1,2,0:0:0:0:
298,149,174353,2,0,L|361:86,1,90,2|0,0:0|0:0,0:0:0:0:
384,192,174737,1,8,0:0:0:0:
248,208,174930,2,0,B|224:140|276:72|258:30,1,180,2|2,0:0|0:0,0:0:0:0:
258,31,175507,5,8,0:0:0:0:
256,112,175699,1,2,0:0:0:0:
256,136,175795,1,2,0:0:0:0:
256,160,175891,1,8,0:0:0:0:
456,240,176276,5,8,0:0:0:0:
328,260,176468,1,2,0:0:0:0:
312,232,176564,1,2,0:0:0:0:
308,200,176660,1,0,0:0:0:0:
276,104,176853,1,0,0:0:0:0:
176,99,177045,2,0,P|134:116|100:145,1,90,2|8,0:0|0:0,0:0:0:0:
184,248,177430,1,8,0:0:0:0:
308,200,177622,2,0,P|333:163|339:119,1,90,2|0,0:0|0:0,0:0:0:0:
176,100,178007,2,0,P|85:273|275:322,1,450,4|8,0:0|0:0,0:0:0:0:
324,128,179353,6,0,L|321:217,1,90
358,230,179641,1,0,0:0:0:0:
358,230,179737,2,0,P|392:201|408:160,1,90,8|2,0:0|0:0,0:0:0:0:
228,160,180122,2,0,P|244:201|278:230,1,90,8|2,0:0|0:0,0:0:0:0:
172,252,180507,1,0,0:0:0:0:
228,76,180699,1,2,0:0:0:0:
312,68,180891,2,0,L|332:168,1,90,8|2,0:0|0:0,0:0:0:0:
352,192,181180,1,2,0:0:0:0:
352,192,181276,6,0,L|392:240,1,45,2|0,0:0|0:0,0:0:0:0:
240,240,181468,2,0,L|240:300,1,45
128,216,181660,2,0,L|72:252,1,45,8|0,0:0|0:0,0:0:0:0:
112,104,181853,2,0,L|32:112,1,45
152,28,182045,2,0,P|232:44|272:84,1,135,2|0,0:0|0:0,0:0:0:0:
280,136,182430,6,0,L|191:154,1,90,8|0,0:0|0:0,0:0:0:0:
296,160,182718,1,0,0:0:0:0:
316,184,182814,1,2,0:0:0:0:
380,88,183007,1,0,0:0:0:0:
440,320,183199,1,0,0:0:0:0:
416,192,183391,2,0,P|368:272|288:276,1,180,8|0,0:0|0:0,0:0:0:0:
152,232,183968,1,0,0:0:0:0:
84,104,184160,1,2,0:0:0:0:
84,104,184257,1,0,0:0:0:0:
84,104,184353,5,0,0:0:0:0:
248,184,184545,1,0,0:0:0:0:
416,256,184737,1,8,0:0:0:0:
420,80,184930,1,0,0:0:0:0:
420,80,185026,1,0,0:0:0:0:
420,80,185122,6,0,B|368:92|312:88,1,90,0|2,0:0|0:0,0:0:0:0:
256,276,185507,1,8,0:0:0:0:
120,176,185699,1,8,0:0:0:0:
144,120,185795,1,0,0:0:0:0:
168,64,185891,5,2,0:0:0:0:
232,176,186083,1,8,0:0:0:0:
52,232,186276,1,2,0:0:0:0:
316,272,186468,2,0,P|228:292|136:264,2,180,8|2|8,0:0|0:0|0:0,0:0:0:0:
387,205,187622,5,0,0:0:0:0:
384,129,187814,2,0,P|347:80|271:78,1,135
275,114,188199,2,0,B|272:160|272:160|249:197,1,90
246,50,188583,1,8,0:0:0:0:
384,129,188776,1,2,0:0:0:0:
170,78,189160,5,2,0:0:0:0:
56,304,189353,2,0,B|116:278|116:278|165:221,1,135
182,205,189737,2,0,P|224:216|262:243,1,90
162,301,190122,1,8,0:0:0:0:
72,204,190314,1,2,0:0:0:0:
72,204,190507,1,0,0:0:0:0:
80,184,190603,1,0,0:0:0:0:
88,164,190699,5,0,0:0:0:0:
200,144,190891,2,0,P|260:164|324:260,1,180
352,348,191468,1,0,0:0:0:0:
224,244,191660,1,0,0:0:0:0:
400,240,191853,2,0,B|508:128|408:88|424:44|460:52|492:64|476:88|476:88|480:104|365:112,1,360,0|8,0:0|0:0,0:0:0:0:
292,168,192814,5,0,0:0:0:0:
192,144,193007,1,0,0:0:0:0:
144,120,193103,1,0,0:0:0:0:
100,96,193199,1,0,0:0:0:0:
168,224,193391,1,0,0:0:0:0:
100,96,193583,1,2,0:0:0:0:
100,272,193776,1,8,0:0:0:0:
159,319,193968,6,8,P|192:327|226:324,1,67.5000025749208,8|0,0:0|0:0,0:0:0:0:
244,212,194353,2,8,P|277:209|310:216,1,67.5000025749208,8|0,0:0|0:0,0:0:0:0:
388,292,194737,2,0,P|411:267|428:238,1,67.5000025749208,8|4,0:0|0:0,0:0:0:0:
408,136,195122,1,0,0:0:0:0:
408,136,195218,1,0,0:0:0:0:
408,136,195314,1,0,0:0:0:0:
336,72,195507,5,0,0:0:0:0:
240,68,195699,2,2,L|208:96,2,33.7500012874604,0|0|0,0:0|0:0|0:0,0:0:0:0:
268,144,196276,2,0,L|208:196,2,67.5000025749208,8|2|8,0:0|0:0|0:0,0:0:0:0:
92,112,196853,5,2,0:0:0:0:
160,264,197045,2,0,L|232:280,2,67.5000025749208,8|2|8,0:0|0:0|0:0,0:0:0:0:
292,172,197622,6,0,P|304:128|320:100,1,67.5000025749208
364,200,198007,2,0,P|315:244|251:233,1,135.000005149842
128,196,198776,2,0,P|168:136|226:116,1,135.000005149842
288,156,199353,1,0,0:0:0:0:
368,104,199545,2,0,L|360:28,1,67.5000025749208
376,180,199833,1,0,0:0:0:0:
376,180,199930,2,0,L|380:320,1,135.000005149842
96,204,200507,6,0,L|189:242,1,101.250003862381
32,260,200891,2,0,L|125:298,1,101.250003862381
136,304,201276,1,0,0:0:0:0:
448,128,201468,2,0,P|416:156|312:184,1,135.000005149842
328,40,202237,1,0,0:0:0:0:
236,68,202622,1,0,0:0:0:0:
176,144,203007,2,0,L|204:280,1,135.000005149842
84,280,203583,1,8,0:0:0:0:
296,288,203968,6,0,L|368:292,1,67.5000025749208,0|0,0:0|0:0,0:0:0:0:
160,180,204353,2,0,L|88:176,1,67.5000025749208,0|0,0:0|0:0,0:0:0:0:
116,284,204737,1,0,0:0:0:0:
224,316,204930,2,0,P|230:246|288:212,1,135.000005149842,0|0,0:0|0:0,0:0:0:0:
128,64,205699,1,0,0:0:0:0:
128,64,205891,2,0,L|280:80,1,135.000005149842
262,78,206468,1,0,0:0:0:0:
184,152,206660,2,0,P|144:201|154:268,1,135
272,128,207430,2,0,L|206:66,1,90,0|4,0:0|0:0,0:0:0:0:
116,148,208007,6,0,L|176:204,1,67.5000025749208,2|2,0:0|0:0,0:0:0:0:
316,332,208199,1,8,0:0:0:0:
372,68,208391,2,0,P|332:136|268:120,1,135.000005149842,0|2,0:0|0:0,0:0:0:0:
260,92,208680,1,2,0:0:0:0:
216,108,208776,1,8,0:0:0:0:
212,156,208872,1,2,0:0:0:0:
256,172,208968,1,2,0:0:0:0:
116,147,209160,6,0,P|134:211|192:248,2,135.000005149842,0|8|0,0:0|0:0|0:0,0:0:0:0:
204,320,209737,2,0,P|92:272|48:132,1,270.000010299683,0|8,0:0|0:0,0:0:0:0:
84,52,210314,1,0,0:0:0:0:
128,36,210410,1,2,0:0:0:0:
176,40,210507,5,2,0:0:0:0:
348,208,210699,2,0,P|424:196|448:144,1,135.000005149842,2|8,0:0|0:0,0:0:0:0:
356,124,211083,2,0,B|268:108|224:88|204:120|204:120|172:168|242:197|244:224|220:268,1,270.000010299683
208,328,211660,1,8,0:0:0:0:
288,44,211853,2,0,P|162:61|132:184,1,270.000010299683
196,256,212430,1,2,0:0:0:0:
284,288,212622,1,2,0:0:0:0:
371,327,212814,6,0,B|416:284|416:284|404:232|404:232|444:148|388:89,1,270.000010299683,8|0,0:0|0:0,3:0:0:0:
260,212,213391,1,0,0:0:0:0:
72,272,213583,2,0,P|131:242|210:264,1,135.000005149842
32,332,213968,1,0,0:0:0:0:
96,172,214160,1,8,0:0:0:0:
232,296,214353,5,0,0:0:0:0:
144,332,214545,2,0,P|112:272|140:208,1,135.000005149842
200,156,214930,1,0,0:0:0:0:
228,176,215026,1,0,0:0:0:0:
260,192,215122,1,0,0:0:0:0:
296,188,215218,1,0,0:0:0:0:
332,176,215314,1,0,0:0:0:0:
360,152,215410,1,0,0:0:0:0:
372,116,215507,1,0,0:0:0:0:
368,80,215603,1,0,0:0:0:0:
340,56,215699,1,0,0:0:0:0:
296,48,215795,2,0,L|296:0,1,33.7500012874604,0|8,0:0|0:0,0:0:0:0:
208,48,216083,1,0,0:0:0:0:
96,112,216276,1,0,0:0:0:0:
420,252,216468,5,0,0:0:0:0:
316,296,216660,1,0,0:0:0:0:
62,304,216853,2,0,L|188:248,2,135.000005149842,0|0|0,0:0|0:0|0:0,0:0:0:0:
316,296,217430,1,0,0:0:0:0:
380,192,217622,1,0,0:0:0:0:
380,192,217814,5,0,0:0:0:0:
248,192,218007,1,0,0:0:0:0:
84,200,218199,2,0,P|128:132|188:104,1,135.000005149842,8|2,0:0|0:0,0:0:0:0:
332,96,218583,5,0,0:0:0:0:
412,276,218776,1,0,0:0:0:0:
220,152,218968,1,0,0:0:0:0:
304,228,219160,1,0,0:0:0:0:
304,228,219353,1,0,0:0:0:0:
308,328,219545,1,0,0:0:0:0:
428,200,219737,2,0,P|384:132|316:104,1,135.000005149842,2|8,0:0|0:0,0:0:0:0:
272,48,220122,5,8,0:0:0:0:
148,64,220314,2,0,B|136:88|136:88|156:88|156:88|136:120|136:120|156:120|156:120|136:144|136:144|156:144|156:144|136:176|136:176|156:176|156:176|144:208|144:208|144:236|144:236,1,270.000010299683
84,256,220891,1,0,0:0:0:0:
324,320,221083,2,0,L|180:320,1,135.000005149842
164,312,221468,6,0,P|160:256|216:200,1,135.000005149842,0|8,0:0|0:0,0:0:0:0:
280,156,221853,2,2,P|224:132|152:148,1,135.000005149842,2|8,0:0|0:0,0:0:0:0:
80,108,222237,2,2,P|124:68|200:56,1,135.000005149842,2|8,0:0|0:0,0:0:0:0:
292,52,222622,2,0,P|340:104|408:136,1,135.000005149842,2|8,0:0|0:0,0:0:0:0:
480,192,223007,2,0,P|480:252|416:316,1,135.000005149842,2|8,0:0|0:0,0:0:0:0:
340,288,223391,5,2,0:0:0:0:
176,280,223583,1,8,0:0:0:0:
312,328,223776,1,2,0:0:0:0:
204,232,223968,1,8,0:0:0:0:
280,88,224160,2,0,B|164:56|152:204|24:180,1,270.000010299683,0|2,0:0|0:0,0:0:0:0:
32,80,224737,1,0,0:0:0:0:
128,84,224930,2,0,P|188:168|228:204,1,135.000005149842
324,124,225314,5,0,0:0:0:0:
333,262,225507,2,0,P|396:238|444:192,1,135.000005149842
220,240,225891,1,0,0:0:0:0:
104,156,226083,2,0,P|72:232|104:296,1,135.000005149842
240,104,226468,1,0,0:0:0:0:
376,56,226660,5,0,0:0:0:0:
316,288,226853,2,0,P|384:228|396:168,2,135.000005149842
188,252,227430,1,0,0:0:0:0:
368,104,227622,1,0,0:0:0:0:
188,252,227814,1,0,0:0:0:0:
268,192,228007,2,0,P|220:140|248:80,1,135.000005149842
120,56,228583,6,0,B|148:84|148:84|108:104|88:152|144:200,1,180,8|0,0:0|0:0,0:0:0:0:
188,252,229160,1,2,0:0:0:0:
304,276,229353,1,8,0:0:0:0:
304,276,229545,1,0,0:0:0:0:
110,220,229737,1,2,0:0:0:0:
44,288,229930,2,0,P|92:308|152:316,1,90,0|0,0:0|0:0,0:0:0:0:
312,112,230314,6,0,L|404:96,1,90
472,168,230699,2,0,L|376:184,1,90
220,192,231083,1,0,0:0:0:0:
220,192,231180,1,0,0:0:0:0:
220,192,231276,2,0,B|220:256|220:256|140:224|96:264,1,180
72,288,231853,6,0,L|40:320,2,45,0|0|8,0:0|0:0|0:0,0:0:0:0:
168,192,232237,1,2,0:0:0:0:
308,92,232430,1,8,0:0:0:0:
412,204,232622,2,0,P|320:208|332:276,1,180
224,284,233199,1,0,0:0:0:0:
104,276,233391,2,0,P|48:240|24:204,2,90
136,96,233968,5,0,0:0:0:0:
200,180,234160,2,0,P|248:152|256:112,1,90
376,136,234545,1,0,0:0:0:0:
312,252,234737,1,0,0:0:0:0:
452,200,234930,2,0,P|448:252|424:292,1,90
328,340,235314,1,0,0:0:0:0:
196,272,235507,5,8,0:0:0:0:
104,216,235699,2,0,P|60:168|48:128,1,90
44,48,236083,1,0,0:0:0:0:
160,160,236276,2,0,P|232:200|248:200,1,90
248,68,236660,2,0,L|152:68,2,90
368,96,237237,6,0,L|328:185,1,90
248,196,237622,1,0,0:0:0:0:
248,196,237814,1,0,0:0:0:0:
136,304,238007,2,0,L|168:216,1,90
352,338,238391,2,0,P|386:330|424:292,2,90
236,296,238968,5,0,0:0:0:0:
120,232,239160,2,0,P|136:224|184:156,1,90
264,160,239545,1,0,0:0:0:0:
120,232,239737,1,0,0:0:0:0:
80,112,239930,2,0,P|128:84|160:72,1,90
392,108,240314,1,0,0:0:0:0:
392,108,240410,1,0,0:0:0:0:
392,108,240507,2,0,P|340:172|400:232,1,180
308,296,241083,5,0,0:0:0:0:
244,156,241276,2,0,L|340:188,1,90
224,240,241660,2,0,L|120:232,1,90
84,148,242045,1,0,0:0:0:0:
220,92,242237,1,0,0:0:0:0:
84,148,242430,1,0,0:0:0:0:
220,92,242622,1,0,0:0:0:0:
220,92,242718,1,0,0:0:0:0:
220,92,242814,1,0,0:0:0:0:
368,104,243007,6,0,P|432:144|428:168,2,90
352,208,243583,2,0,B|312:208|312:208|300:304|180:252,1,180
92,180,244353,5,0,0:0:0:0:
92,180,244737,1,0,0:0:0:0:
156,248,244930,1,2,0:0:0:0:
72,296,245122,2,0,P|120:336|164:336,2,90
60,216,245699,1,0,0:0:0:0:
72,128,245891,2,0,P|104:96|156:80,1,90
200,156,246276,5,0,0:0:0:0:
352,196,246468,1,0,0:0:0:0:
188,248,246660,2,0,P|236:244|264:216,1,90
336,96,247045,1,0,0:0:0:0:
336,96,247237,1,0,0:0:0:0:
464,164,247430,1,0,0:0:0:0:
340,320,247622,2,0,L|400:252,1,90
167,253,248199,5,0,0:0:0:0:
192,104,248391,1,0,0:0:0:0:
344,130,248583,1,0,0:0:0:0:
317,280,248776,1,0,0:0:0:0:
380,304,249160,2,0,L|432:304,2,45
272,112,249737,5,0,0:0:0:0:
160,204,249930,1,0,0:0:0:0:
292,264,250122,1,0,0:0:0:0:
248,192,250314,1,0,0:0:0:0:
342,96,250507,5,0,0:0:0:0:
116,130,250699,1,0,0:0:0:0:
246,318,250891,1,0,0:0:0:0:
323,146,251083,5,0,0:0:0:0:
179,132,251276,1,0,0:0:0:0:
230,268,251468,1,0,0:0:0:0:
252,56,251660,1,0,0:0:0:0:
112,88,251853,5,2,0:0:0:0:
56,224,252045,1,8,0:0:0:0:
156,268,252237,1,0,0:0:0:0:
156,268,252333,1,0,0:0:0:0:
156,268,252430,2,0,P|208:252|240:228,1,90
256,192,252718,12,0,258583,0:0:0:0:
