osu file format v5

[General]
AudioFilename: 19 Theme of SEGA Carnival.mp3
AudioLeadIn: 51
PreviewTime: -1
Countdown: 2
SampleSet: Normal
StackLeniency: 0.7
Mode: 0
LetterboxInBreaks: 1

[Metadata]
Title:Theme of SEGA Carnival
Artist:Fumie Kumatani
Creator:Shinyoka
Version:Easy
Source:
Tags:Sega

[Difficulty]
HPDrainRate:3
CircleSize:4
OverallDifficulty:4
SliderMultiplier:1.4
SliderTickRate:1

[Events]
//Background and Video events
0,0,"sonic_riders001_1280x1024.png"
//Break Periods
2,40488,45538
2,114231,119193
//Storyboard Layer 0 (Background)
//Storyboard Layer 1 (Failing)
//Storyboard Layer 2 (Passing)
//Storyboard Layer 3 (Foreground)
//Storyboard Sound Samples
//Background Colour Transformations
3,100,0,0,0

[TimingPoints]
0,Infinity,4,1,0,100,1
8349,400,4,1,0,100,1
21149,413.793103448276,4,1,0,100,1
27355,397.599999999999,4,1,0,100,1 136297,Infinity,4,1,0,100,1

[Colours]
Combo1 : 140,163,253
Combo2 : 0,0,160
Combo3 : 5,5,240
Combo4 : 120,120,237

[HitObjects]
96,64,8349,5,0
128,128,9729,1,0
256,192,11547,1,0
384,128,12913,1,0
288,128,14727,5,0
192,128,16121,1,0
160,224,17987,1,0
320,256,19318,1,0
32,160,21196,6,0,B|384:160,1,280
288,96,22695,5,0
384,192,23113,1,0
288,288,23531,1,0
160,64,24437,5,0
352,160,25991,1,0
128,64,27436,5,0
256,128,28150,1,0
320,128,28945,1,0
352,128,29342,1,0
192,160,30755,1,0
352,256,32126,1,0
96,96,33989,5,0
288,128,35306,1,0
352,128,35704,1,0
224,160,37133,1,8
96,96,38698,6,0,B|384:96,2,280
128,96,46738,5,0
256,96,48221,1,0
160,160,50018,1,0
288,128,51256,1,0
160,128,53198,1,0
192,128,53596,1,0
224,128,53967,1,0
224,160,54690,1,0
160,160,56379,1,0
224,160,57174,1,0
288,96,59560,1,0
192,128,61150,5,0
288,96,62741,1,0
288,128,63536,1,0
160,96,65922,1,0
192,96,66319,1,0
224,96,66717,1,0
224,160,67512,1,0
160,128,69209,1,0
224,128,69898,1,0
160,128,72408,1,0
224,160,73955,5,0
160,128,75581,1,0
224,128,77152,1,0
128,128,78761,1,0
160,128,79556,1,0
192,128,80361,1,0
160,128,81968,1,0
192,128,83354,1,0
256,160,85368,5,0
192,160,85766,1,0
192,96,86740,1,0
160,96,87137,1,0
128,96,87535,1,0
192,160,88392,1,0
288,160,89778,1,0
320,192,90175,1,0
288,288,91368,1,0
128,160,92969,6,0,B|320:160|288:160,1,140
128,160,94785,6,0,B,1,140
160,64,96139,2,0,B|256:64|320:192,1,140
288,96,97730,1,0
288,96,97851,1,0
256,96,98289,1,0
256,96,98427,1,0
160,128,100409,5,0
192,128,100767,1,0
231,128,101192,1,0
288,192,101831,1,0
352,192,102103,1,0
384,192,102207,1,0
384,192,102309,1,0
416,192,102510,1,0
448,192,102898,2,0,B|32:352|32:0,1,560
288,64,107590,5,0
320,96,108215,1,0
352,128,108416,1,0
320,160,108546,1,0
288,160,108674,1,0
256,160,108751,1,0
224,160,108982,1,0
192,160,109340,1,0
32,128,110538,1,0
64,128,110756,1,0
96,128,110977,1,0
128,128,111177,1,0
160,128,111370,1,0
192,128,111794,1,0
224,128,111950,1,0
256,128,112441,2,0,B|512:352|480:320,2,280
32,160,120393,5,0
96,160,120790,1,0
128,160,121116,1,0
160,160,121229,1,0
192,160,121572,1,0
256,160,122123,1,0
288,160,122403,1,0
320,160,122721,1,0
448,160,123239,1,0
448,224,123723,1,0
416,224,123846,1,0
384,224,124190,1,0
288,224,124678,1,0
256,224,125012,1,0
192,224,125312,1,0
160,224,125450,1,0
32,192,125964,1,0
32,160,126089,1,0
