osu file format v5

[General]
AudioFilename: 18_Theme_of_E-102r.mp3
AudioLeadIn: 0
PreviewTime: -1
Countdown: 0
SampleSet: Soft
StackLeniency: 0.7
Mode: 0
LetterboxInBreaks: 1
EditorBookmarks: 200443

[Metadata]
Title:Theme of "E-102y"
Artist:Fumie Kumatani
Creator:TheRagnarok
Version:Insane
Source:Sonic Adventure (DX)
Tags:sonic adventure e-102 gamma

[Difficulty]
HPDrainRate:8
CircleSize:6
OverallDifficulty:7
SliderMultiplier:1.6
SliderTickRate:2

[Events]
//Background and Video events
0,0,"e-102r.jpg"
//Break Periods
2,86647,95546
2,160144,165794
//Storyboard Layer 0 (Background)
//Storyboard Layer 1 (Failing)
//Storyboard Layer 2 (Passing)
//Storyboard Layer 3 (Foreground)
//Storyboard Sound Samples
//Background Colour Transformations
3,100,163,162,255

[TimingPoints]
24436,500,4,2,0,69,1

[Colours]
Combo1 : 254,222,1
Combo2 : 141,141,141
Combo3 : 227,13,13
Combo4 : 60,240,15

[HitObjects]
72,56,24936,2,0,L|160:56,1,80
216,56,25436,1,2
280,56,25686,1,2
344,56,25936,2,0,L|344:152,2,80
408,56,26686,1,8
408,184,27186,1,2
408,184,27311,1,2
408,184,27436,1,2
344,184,27686,1,0
296,232,27936,1,0
248,280,28186,1,0
248,152,28686,1,4
184,152,28936,6,8,L|184:48|408:48|408:208|240:384|240:152,1,960
64,48,32936,6,0,L|136:120,1,80
176,80,33436,1,2
176,144,33686,1,2
240,144,33936,2,0,L|320:144,3,80,0|0|0|8
440,296,35436,5,0
440,232,35686,1,0
440,168,35936,1,10
440,104,36186,1,10
376,104,36436,6,0,B|368:128|353:148|325:163|292:173|261:173|237:163|216:148|199:130|186:111|176:96|184:80,1,240
56,104,37686,5,0
56,168,37936,1,0
104,256,38436,2,0,B|168:176,1,80,8|0
184,192,38811,2,0,B|272:192,1,80,8|0
288,168,39186,1,10
416,176,39686,2,0,B|416:208|409:223|384:238|360:232,1,80
373,233,40186,1,4
373,233,40436,1,4
248,232,40936,5,0
120,232,41436,2,2,B|120:184,1,40
120,160,41686,1,2
120,32,42186,1,8
216,120,42686,1,2
264,72,42936,1,2
304,120,43186,1,2
352,72,43436,1,2
416,72,43686,1,2
416,72,43811,1,2
416,72,43936,1,2
480,72,44186,2,4,B|480:264,1,160
256,336,45436,5,0
256,272,45686,1,0
224,144,46436,2,8,B|241:124|256:112|276:120|283:140|288:144,1,80
256,192,46936,1,0
256,192,47436,1,0
256,192,48936,6,0,L|256:112,1,80
304,152,49436,1,2
304,88,49686,1,2
304,24,49936,2,0,L|200:24,2,80
368,24,50686,1,8
368,152,51186,1,2
368,152,51311,1,2
368,152,51436,1,2
368,216,51686,1,0
368,280,51936,1,0
320,240,52186,1,0
240,344,52686,1,4
136,264,53186,5,0
136,136,53686,1,0
232,136,54061,1,0
232,200,54311,1,0
200,200,54436,1,0
104,200,54811,1,0
104,104,55186,1,0
232,104,55686,1,0
328,104,56061,1,0
360,104,56186,1,0
360,168,56436,1,0
232,168,56936,6,0,L|232:248,1,80
232,312,57436,1,2
280,272,57686,1,2
280,208,57936,2,0,L|168:208,3,80,0|0|0|8
80,144,59436,5,0
128,184,59686,1,0
80,224,59936,1,10
128,264,60186,1,10
192,264,60436,6,0,B|200:288|215:308|243:323|276:333|307:333|331:323|352:308|369:290|382:271|392:256|384:240,1,240
384,136,61686,5,0
384,200,61936,1,0
256,232,62436,2,0,B|192:152,1,80,8|0
176,168,62811,2,0,B|88:168,1,80,8|0
72,152,63186,1,10
72,24,63686,2,0,B|104:24|119:31|134:56|120:88,1,80
192,72,64186,1,4
256,72,64436,1,4
384,72,64936,5,0
384,200,65436,2,2,B|344:240,1,40
336,248,65686,1,2
208,248,66186,1,8
80,248,66686,1,2
128,200,66936,1,2
80,152,67186,1,2
128,112,67436,1,2
80,64,67686,1,2
80,64,67811,1,2
80,64,67936,1,2
144,64,68186,2,4,B|336:64,1,160
456,56,69436,5,2
456,120,69686,1,2
456,184,69936,1,2
456,248,70186,1,2
456,312,70436,2,8,B|384:264,1,80,8|2
389,267,70811,2,8,B|312:208,1,80,8|2
325,218,71186,2,8,B|256:160,1,80,8|2
263,166,71561,2,8,B|200:112,1,80,8|2
202,113,71936,1,6
96,192,72436,6,2,B|440:192,1,320
368,144,73686,1,0
320,96,73936,1,0
272,48,74186,1,0
56,56,75186,6,2,B|184:184,1,160,2|10
144,224,75936,1,10
208,224,76186,1,10
272,224,76436,2,0,L|272:144|352:144|352:232,1,240,8|0
480,216,77686,5,0
416,216,77936,1,0
480,216,78186,1,0
416,216,78436,1,0
416,216,78811,1,0
416,312,79186,2,2,L|288:176|232:240|176:176,1,320
200,203,80436,2,10,L|80:328,1,160
89,318,81186,2,4,B|88:232|96:176|136:136|184:104|272:80|368:80,1,400
344,144,82686,1,0
344,208,82936,1,0
384,256,83186,2,2,B|320:336,1,80
334,318,83686,2,2,B|272:248,1,80
280,192,84186,1,10
256,192,84436,12,4,86436
104,56,96436,5,4
88,120,96686,1,0
120,120,96811,1,4
384,56,97436,5,4
400,120,97686,1,0
368,120,97811,1,4
104,240,98436,5,4
88,304,98686,1,0
120,304,98811,1,4
384,248,99436,5,4
400,312,99686,1,0
368,312,99811,1,4
256,192,100436,12,4,103936
96,272,104936,6,0,L|96:192,1,80
160,192,105436,1,2
224,192,105686,1,2
288,192,105936,2,0,L|288:96,2,80
288,256,106686,1,8
160,256,107186,1,2
160,256,107311,1,2
160,256,107436,1,2
224,256,107686,1,0
224,192,107936,1,0
160,192,108186,1,0
48,256,108686,1,4
48,192,108936,6,8,L|48:112|304:112|304:280|480:112|480:328,1,960
448,336,112936,6,0,L|376:264,1,80
336,304,113436,1,2
336,240,113686,1,2
272,240,113936,2,0,L|192:240,3,80,0|0|0|8
256,56,115436,5,0
288,112,115686,1,0
224,112,115936,1,10
256,168,116186,1,10
320,168,116436,6,0,B|320:200|328:240|344:280|377:294|402:274|416:240|424:208|424:168,1,240
424,40,117686,5,0
424,104,117936,1,0
296,112,118436,2,0,B|216:48,1,80,8|0
200,64,118811,2,0,B|120:128,1,80,8|0
136,144,119186,1,10
136,272,119686,2,0,L|232:272,3,80,0|0|4|4
344,272,120936,5,0
344,144,121436,2,2,B|360:88,1,40
368,72,121686,1,2
472,144,122186,1,8
472,272,122686,1,2
432,216,122936,1,2
400,272,123186,1,2
360,216,123436,1,2
328,272,123686,1,2
328,272,123811,1,2
328,272,123936,1,2
264,272,124186,2,4,B|112:160,1,160
64,312,125436,5,0
112,264,125686,1,0
256,136,126436,2,8,B|272:136|280:144|288:160|280:168|272:184|248:192,1,80
296,240,126936,1,0
376,336,127436,1,0
296,72,128936,6,0,L|192:72,1,80
168,120,129436,1,2
168,184,129686,1,2
216,224,129936,2,0,L|216:312,2,80
280,224,130686,1,10
392,168,131186,1,2
392,168,131311,1,2
392,168,131436,1,2
392,104,131686,1,0
456,104,131936,1,0
456,168,132186,1,0
456,296,132686,1,4
328,296,133186,5,0
328,168,133686,1,0
232,168,134061,1,0
232,104,134311,1,0
232,136,134436,1,0
328,136,134811,1,0
232,136,135186,1,0
256,264,135686,1,2
256,264,135936,2,4,B|256:160,1,80
256,184,136436,1,6
128,184,136936,6,0,L|192:248,1,80
120,240,137436,1,2
184,240,137686,1,2
184,176,137936,2,0,L|184:72,3,80,0|0|0|8
376,104,139436,5,0
336,152,139686,1,0
296,200,139936,1,10
248,248,140186,1,10
184,248,140436,6,0,B|192:272|207:292|235:307|268:317|299:317|323:307|344:292|361:274|374:255|384:240|376:224,1,240
456,144,141686,5,0
392,144,141936,1,0
264,144,142436,2,0,B|264:248,1,80,8|0
304,192,142811,2,0,B|216:192,1,80,8|0
192,192,143186,1,10
64,192,143686,2,0,B|96:192|111:185|126:160|112:128,1,80
160,104,144186,1,4
208,144,144436,1,4
304,232,144936,5,0
304,104,145436,2,2,B|304:152,2,40
304,232,146186,1,8
176,232,146686,1,2
176,296,146936,1,2
176,232,147186,1,2
176,168,147436,1,2
176,104,147686,1,2
176,104,147811,1,2
176,104,147936,1,2
240,104,148186,2,4,B|352:248,1,160
154,329,149436,5,2
218,329,149686,1,2
282,329,149936,1,2
346,329,150186,1,2
410,329,150436,2,2,B|362:257,1,80,8|2
365,262,150811,2,2,B|306:185,1,80,8|2
316,198,151186,2,2,B|258:129,1,80,8|2
264,136,151561,2,2,B|210:73,1,80,8|2
211,75,151936,1,6
80,72,152436,6,0,B|80:128|80:168|96:192|120:232|160:272|184:304|248:328,2,320
144,72,154686,1,8
232,168,155186,1,8
320,72,155686,1,8
400,168,156186,1,8
400,232,156436,2,0,L|320:88|272:248|224:88|88:88,1,560,8|0
162,88,158436,2,0,B|152:224|128:264|64:304,1,240
72,232,159436,5,2
72,168,159686,1,2
72,104,159936,1,2
256,192,166686,5,8
256,192,166936,1,0
200,192,167186,5,8
200,192,167436,1,0
312,192,167686,5,8
312,192,167936,1,0
256,192,168186,5,8
256,192,168436,2,4,B|256:144|280:128|336:112|384:128|408:152|416:184|416:216|400:240|344:280|320:288|264:296|240:296|152:256,1,480
168,136,170436,5,2
232,136,170686,2,2,B|320:136,1,80
312,136,171186,1,8
312,264,171686,1,8
184,264,172186,1,0
184,264,172436,2,2,B|88:264,2,80
184,200,173186,1,10
304,344,173936,5,0
304,216,174436,1,0
304,152,174686,5,0
304,152,174936,2,2,B|232:88,1,80
304,152,175686,2,8,B|384:224,2,80
304,152,176436,2,10,B|336:112|360:96|392:96|424:104|456:128|448:128,1,160,10|10
440,184,177186,1,2
336,104,177686,1,2
232,24,178186,2,2,B|232:120,3,80
232,104,179186,2,4,B|128:104,1,80
152,40,179686,1,4
64,40,180436,5,0
64,40,180686,1,0
64,40,180936,1,0
104,88,181186,5,10
168,88,181436,1,0
168,152,181686,5,10
232,152,181936,1,0
232,216,182186,5,10
296,216,182436,1,0
296,152,182686,5,10
360,152,182936,1,0
360,88,183186,5,10
424,88,183436,1,0
424,24,183686,5,10
488,24,183936,1,0
488,152,184436,6,0,B|488:248,2,80
440,200,185186,2,0,B|184:200,1,240,0|4
72,200,186436,5,2
136,200,186686,2,2,B|224:200,1,80
280,200,187186,1,8
408,200,187686,1,8
296,136,188186,1,0
296,136,188436,2,2,B|200:136,2,80
256,88,189186,1,10
256,192,189936,5,0
256,192,190436,1,0
216,240,190686,5,0
152,240,190936,2,2,B|80:176,1,80
176,88,191686,2,8,B|256:160,2,80
112,88,192436,2,10,B|72:120|56:144|56:176|64:208|88:240|88:232,1,160
144,232,193186,1,2
272,232,193686,1,2
376,232,194186,2,2,B|376:136,3,80
376,152,195186,2,4,B|480:152,1,80
456,88,195686,1,4
256,104,196436,5,0
256,104,196686,1,0
256,104,196936,1,0
200,136,197186,5,10
200,200,197436,1,0
240,248,197686,5,10
304,248,197936,1,0
336,192,198186,5,10
328,128,198436,1,0
256,192,198686,12,4,200436
