osu file format v5

[General]
AudioFilename: 18_Theme_of_E-102r.mp3
AudioLeadIn: 0
PreviewTime: -1
Countdown: 0
SampleSet: Soft
StackLeniency: 0.7
Mode: 0
LetterboxInBreaks: 1
EditorBookmarks: 86447,96446,200443

[Metadata]
Title:Theme of "E-102y"
Artist:Fumie Kumatani
Creator:TheRagnarok
Version:Easy
Source:Sonic Adventure (DX)
Tags:sonic adventure e-102 gamma

[Difficulty]
HPDrainRate:2
CircleSize:3
OverallDifficulty:2
SliderMultiplier:1.4
SliderTickRate:1

[Events]
//Background and Video events
0,0,"e-102r.jpg"
//Break Periods
2,86646,94886
2,160144,165134
//Storyboard Layer 0 (Background)
//Storyboard Layer 1 (Failing)
//Storyboard Layer 2 (Passing)
//Storyboard Layer 3 (Foreground)
//Storyboard Sound Samples
//Background Colour Transformations
3,100,163,162,255

[TimingPoints]
24436,500,4,2,0,69,1

[Colours]
Combo1 : 254,222,1
Combo2 : 141,141,141
Combo3 : 227,13,13
Combo4 : 60,240,15

[HitObjects]
96,288,24936,1,0
177,288,25436,1,0
299,290,26186,2,2,L|299:130,1,140,2|8
176,148,27436,1,0
173,270,28186,1,2
117,210,28686,1,2
117,210,29186,6,0,B|120:128|168:120|208:120|248:136|280:160,1,210
272,232,30436,2,0,B|257:298|300:333|369:319|400:300|432:284|463:252|462:188|448:152|400:128|380:88|305:77|259:66|200:64,1,560,0|2
128,64,32936,5,0
128,145,33436,1,0
250,148,34186,2,2,L|374:271,1,140,2|8
422,147,35436,1,0
421,65,35936,1,10
421,65,36186,1,10
64,192,37686,6,0,L|64:288,1,70
145,262,38436,1,2
191,222,38811,1,2
235,179,39186,1,2
357,177,39936,1,4
357,177,40436,1,6
256,288,41436,6,0,L|256:192,1,70
256,136,42186,1,8
304,70,42686,2,0,L|382:70,3,70
377,192,44186,1,2
376,273,44686,1,10
256,272,45436,5,0
256,192,45936,1,0
256,112,46436,2,2,B|256:40,1,70
376,40,47436,1,0
96,64,48936,6,2,B|105:93|157:110|171:103|202:80|211:60,1,140
249,64,49686,1,2
317,64,50186,1,0
382,115,50686,1,8
310,159,51186,2,0,L|191:159,1,70
113,162,52186,1,2
113,162,52686,1,2
232,160,53436,5,0
312,160,53936,1,0
312,216,54311,2,2,B|312:264,1,35
232,248,54936,1,0
232,168,55436,1,0
64,320,56936,6,2,B|85:285|132:288|151:276|179:308|184:326,1,140
223,322,57686,1,2
286,263,58186,1,0
347,320,58686,1,8
473,320,59436,2,2,B|473:189,1,70
442,220,59936,1,10
442,220,60186,1,10
397,111,61686,6,0,B|328:182,1,70
286,218,62436,1,2
239,175,62811,1,2
194,130,63186,1,2
138,67,63686,2,4,B|98:96|84:123|72:172|74:216|116:264,1,210
190,255,64936,5,0
274,255,65436,2,2,L|274:158,1,70,2|2
190,188,66186,1,8
190,103,66686,2,2,B|289:103,4,70
104,104,68186,1,4
104,184,68686,1,12
256,192,69436,12,4,71436
160,320,72436,6,2,B|96:288|64:224|64:160|52:56|128:32|256:32|320:32|352:64|416:128,1,560,2|10
386,223,75186,1,0
469,224,75686,2,10,B|470:145,2,70
468,266,76436,2,4,C|444:286|425:292|412:294|397:294|384:292|373:287|356:272|344:252|340:243|335:226|332:208|324:195|312:205|303:216|293:229|280:246|269:258|253:271|245:276|236:281|225:287|205:293|188:297|172:300|154:299|142:296|126:288|111:279|97:268|84:254|73:238|63:220|57:205,1,560,8|4
52,82,79186,5,0
136,82,79686,2,10,C|136:186,2,70
178,82,80436,2,2,C|257:73|324:80|388:110|365:190|329:242|277:280|207:296|137:284,1,560,8|2
73,189,83186,1,0
72,104,83686,1,0
74,189,84186,2,4,B|110:120|120:-3|213:69|226:120|183:248|204:332|261:364|303:374|316:236|333:186|332:139|334:99|339:66|377:36|416:38|432:54,1,630,0|4
63,51,96436,6,4,B|193:51,1,105,4|12
168,156,97436,2,4,B|168:293,1,105,4|12
273,265,98436,2,4,B|392:265,1,105,4|12
378,159,99436,2,12,B|378:50,1,105,4|12
256,192,100436,12,0,103936
66,60,104936,5,0
123,121,105436,1,0
208,212,106186,2,2,L|327:341,1,140,2|8
395,229,107436,1,0
392,103,108186,1,2
449,164,108686,1,2
448,248,109186,6,0,B|445:330|397:338|357:338|317:322|285:298,1,210
296,224,110436,2,0,B|344:224|392:208|408:168|372:89|368:88|328:76|242:74|204:137|192:283|149:299|112:292|86:270|86:197|90:162|88:120,1,560,0|2
92,68,112936,5,0
175,68,113436,1,0
300,74,114186,2,2,L|463:74,1,140,2|8
364,174,115436,1,0
279,174,115936,1,10
279,174,116186,1,10
76,120,117686,6,0,L|76:216,1,70
160,193,118436,1,2
204,148,118811,1,2
247,193,119186,1,2
372,197,119936,1,4
373,197,120436,1,4
187,254,121436,6,0,L|102:158,1,70
86,137,122186,1,8
84,53,122686,2,0,L|162:53,3,70
280,56,124186,1,2
283,139,124686,1,10
400,144,125436,5,0
400,224,125936,1,0
400,304,126436,2,2,B|320:304,1,70
328,184,127436,1,0
84,301,128936,6,2,B|113:292|130:240|123:226|100:195|80:186,1,140
83,145,129686,1,2
83,61,130186,1,0
167,61,130686,1,8
167,145,131186,2,0,L|48:145,1,70
97,271,132186,1,2
176,272,132686,1,2
176,152,133436,5,0
256,152,133936,1,0
312,152,134311,2,2,B|312:200,1,35
256,248,134936,1,0
256,328,135436,1,0
460,319,136936,6,2,B|425:298|428:251|416:232|448:204|466:199,1,140
460,159,137686,1,2
460,74,138186,1,0
375,73,138686,1,8
376,198,139436,2,2,B|510:198,1,70
447,240,139936,1,10
447,240,140186,1,10
255,76,141686,6,0,B|256:184,1,70
255,230,142436,1,2
305,191,142811,1,2
354,151,143186,1,2
425,106,143686,2,4,B|465:135|479:162|491:211|489:255|447:303,1,210
372,292,144936,5,0
288,289,145436,2,2,B|179:289,1,70
160,227,146186,1,8
225,174,146686,2,2,B|297:117,4,70
304,176,148186,1,4
384,176,148686,1,4
256,192,149436,12,4,151936
60,47,152436,6,4,L|169:313|240:32|491:352,1,980,8|4
404,353,156436,2,2,B|316:341|264:312|223:273|184:233|157:187|128:128|109:72,1,420
196,80,158436,2,0,B|267:80|309:94|328:123,1,140
329,203,159436,1,8
329,287,159936,1,8
384,192,166686,5,4
299,192,167186,1,4
215,193,167686,1,4
130,193,168186,1,4
87,193,168436,6,4,B|88:122|116:84|159:53|216:33|289:32|342:52|384:87|419:128,1,420,4|0
407,198,170436,2,10,B|288:198,1,70
277,138,171186,1,8
216,196,171686,1,8
89,196,172436,2,10,B|88:229|97:242|108:255|120:261,1,70
187,300,173186,1,10
228,233,174686,6,2,B|231:250|248:258|264:258|270:250|280:229,2,70
228,148,175686,2,4,B|251:126|258:124|280:137|289:159,3,70
388,223,177186,1,0
388,138,177686,1,0
388,53,178186,1,0
219,53,179186,1,8
219,53,179436,1,8
219,53,179686,1,8
93,55,180436,6,0,B|93:217,1,140
135,195,181186,1,0
191,256,181686,1,2
249,315,182186,1,2
249,230,182686,1,6
249,146,183186,1,6
250,62,183686,1,6
376,62,184436,6,0,L|153:62|153:280,1,420
237,260,186436,2,10,B|356:260,1,70
309,175,187186,1,8
392,175,187686,1,8
481,263,188436,2,10,B|482:296|473:309|462:322|450:328,1,70
371,325,189186,1,10
215,164,190686,6,2,B|198:167|190:184|190:200|198:206|219:216,2,70
300,164,191686,2,4,B|322:187|324:194|311:216|289:225,3,70
256,340,193186,1,0
256,255,193686,1,0
256,170,194186,1,0
88,167,195186,1,8
88,167,195436,1,8
88,167,195686,1,8
175,76,196436,6,0,B|281:173,1,140
250,202,197186,1,2
314,255,197686,1,2
265,323,198186,1,2
256,192,198686,12,4,200436
