osu file format v14

[General]
AudioFilename: Fullmetal Alchemist - Bestamvsofalltime.mp3
AudioLeadIn: 0
PreviewTime: 0
Countdown: 0
SampleSet: Normal
StackLeniency: 0.7
Mode: 0
LetterboxInBreaks: 0
WidescreenStoryboard: 0

[Editor]
DistanceSpacing: 2
BeatDivisor: 4
GridSize: 4
TimelineZoom: 2.3

[Metadata]
Title:Bestamvsofalltime
TitleUnicode:Bestamvsofalltime
Artist:Fullmetal Alchemist
ArtistUnicode:Fullmetal Alchemist
Creator:Xazariorus
Version:Insane
Source:
Tags:Mozart L'Opera Rock - Le Bien Qui Fait Mal
BeatmapID:696721
BeatmapSetID:312010

[Difficulty]
HPDrainRate:7
CircleSize:4
OverallDifficulty:7
ApproachRate:8
SliderMultiplier:1.6
SliderTickRate:2

[Events]
//Background and Video events
0,0,"77_Full_Metal_Alchemist.jpg",0,0
Video,0,"Fullmetal Alchemist - Bestamvsofalltime.avi"
//Break Periods
//Storyboard Layer 0 (Background)
//Storyboard Layer 1 (Fail)
//Storyboard Layer 2 (Pass)
//Storyboard Layer 3 (Foreground)
//Storyboard Sound Samples

[TimingPoints]
3400,366.166239472721,4,1,0,40,1,0
12507,-66.6666666666667,4,1,0,40,0,0
15254,-100,4,1,0,40,0,0
72192,-66.6666666666667,4,1,0,40,0,0
73446,-100,4,1,0,40,0,0
75854,-66.6666666666667,4,1,0,40,0,0
78783,-100,4,1,0,40,0,0
102264,-66.6666666666667,4,1,0,40,0,0
102722,-100,4,1,0,40,0,0
113935,-66.6666666666667,4,1,0,40,0,0
120664,-100,4,1,0,40,0,0
140299,-66.6666666666667,4,1,0,40,0,0
146799,-100,4,1,0,40,0,0
147440,-66.6666666666667,4,1,0,40,0,0
151101,-100,4,1,0,40,0,0
157814,-66.6666666666667,4,1,0,40,0,0
159843,-100,4,1,0,40,0,0
163276,-50,4,1,0,40,0,0
163734,-100,4,1,0,40,0,0

[Colours]
Combo1 : 0,193,0
Combo2 : 0,193,193
Combo3 : 185,0,185
Combo4 : 191,191,0

[HitObjects]
60,44,3400,5,0,0:0:0:0:
60,44,3766,1,8,0:0:0:0:
444,48,4132,1,0,0:0:0:0:
444,48,4498,1,8,0:0:0:0:
448,344,4864,1,0,0:0:0:0:
448,344,5230,1,8,0:0:0:0:
68,340,5596,1,0,0:0:0:0:
68,340,5963,1,8,0:0:0:0:
408,276,6329,5,0,0:0:0:0:
92,224,6695,1,8,0:0:0:0:
404,164,7061,1,0,0:0:0:0:
84,136,7427,1,8,0:0:0:0:
400,76,7793,1,0,0:0:0:0:
84,36,8160,1,8,0:0:0:0:
200,336,8526,5,0,0:0:0:0:
464,156,8892,1,8,0:0:0:0:
112,76,9258,1,0,0:0:0:0:
352,288,9624,1,8,0:0:0:0:
48,192,9990,1,0,0:0:0:0:
420,80,10357,1,8,0:0:0:0:
100,92,10723,1,0,0:0:0:0:
256,372,11089,1,8,0:0:0:0:
232,52,11455,5,0,0:0:0:0:
68,328,11821,1,8,0:0:0:0:
388,324,12187,1,0,0:0:0:0:
196,192,12554,2,4,L|72:192,2,120.000004577637
312,192,14018,2,4,L|436:192,2,120.000004577637
248,308,14751,2,4,L|248:188,2,120.000004577637
256,48,15483,5,0,0:0:0:0:
20,264,15849,1,8,0:0:0:0:
256,48,16215,1,0,0:0:0:0:
124,340,16581,1,8,0:0:0:0:
256,48,16948,1,0,0:0:0:0:
256,368,17314,1,8,0:0:0:0:
256,48,17680,1,0,0:0:0:0:
396,336,18046,1,8,0:0:0:0:
256,48,18412,1,0,0:0:0:0:
500,252,18778,1,8,0:0:0:0:
256,48,19145,1,0,0:0:0:0:
88,48,19511,5,8,0:0:0:0:
408,48,19877,1,0,0:0:0:0:
176,268,20243,2,8,L|360:268,1,160
160,84,20975,5,0,0:0:0:0:
374,321,21342,1,8,0:0:0:0:
208,44,21708,1,0,0:0:0:0:
304,348,22074,1,8,0:0:0:0:
280,30,22440,1,0,0:0:0:0:
227,345,22806,1,8,0:0:0:0:
353,52,23172,1,0,0:0:0:0:
161,308,23539,1,8,0:0:0:0:
482,289,23905,1,0,0:0:0:0:
232,144,24271,6,8,L|192:168,3,40
244,212,25369,2,8,L|280:188,3,40
256,48,26102,5,0,0:0:0:0:
64,304,26468,1,4,0:0:0:0:
112,304,26651,1,4,0:0:0:0:
156,304,26834,1,4,0:0:0:0:
288,224,27200,5,0,0:0:0:0:
220,168,27566,1,0,0:0:0:0:
312,240,27932,1,0,0:0:0:0:
200,152,28298,1,8,0:0:0:0:
368,280,28665,1,8,0:0:0:0:
144,116,29031,1,0,0:0:0:0:
424,316,29397,1,0,0:0:0:0:
96,76,29763,1,0,0:0:0:0:
96,76,30129,1,2,0:0:0:0:
448,52,30495,5,2,0:0:0:0:
256,276,30862,1,2,0:0:0:0:
48,52,31228,1,8,0:0:0:0:
256,296,31594,1,8,0:0:0:0:
472,84,31960,1,8,0:0:0:0:
256,340,32326,1,8,0:0:0:0:
32,40,32692,1,8,0:0:0:0:
44,304,33059,5,4,0:0:0:0:
224,304,33425,1,4,0:0:0:0:
136,304,33791,1,4,0:0:0:0:
392,304,34157,1,2,0:0:0:0:
308,304,34523,1,2,0:0:0:0:
484,308,34889,1,2,0:0:0:0:
484,308,35256,1,8,0:0:0:0:
436,116,35622,5,8,0:0:0:0:
360,292,35988,1,4,0:0:0:0:
292,112,36354,1,4,0:0:0:0:
212,288,36720,1,4,0:0:0:0:
140,108,37086,1,2,0:0:0:0:
60,284,37453,1,2,0:0:0:0:
60,108,37819,5,8,0:0:0:0:
136,284,38185,1,8,0:0:0:0:
212,108,38551,1,8,0:0:0:0:
280,288,38917,1,8,0:0:0:0:
360,112,39283,1,8,0:0:0:0:
436,288,39650,1,8,0:0:0:0:
448,96,40016,6,2,L|280:96,1,160
340,280,40748,6,2,L|172:280,1,160
224,92,41480,6,2,L|56:92,1,160
48,288,42213,6,8,L|212:288,2,160
296,288,43311,2,8,L|472:288,2,160
460,44,44410,5,4,0:0:0:0:
232,308,44776,1,4,0:0:0:0:
36,36,45142,1,4,0:0:0:0:
368,296,45508,1,4,0:0:0:0:
24,192,45874,1,4,0:0:0:0:
360,56,46241,1,4,0:0:0:0:
136,68,46607,5,0,0:0:0:0:
136,68,46973,1,0,0:0:0:0:
376,76,47339,1,0,0:0:0:0:
376,76,47705,1,0,0:0:0:0:
372,316,48071,1,0,0:0:0:0:
372,316,48438,1,0,0:0:0:0:
132,312,48804,1,0,0:0:0:0:
132,312,49170,1,0,0:0:0:0:
308,148,49536,2,4,L|180:264,1,160
56,56,50268,5,2,0:0:0:0:
56,56,50360,1,2,0:0:0:0:
56,56,50452,1,2,0:0:0:0:
56,56,50543,1,2,0:0:0:0:
56,56,50635,1,2,0:0:0:0:
376,64,51001,2,4,L|204:64,1,160
424,76,51733,5,2,0:0:0:0:
424,76,51825,1,2,0:0:0:0:
424,76,51916,1,2,0:0:0:0:
424,76,52008,1,2,0:0:0:0:
424,76,52099,1,2,0:0:0:0:
104,64,52465,2,4,L|268:64,1,160
140,224,53198,5,8,0:0:0:0:
192,260,53381,1,8,0:0:0:0:
256,264,53564,1,8,0:0:0:0:
316,256,53747,1,8,0:0:0:0:
372,220,53930,1,8,0:0:0:0:
256,40,54296,5,0,0:0:0:0:
256,340,54662,1,0,0:0:0:0:
424,88,55029,6,4,P|473:125|423:190,1,160
92,192,55761,6,4,P|42:154|92:89,1,160
360,260,56493,1,0,0:0:0:0:
68,128,56859,2,4,L|68:48,2,80
388,92,57592,1,8,0:0:0:0:
176,332,57958,1,8,0:0:0:0:
172,108,58324,1,8,0:0:0:0:
448,340,58690,1,8,0:0:0:0:
256,192,59056,1,8,0:0:0:0:
116,192,59423,5,2,0:0:0:0:
176,128,59606,1,2,0:0:0:0:
252,104,59789,1,2,0:0:0:0:
328,128,59972,1,2,0:0:0:0:
376,192,60155,1,2,0:0:0:0:
176,352,60521,6,4,L|348:352,1,160
256,64,61253,1,0,0:0:0:0:
40,84,61620,6,4,L|40:192,1,80
116,80,61986,2,4,L|116:168,1,80
192,84,62352,2,4,L|192:172,1,80
116,304,62718,1,8,0:0:0:0:
276,84,63084,2,4,L|444:84,1,160
212,168,63817,2,4,L|380:168,1,160
64,80,64549,1,8,0:0:0:0:
248,304,64915,6,4,L|248:220,1,80
324,304,65281,2,4,L|324:220,1,80
400,304,65648,2,4,L|400:220,1,80
328,80,66014,1,8,0:0:0:0:
84,284,66380,1,8,0:0:0:0:
220,52,66746,2,4,L|380:52,1,160
184,304,67479,2,4,L|344:304,1,160
88,192,68211,5,2,0:0:0:0:
116,112,68394,1,2,0:0:0:0:
200,68,68577,1,2,0:0:0:0:
292,60,68760,1,2,0:0:0:0:
412,68,68943,6,4,L|284:168,1,160
92,308,69675,2,4,L|252:196,1,160
256,192,70408,1,8,0:0:0:0:
96,208,70774,2,2,L|96:156,4,40
416,204,71506,2,6,L|416:156,4,40
183,287,72238,2,4,L|266:177,1,120.000004577637
256,312,72605,2,4,L|256:160,1,120.000004577637
337,286,72971,2,4,L|236:175,1,120.000004577637
252,68,73337,5,8,0:0:0:0:
440,68,73703,5,8,0:0:0:0:
72,72,74069,5,8,0:0:0:0:
312,272,74435,2,4,P|344:201|316:129,1,160
204,132,75168,2,4,P|171:202|199:274,1,160
356,304,75900,2,4,P|392:188|340:80,1,240.000009155274
172,80,76632,2,4,P|132:180|184:304,1,240.000009155274
416,304,77365,2,4,P|444:196|388:84,1,240.000009155274
72,76,78097,2,4,P|36:172|80:308,1,240.000009155274
256,32,78829,2,4,L|256:196,2,160
256,352,79928,2,4,L|256:184,2,160
56,324,81026,6,2,L|56:224,1,80
128,324,81393,2,2,L|128:224,1,80
200,324,81759,2,2,L|200:224,1,80
124,104,82125,1,8,0:0:0:0:
440,64,82491,2,2,L|280:64,1,160
92,324,83223,1,8,0:0:0:0:
260,52,83590,6,4,L|260:144,1,80
332,48,83956,2,4,L|332:140,1,80
408,48,84322,2,4,L|408:140,1,80
340,272,84688,1,8,0:0:0:0:
16,324,85054,2,8,L|192:324,1,160
456,168,85787,6,2,L|456:228,4,40
56,172,86519,2,2,L|56:216,4,40
256,344,87252,5,8,0:0:0:0:
256,36,87617,2,4,L|256:116,2,80
184,232,88350,5,8,0:0:0:0:
256,80,88716,1,8,0:0:0:0:
324,228,89082,1,8,0:0:0:0:
64,308,89448,1,2,0:0:0:0:
160,304,89631,1,2,0:0:0:0:
256,304,89814,1,2,0:0:0:0:
352,308,89998,1,2,0:0:0:0:
448,308,90181,1,2,0:0:0:0:
304,240,90364,6,4,L|216:240,1,80
256,24,90913,2,4,L|256:184,1,160
56,72,91646,6,8,L|56:116,2,40
96,72,92011,6,8,L|96:116,2,40
132,72,92378,6,8,L|132:116,2,40
168,72,92744,6,8,L|168:116,2,40
124,156,93110,5,2,0:0:0:0:
292,68,93476,1,2,0:0:0:0:
436,196,93842,1,2,0:0:0:0:
324,344,94208,5,8,0:0:0:0:
192,40,94575,1,0,0:0:0:0:
276,348,94941,1,8,0:0:0:0:
244,28,95307,1,0,0:0:0:0:
208,344,95673,1,8,0:0:0:0:
312,32,96039,1,0,0:0:0:0:
140,324,96405,1,8,0:0:0:0:
380,52,96772,1,0,0:0:0:0:
424,280,97138,5,2,0:0:0:0:
392,308,97321,1,2,0:0:0:0:
360,332,97504,1,2,0:0:0:0:
256,28,97870,2,4,L|60:28,1,160
44,344,98603,1,8,0:0:0:0:
260,200,98969,2,2,L|304:192,4,40
96,96,99701,5,8,0:0:0:0:
432,60,100067,1,8,0:0:0:0:
432,92,100159,1,8,0:0:0:0:
432,124,100250,1,8,0:0:0:0:
432,152,100342,6,4,L|432:192,1,40
432,216,100525,5,8,0:0:0:0:
412,272,100708,2,2,B|384:328|340:344|232:332,1,200
232,220,101898,6,4,L|232:264,2,40
308,144,102264,6,4,L|148:144,2,150.000005722046
24,352,102996,1,8,0:0:0:0:
84,36,103363,2,4,L|168:36,2,80
180,340,104095,1,8,0:0:0:0:
456,344,104416,5,2,0:0:0:0:
456,344,104599,1,2,0:0:0:0:
272,204,104827,5,8,0:0:0:0:
456,344,105193,1,0,0:0:0:0:
216,156,105560,1,8,0:0:0:0:
456,340,105926,1,0,0:0:0:0:
160,112,106292,1,8,0:0:0:0:
456,340,106658,1,0,0:0:0:0:
132,84,107024,1,8,0:0:0:0:
456,340,107390,1,0,0:0:0:0:
100,60,107757,1,8,0:0:0:0:
152,200,108123,2,4,L|300:88,1,160
388,292,108855,5,8,0:0:0:0:
480,32,109221,1,2,0:0:0:0:
376,52,109359,1,2,0:0:0:0:
180,76,109587,1,8,0:0:0:0:
48,276,109862,5,2,0:0:0:0:
324,236,110137,1,2,0:0:0:0:
112,128,110412,1,2,0:0:0:0:
152,244,110595,5,8,0:0:0:0:
284,332,110778,1,8,0:0:0:0:
292,172,110961,1,8,0:0:0:0:
144,180,111418,5,4,0:0:0:0:
464,64,111784,5,2,0:0:0:0:
464,140,111922,1,2,0:0:0:0:
464,340,112151,5,2,0:0:0:0:
372,340,112288,1,2,0:0:0:0:
216,252,112517,6,4,P|195:179|227:97,1,160
304,104,113249,2,4,P|324:176|292:258,1,160
168,300,113981,2,4,P|136:180|180:72,1,240.000009155274
360,80,114714,2,4,P|388:204|356:316,1,240.000009155274
72,296,115446,2,4,P|40:188|88:76,1,240.000009155274
444,68,116178,2,4,P|472:192|432:304,1,240.000009155274
104,60,116911,6,8,L|288:216,2,240.000009155274
408,320,118009,6,8,L|216:156,2,240.000009155274
388,40,119108,6,8,L|220:236,2,240.000009155274
124,348,120206,6,12,L|212:244,2,120.000004577637
260,56,120939,5,0,0:0:0:0:
260,56,121305,1,0,0:0:0:0:
88,192,122037,5,8,0:0:0:0:
88,192,122403,1,8,0:0:0:0:
408,196,122770,5,0,0:0:0:0:
408,196,123136,1,0,0:0:0:0:
260,332,123502,5,8,0:0:0:0:
260,332,123868,1,8,0:0:0:0:
152,92,124234,6,4,L|280:208,1,160
116,312,124966,6,4,L|264:232,1,160
440,56,125699,5,0,0:0:0:0:
256,260,126065,1,8,0:0:0:0:
56,56,126431,1,0,0:0:0:0:
256,312,126797,1,8,0:0:0:0:
440,56,127163,1,0,0:0:0:0:
256,344,127530,1,8,0:0:0:0:
56,56,127896,1,0,0:0:0:0:
380,172,128262,6,4,L|412:328,1,160
108,236,128994,2,4,L|244:144,1,160
256,192,129727,12,0,132290,0:0:0:0:
316,124,132656,5,0,0:0:0:0:
192,128,132839,1,0,0:0:0:0:
188,244,133022,1,0,0:0:0:0:
320,244,133205,1,0,0:0:0:0:
273,103,133388,5,8,0:0:0:0:
168,168,133571,1,8,0:0:0:0:
223,271,133754,1,8,0:0:0:0:
337,205,133937,1,8,0:0:0:0:
227,106,134121,5,0,0:0:0:0:
168,215,134304,1,0,0:0:0:0:
267,276,134487,1,0,0:0:0:0:
333,162,134670,1,0,0:0:0:0:
256,192,134853,6,4,L|116:88,1,160
256,192,135585,2,4,L|384:88,1,160
256,192,136318,2,4,L|124:296,1,160
256,192,137050,2,4,L|380:308,1,160
208,128,137782,5,0,0:0:0:0:
64,320,138148,1,0,0:0:0:0:
304,308,138515,1,0,0:0:0:0:
116,160,138881,1,0,0:0:0:0:
344,84,139247,1,0,0:0:0:0:
192,268,139613,1,0,0:0:0:0:
428,232,139979,1,0,0:0:0:0:
56,76,140345,6,4,L|304:76,2,240.000009155274
144,288,141444,6,4,L|392:288,2,240.000009155274
232,76,142542,6,4,L|476:76,2,240.000009155274
64,320,143641,5,8,0:0:0:0:
144,184,144007,1,0,0:0:0:0:
64,320,144373,1,8,0:0:0:0:
284,200,144739,1,0,0:0:0:0:
64,320,145106,1,8,0:0:0:0:
260,52,145472,1,0,0:0:0:0:
64,320,145838,1,8,0:0:0:0:
456,44,146204,2,4,L|252:180,1,240.000009155274
104,320,146936,6,2,L|160:320,2,40
264,324,147303,2,8,B|456:324|456:324|456:152,1,360
204,52,148401,6,4,B|80:52|80:52|80:212,1,240.000009155274
336,324,149133,2,4,B|452:324|452:324|452:196,1,240.000009155274
60,208,149866,2,4,B|60:328|60:328|184:328,1,240.000009155274
428,164,150598,2,4,B|428:44|428:44|292:44,1,240.000009155274
200,164,151330,6,2,L|252:120,2,40
232,196,151605,6,2,L|284:152,2,40
264,232,151880,6,2,L|316:188,2,40
336,316,152246,6,2,L|388:272,2,40
416,76,152795,5,8,0:0:0:0:
176,284,153070,1,8,0:0:0:0:
64,72,153344,2,4,L|152:92,2,80
28,196,154260,1,8,0:0:0:0:
332,24,154534,1,8,0:0:0:0:
412,348,154900,1,8,0:0:0:0:
96,96,155358,5,2,0:0:0:0:
144,96,155541,1,2,0:0:0:0:
192,96,155724,1,2,0:0:0:0:
436,300,156091,2,4,L|268:300,1,160
448,52,156731,5,8,0:0:0:0:
76,56,157006,1,8,0:0:0:0:
256,116,157372,1,8,0:0:0:0:
336,192,157494,5,2,0:0:0:0:
176,192,157677,1,2,0:0:0:0:
68,324,157860,2,4,L|332:324,1,240.000009155274
256,188,158654,1,8,0:0:0:0:
256,188,158746,1,8,0:0:0:0:
140,48,158929,1,8,0:0:0:0:
380,48,159112,1,8,0:0:0:0:
424,328,159295,5,2,0:0:0:0:
72,328,159691,1,2,0:0:0:0:
264,184,160057,1,2,0:0:0:0:
68,64,160362,6,4,L|260:64,1,186.666666666667
28,192,161217,1,8,0:0:0:0:
256,32,161583,1,8,0:0:0:0:
476,184,161888,1,8,0:0:0:0:
420,332,162071,1,8,0:0:0:0:
256,348,162254,2,4,L|256:200,1,133.333333333333
64,56,162956,2,4,L|200:56,1,120
272,52,163322,6,0,P|272:192|116:260,1,320
72,164,163780,2,2,L|72:104,2,40
136,164,164146,2,2,L|136:112,2,40
80,60,164512,5,8,0:0:0:0:
256,312,164879,1,0,0:0:0:0:
360,128,165123,1,8,0:0:0:0:
256,312,165367,1,8,0:0:0:0:
48,36,165932,2,2,L|48:100,2,40
112,36,166252,2,2,L|112:80,2,40
176,36,166572,2,2,L|176:76,2,40
112,184,167076,2,4,L|112:256,2,53.3333333333333
256,192,167442,12,0,169273,0:0:0:0:
