osu file format v14

[General]
AudioFilename: Fullmetal Alchemist - Bestamvsofalltime.mp3
AudioLeadIn: 0
PreviewTime: 0
Countdown: 0
SampleSet: Normal
StackLeniency: 0.4
Mode: 0
LetterboxInBreaks: 0
WidescreenStoryboard: 1

[Editor]
DistanceSpacing: 2
BeatDivisor: 4
GridSize: 4
TimelineZoom: 2.3

[Metadata]
Title:Bestamvsofalltime
TitleUnicode:Bestamvsofalltime
Artist:Fullmetal Alchemist
ArtistUnicode:Fullmetal Alchemist
Creator:Xazariorus
Version:Hard
Source:
Tags:Mozart L'Opera Rock - Le Bien Qui Fait Mal, Rus, Russia map
BeatmapID:739324
BeatmapSetID:312010

[Difficulty]
HPDrainRate:6
CircleSize:4
OverallDifficulty:6
ApproachRate:6
SliderMultiplier:1.6
SliderTickRate:2

[Events]
//Background and Video events
0,0,"77_Full_Metal_Alchemist.jpg",0,0
Video,0,"Fullmetal Alchemist - Bestamvsofalltime.avi"
//Break Periods
//Storyboard Layer 0 (Background)
//Storyboard Layer 1 (Fail)
//Storyboard Layer 2 (Pass)
//Storyboard Layer 3 (Foreground)
//Storyboard Sound Samples

[TimingPoints]
3400,366.166239472721,4,1,0,40,1,0
4681,-133.333333333333,4,1,0,40,0,0
12507,-66.6666666666667,4,1,0,40,0,0
15254,-100,4,1,0,40,0,0
16398,-66.6666666666667,4,1,0,40,0,0
17314,-100,4,1,0,40,0,0
19328,-66.6666666666667,4,1,0,40,0,0
20243,-100,4,1,0,40,0,0
22440,-66.6666666666667,4,1,0,40,0,0
23905,-100,4,1,0,40,0,0
27200,-66.6666666666667,4,1,0,40,0,0
38918,-133.333333333333,4,1,0,40,0,0
42579,-66.6666666666667,4,1,0,40,0,0
72192,-66.6666666666667,4,1,0,40,0,0
73446,-100,4,1,0,40,0,0
78783,-100,4,1,0,40,0,0
102264,-66.6666666666667,4,1,0,40,0,0
102722,-100,4,1,0,40,0,0
113935,-66.6666666666667,4,1,0,40,0,0
120664,-100,4,1,0,40,0,0
129727,-66.6666666666667,4,1,0,40,0,0
146799,-100,4,1,0,40,0,0
147440,-66.6666666666667,4,1,0,40,0,0
151101,-100,4,1,0,40,0,0
157814,-66.6666666666667,4,1,0,40,0,0
159843,-100,4,1,0,40,0,0
163276,-50,4,1,0,40,0,0
163597,-66.6666666666667,4,1,0,40,0,0

[Colours]
Combo1 : 0,193,0
Combo2 : 0,193,193
Combo3 : 185,0,185
Combo4 : 191,191,0

[HitObjects]
56,52,3400,5,0,0:0:0:0:
120,56,3766,1,0,0:0:0:0:
440,60,4132,1,0,0:0:0:0:
440,60,4315,1,0,0:0:0:0:
444,168,4681,2,0,P|316:208|236:352,1,300.000011444092
472,344,6329,5,0,0:0:0:0:
392,344,6695,1,0,0:0:0:0:
72,344,7061,1,0,0:0:0:0:
72,344,7244,1,0,0:0:0:0:
68,216,7610,2,0,P|196:176|276:32,1,300.000011444092
472,32,9258,5,0,0:0:0:0:
472,104,9624,1,0,0:0:0:0:
256,340,9990,1,0,0:0:0:0:
256,340,10174,1,0,0:0:0:0:
140,192,10722,2,0,B|332:192|332:192|404:192,1,240.000009155274
360,32,12554,6,0,P|424:184|360:360,1,360.000013732911
152,352,14018,6,0,P|88:200|152:24,1,360.000013732911
256,112,14751,6,0,L|256:240,2,120.000004577637
48,60,15483,5,0,0:0:0:0:
128,60,15849,2,0,L|224:60,1,80
208,60,16215,1,0,0:0:0:0:
296,64,16398,2,0,L|456:64,4,120.000004577637
480,64,17314,2,0,L|480:168,1,80
480,296,17680,5,0,0:0:0:0:
480,320,17863,1,0,0:0:0:0:
480,348,18046,1,0,0:0:0:0:
32,344,18412,1,0,0:0:0:0:
116,344,18778,2,0,L|228:344,1,80
196,344,19145,1,0,0:0:0:0:
44,264,19328,2,0,L|196:264,4,120.000004577637
44,184,20243,2,0,L|144:184,1,80
44,104,20609,1,0,0:0:0:0:
44,68,20792,1,0,0:0:0:0:
44,32,20975,1,0,0:0:0:0:
476,36,21342,5,0,0:0:0:0:
476,72,21525,1,0,0:0:0:0:
476,112,21708,1,0,0:0:0:0:
392,28,21891,2,0,L|392:136,1,80
40,352,22440,2,0,L|40:212,3,120.000004577637
40,140,23172,1,0,0:0:0:0:
40,96,23356,1,0,0:0:0:0:
40,56,23539,1,0,0:0:0:0:
256,192,23905,5,0,0:0:0:0:
336,192,24271,5,0,0:0:0:0:
312,248,24454,1,0,0:0:0:0:
256,264,24637,1,0,0:0:0:0:
256,192,25003,5,0,0:0:0:0:
256,120,25369,5,0,0:0:0:0:
204,136,25553,1,0,0:0:0:0:
184,192,25736,1,0,0:0:0:0:
256,192,26102,5,0,0:0:0:0:
308,136,26468,5,0,0:0:0:0:
256,192,26651,1,0,0:0:0:0:
204,244,26834,1,0,0:0:0:0:
96,72,27200,6,0,L|96:312,1,240.000009155274
256,192,27933,1,0,0:0:0:0:
256,192,28299,1,0,0:0:0:0:
424,72,28665,2,0,L|420:344,1,240.000009155274
256,352,29397,2,0,L|256:224,2,120.000004577637
256,192,30130,5,0,0:0:0:0:
256,192,30496,1,0,0:0:0:0:
256,36,30862,2,0,L|256:160,1,120.000004577637
376,196,31228,1,0,0:0:0:0:
328,248,31411,1,0,0:0:0:0:
256,280,31594,1,0,0:0:0:0:
188,252,31777,1,0,0:0:0:0:
148,192,31960,1,0,0:0:0:0:
148,96,32327,2,0,P|200:64|372:100,1,240.000009155274
56,336,33059,6,0,L|56:212,2,120.000004577637
256,192,33791,1,0,0:0:0:0:
468,344,34157,2,0,L|468:224,2,120.000004577637
256,36,34890,5,0,0:0:0:0:
256,36,35256,1,0,0:0:0:0:
76,200,35622,2,0,P|288:317|466:168,1,480.000018310548
204,56,37087,1,0,0:0:0:0:
304,56,37270,1,0,0:0:0:0:
256,52,37453,2,0,L|256:176,1,120.000004577637
200,180,37819,5,0,0:0:0:0:
308,180,38185,1,0,0:0:0:0:
472,48,38918,6,0,L|472:100,1,30.0000011444092
420,48,39101,2,0,L|420:100,1,30.0000011444092
364,48,39284,2,0,L|364:104,1,30.0000011444092
416,184,39558,6,0,L|416:312,1,120.000004577637
476,348,40016,1,0,0:0:0:0:
348,348,40382,1,0,0:0:0:0:
412,344,40748,2,0,L|348:296,1,60.0000022888184
412,344,41115,2,0,L|480:244,1,120.000004577637
256,192,41847,5,0,0:0:0:0:
256,192,42213,1,0,0:0:0:0:
256,192,42579,1,0,0:0:0:0:
52,276,42945,2,0,L|52:132,7,120.000004577637
52,148,44410,1,0,0:0:0:0:
56,40,44776,5,0,0:0:0:0:
88,40,44959,1,0,0:0:0:0:
120,40,45142,1,0,0:0:0:0:
256,48,45509,5,0,0:0:0:0:
256,192,45875,1,0,0:0:0:0:
256,344,46241,1,0,0:0:0:0:
80,192,46607,2,0,L|200:192,1,120.000004577637
200,192,46973,1,0,0:0:0:0:
472,28,47339,5,0,0:0:0:0:
472,356,47706,1,0,0:0:0:0:
356,72,48072,1,0,0:0:0:0:
356,332,48438,1,0,0:0:0:0:
236,120,48804,1,0,0:0:0:0:
236,268,49170,1,0,0:0:0:0:
88,196,49536,1,0,0:0:0:0:
96,196,49903,5,0,0:0:0:0:
128,196,49994,1,0,0:0:0:0:
168,196,50086,1,0,0:0:0:0:
200,196,50177,1,0,0:0:0:0:
240,196,50269,1,0,0:0:0:0:
484,196,50635,2,0,L|356:196,2,120.000004577637
160,260,52100,6,0,L|220:220,1,60.0000022888184
209,226,52283,2,0,L|264:192,1,60.0000022888184
260,194,52466,2,0,L|456:48,1,240.000009155274
468,344,53198,5,0,0:0:0:0:
468,344,53381,1,0,0:0:0:0:
396,292,53564,2,0,L|324:220,3,60.0000022888184
348,240,53930,2,0,L|176:64,1,240.000009155274
64,76,55029,5,0,0:0:0:0:
64,308,55395,1,0,0:0:0:0:
200,192,56127,2,0,L|332:192,1,120.000004577637
328,104,56494,1,0,0:0:0:0:
404,192,56677,1,0,0:0:0:0:
332,268,56860,1,0,0:0:0:0:
44,192,57501,5,0,0:0:0:0:
44,192,57684,1,0,0:0:0:0:
256,192,57958,2,0,L|380:188,1,120.000004577637
484,188,58324,1,0,0:0:0:0:
352,112,58691,2,0,P|256:84|120:124,1,240.000009155274
192,264,59423,1,0,0:0:0:0:
312,260,59606,1,0,0:0:0:0:
256,336,59789,2,0,L|256:208,1,120.000004577637
216,52,60521,5,0,0:0:0:0:
296,52,60888,1,0,0:0:0:0:
256,112,61254,2,0,L|256:240,1,120.000004577637
256,240,61620,1,0,0:0:0:0:
156,300,61803,2,0,P|232:336|376:292,1,240.000009155274
368,208,62352,1,0,0:0:0:0:
160,200,62535,1,0,0:0:0:0:
256,184,62718,2,0,L|256:312,2,120.000004577637
144,52,63817,5,0,0:0:0:0:
256,48,64000,1,0,0:0:0:0:
360,56,64183,1,0,0:0:0:0:
140,324,64915,5,0,0:0:0:0:
140,324,65099,1,0,0:0:0:0:
304,320,65282,2,0,P|364:292|376:224,2,120.000004577637
312,144,66014,2,0,P|284:204|216:216,2,120.000004577637
132,96,66746,1,0,0:0:0:0:
132,96,67112,1,0,0:0:0:0:
344,72,67845,2,0,P|408:84|468:132,1,120.000004577637
412,204,68211,2,0,P|340:152|184:152,2,240.000009155274
380,296,69309,2,0,L|248:296,1,120.000004577637
160,288,69676,2,0,P|100:256|68:176,1,120.000004577637
76,32,70042,1,0,0:0:0:0:
256,192,70408,1,0,0:0:0:0:
208,44,70774,6,0,L|336:44,1,120.000004577637
476,144,71140,2,0,P|404:152|340:220,3,120.000004577637
108,152,72239,1,0,0:0:0:0:
108,152,72605,1,0,0:0:0:0:
108,152,72971,2,0,P|236:204|280:304,2,240.000009155274
256,344,74070,5,0,0:0:0:0:
196,344,74253,1,0,0:0:0:0:
288,344,74436,1,0,0:0:0:0:
204,192,75168,2,0,L|292:192,3,80
464,192,75900,1,0,0:0:0:0:
444,240,75992,1,0,0:0:0:0:
424,296,76083,1,0,0:0:0:0:
388,344,76175,2,0,P|316:348|240:308,1,160
192,288,76633,1,0,0:0:0:0:
188,136,76907,5,0,0:0:0:0:
36,40,77090,1,0,0:0:0:0:
276,52,77274,2,0,P|416:120|468:268,1,320
396,304,78097,2,0,L|232:288,1,160
176,128,78647,1,0,0:0:0:0:
292,96,78830,1,0,0:0:0:0:
404,56,79013,2,0,L|496:28,3,80
332,284,79745,5,0,0:0:0:0:
332,284,79928,2,0,L|416:256,3,80
56,272,81027,2,0,L|168:240,3,80
160,248,81759,1,0,0:0:0:0:
324,72,82125,1,0,0:0:0:0:
128,80,82858,2,0,L|40:156,2,80
220,112,83956,2,0,P|272:100|296:120,1,80
291,113,84322,2,0,P|336:140|340:171,1,80
228,208,84688,1,0,0:0:0:0:
228,208,85055,1,0,0:0:0:0:
448,80,85787,6,0,L|448:172,1,80
448,280,86153,1,0,0:0:0:0:
368,276,86519,6,0,L|368:192,1,80
364,76,86885,1,0,0:0:0:0:
272,64,87252,5,0,0:0:0:0:
276,280,87618,1,0,0:0:0:0:
156,268,87984,2,0,P|148:192|36:76,1,240
160,60,88716,5,0,0:0:0:0:
256,108,89082,2,0,P|288:184|272:292,1,160
380,40,89723,5,0,0:0:0:0:
452,136,89906,1,0,0:0:0:0:
460,256,90089,1,0,0:0:0:0:
288,308,90456,2,0,P|232:296|208:232,1,120
248,164,90913,2,0,P|320:248|400:256,1,160
216,68,91646,5,0,0:0:0:0:
180,88,91829,1,0,0:0:0:0:
136,120,92012,1,0,0:0:0:0:
40,200,92378,1,0,0:0:0:0:
216,240,92653,6,0,L|268:176,1,80
396,52,93110,1,0,0:0:0:0:
440,192,93476,2,0,L|444:280,1,80
324,280,93843,2,0,L|136:280,1,160
304,84,94575,5,0,0:0:0:0:
208,84,94941,1,0,0:0:0:0:
376,256,95307,1,0,0:0:0:0:
136,256,95673,1,0,0:0:0:0:
444,344,96040,1,0,0:0:0:0:
68,344,96406,1,0,0:0:0:0:
256,192,96772,12,0,98603,0:0:0:0:
256,192,98877,5,0,0:0:0:0:
256,192,99060,1,0,0:0:0:0:
256,192,99244,1,0,0:0:0:0:
240,140,100067,2,0,L|308:140,2,40
256,192,100434,12,0,101532,0:0:0:0:
480,64,101898,6,0,L|480:168,1,80
464,336,102264,6,0,L|236:336,1,180.000006866455
32,344,102996,1,0,0:0:0:0:
116,344,103362,2,0,L|228:344,1,80
44,264,103729,2,0,L|196:264,1,120.000004577637
36,40,104370,1,0,0:0:0:0:
36,108,104553,1,0,0:0:0:0:
44,184,104827,2,0,L|144:184,1,80
124,184,105102,2,0,L|236:184,1,80
204,184,105468,2,0,L|320:184,2,80
392,152,106201,5,0,0:0:0:0:
392,232,106384,1,0,0:0:0:0:
472,152,106658,2,0,L|476:236,1,80
256,88,107391,1,0,0:0:0:0:
256,308,107757,1,0,0:0:0:0:
48,196,108123,1,0,0:0:0:0:
172,192,108489,5,0,0:0:0:0:
220,156,108672,1,0,0:0:0:0:
264,112,108855,1,0,0:0:0:0:
240,284,109222,1,0,0:0:0:0:
288,240,109405,1,0,0:0:0:0:
340,200,109588,1,0,0:0:0:0:
256,28,109954,5,0,0:0:0:0:
256,72,110137,1,0,0:0:0:0:
256,192,110412,1,0,0:0:0:0:
256,192,110595,2,0,L|256:304,4,80
72,304,111693,1,0,0:0:0:0:
72,304,111876,1,0,0:0:0:0:
196,296,112059,1,0,0:0:0:0:
196,296,112242,1,0,0:0:0:0:
296,296,112425,2,0,P|392:296|480:188,1,240
364,84,113524,1,0,0:0:0:0:
252,72,113982,1,0,0:0:0:0:
140,76,114622,6,0,P|80:124|68:204,1,120.000004577637
184,264,114989,2,0,P|240:184|280:172,4,120.000004577637
360,56,116087,2,0,L|480:56,1,120.000004577637
484,132,116453,2,0,L|352:132,1,120.000004577637
480,212,116819,2,0,B|352:212|352:212|240:216|128:340|96:344|96:344|64:336|36:288,1,480.000018310548
49,308,117643,2,0,L|52:168,1,120.000004577637
51,188,117918,2,0,B|136:96|288:96|328:96|444:32,1,420.000016021729
284,56,119016,1,0,0:0:0:0:
216,52,119383,1,0,0:0:0:0:
136,48,119749,1,0,0:0:0:0:
136,48,120115,1,0,0:0:0:0:
272,256,120756,6,0,P|312:240|312:200,4,80
56,328,122037,1,0,0:0:0:0:
64,236,122220,1,0,0:0:0:0:
96,160,122404,1,0,0:0:0:0:
160,100,122587,1,0,0:0:0:0:
236,52,122770,1,0,0:0:0:0:
320,48,122953,1,0,0:0:0:0:
408,68,123136,1,0,0:0:0:0:
480,112,123319,1,0,0:0:0:0:
456,176,123685,6,0,P|440:256|356:292,1,160
296,296,124234,2,0,L|208:292,1,80
216,292,124509,1,0,0:0:0:0:
216,292,124601,1,0,0:0:0:0:
28,196,124875,1,0,0:0:0:0:
28,196,125058,1,0,0:0:0:0:
80,192,125241,1,0,0:0:0:0:
148,192,125424,1,0,0:0:0:0:
216,192,125607,1,0,0:0:0:0:
300,192,125974,2,0,L|416:192,1,80
256,192,126431,12,0,128628,0:0:0:0:
208,188,129727,6,0,P|244:160|312:208,2,120.000004577637
256,36,130459,1,0,0:0:0:0:
48,192,130825,1,0,0:0:0:0:
80,260,131008,1,0,0:0:0:0:
144,304,131192,1,0,0:0:0:0:
220,320,131375,1,0,0:0:0:0:
296,320,131558,1,0,0:0:0:0:
372,296,131741,1,0,0:0:0:0:
432,244,131924,1,0,0:0:0:0:
480,188,132107,1,0,0:0:0:0:
256,192,132290,5,0,0:0:0:0:
364,192,132656,2,0,L|364:68,1,120.000004577637
252,76,133022,1,0,0:0:0:0:
256,192,133389,1,0,0:0:0:0:
136,192,133755,2,0,L|136:64,1,120.000004577637
64,68,134121,2,0,L|64:204,1,120.000004577637
256,192,134487,2,0,L|256:44,1,120.000004577637
184,64,134853,2,0,L|184:200,1,120.000004577637
256,40,135586,5,0,0:0:0:0:
256,88,135952,1,0,0:0:0:0:
256,136,136318,1,0,0:0:0:0:
256,200,136684,2,0,P|276:316|396:356,1,240.000009155274
480,360,137233,1,0,0:0:0:0:
480,192,137416,1,0,0:0:0:0:
28,28,137783,1,0,0:0:0:0:
48,40,138515,5,0,0:0:0:0:
256,192,138881,1,0,0:0:0:0:
468,348,139247,1,0,0:0:0:0:
464,41,139980,5,0,0:0:0:0:
256,200,140346,2,0,L|56:332,1,240.000009155274
344,316,141444,2,0,L|424:220,2,120.000004577637
352,56,142177,1,0,0:0:0:0:
40,188,142543,2,0,L|140:92,5,120.000004577637
128,88,143641,1,0,0:0:0:0:
216,40,143916,2,0,L|336:40,1,120.000004577637
412,48,144282,1,0,0:0:0:0:
440,108,144465,1,0,0:0:0:0:
448,168,144648,2,0,B|468:232|412:360|140:340,1,360.000013732911
40,280,145747,5,0,0:0:0:0:
168,76,145930,1,0,0:0:0:0:
408,72,146113,1,0,0:0:0:0:
256,192,146845,5,0,0:0:0:0:
256,192,147028,1,0,0:0:0:0:
100,228,147211,2,0,L|96:168,1,40
92,108,147394,1,0,0:0:0:0:
176,52,147577,2,0,P|360:76|472:208,1,360.000013732911
448,312,148676,1,0,0:0:0:0:
384,324,149042,2,0,P|320:200|120:136,1,360.000013732911
104,188,149683,6,0,P|176:200|264:272,1,180.000006866455
320,340,150141,1,0,0:0:0:0:
80,312,150324,1,0,0:0:0:0:
84,248,150507,2,0,P|116:136|224:80,1,240.000009155274
356,44,151239,5,0,0:0:0:0:
356,44,151422,1,0,0:0:0:0:
468,48,151605,2,0,L|468:144,1,80
472,288,151971,1,0,0:0:0:0:
412,292,152246,2,0,P|404:204|352:152,1,160
276,152,152704,6,0,P|308:184|308:244,1,80
336,336,153070,1,0,0:0:0:0:
176,320,153253,1,0,0:0:0:0:
36,196,153619,1,0,0:0:0:0:
256,32,154168,5,0,0:0:0:0:
324,32,154535,1,0,0:0:0:0:
392,32,154901,1,0,0:0:0:0:
468,108,155267,5,0,0:0:0:0:
472,176,155450,1,0,0:0:0:0:
472,224,155725,2,0,P|436:304|420:312,1,80
292,332,156091,1,0,0:0:0:0:
256,332,156182,1,0,0:0:0:0:
156,332,156365,2,0,P|220:272|224:224,1,120
232,164,156732,1,0,0:0:0:0:
228,100,156915,1,0,0:0:0:0:
132,32,157281,1,0,0:0:0:0:
64,52,157464,5,0,0:0:0:0:
64,116,157647,1,0,0:0:0:0:
64,172,157830,1,0,0:0:0:0:
56,316,158562,2,0,L|116:316,1,60.0000022888184
116,316,158746,2,0,L|176:316,1,60.0000022888184
176,316,158929,2,0,L|236:316,1,60.0000022888184
236,316,159112,2,0,L|296:316,1,60.0000022888184
296,316,159295,2,0,B|408:312|472:216|472:104,1,300.000011444092
256,36,160393,5,0,0:0:0:0:
256,36,160759,1,0,0:0:0:0:
144,88,161492,2,0,P|188:152|248:168,1,120
304,184,161858,1,0,0:0:0:0:
352,196,162041,1,0,0:0:0:0:
400,208,162224,1,0,0:0:0:0:
256,192,162956,6,0,L|160:192,1,80
80,192,163323,1,0,0:0:0:0:
40,196,163506,1,0,0:0:0:0:
40,244,163689,2,0,B|124:240|232:336|360:336|420:132,1,420.000016021729
432,112,164421,1,0,0:0:0:0:
432,44,164787,2,0,B|144:44|416:152|44:228,1,420.000016021729
56,56,165886,6,0,L|72:184,1,120.000004577637
184,56,166252,1,0,0:0:0:0:
188,120,166618,2,0,B|212:320|376:344|420:336,2,300.000011444092
256,192,167625,12,0,170371,0:0:0:0:
