osu file format v8

[General]
AudioFilename: makka na chikai.mp3
AudioLeadIn: 977
PreviewTime: 24357
Countdown: 0
SampleSet: Normal
StackLeniency: 0.7
Mode: 0
LetterboxInBreaks: 1

[Editor]
Bookmarks: 54519
DistanceSpacing: 0.800000011920929
BeatDivisor: 4
GridSize: 8

[Metadata]
Title:Makka na Chikai (TV Size)
Artist:Fukuyama Yoshiki
Creator:Zetsubou Sensei
Version:Normal
Source:Buso Renkin
Tags:tokiko kazuki papillion victor

[Difficulty]
HPDrainRate:4
CircleSize:4
OverallDifficulty:5
ApproachRate:5
SliderMultiplier:1
SliderTickRate:1

[Events]
//Background and Video events
0,0,"Buso_Renkin_Wallpaper.jpg"
Video,914,"BusouRenkinOP.avi"
//Break Periods
//Storyboard Layer 0 (Background)
//Storyboard Layer 1 (Fail)
//Storyboard Layer 2 (Pass)
//Storyboard Layer 3 (Foreground)
//Storyboard Sound Samples
//Background Colour Transformations
3,100,0,0,0

[TimingPoints]
1817,324.324324324324,4,1,0,100,1,0
70573,-100,4,1,0,100,0,1
87114,-100,4,1,0,100,0,0

[Colours]
Combo1 : 128,0,255
Combo2 : 5,240,5
Combo3 : 5,5,240
Combo4 : 255,0,0

[HitObjects]
256,192,1168,2,0,B|256:296,2,100,0|0|4
175,190,2141,2,0,B|207:78|319:86|353:204,1,250,0|8
176,272,3438,2,0,B|208:384|320:376|352:272,1,250,0|8
392,168,4735,1,4
312,168,5060,6,0,B|248:168,3,50,0|8|0|8
184,168,5871,2,0,B|0:168|0:168|0:32,1,300,0|4
120,40,7330,6,0,B|392:40,1,250,0|8
368,160,8627,2,0,B|112:160,1,250,0|8
40,256,9925,5,4
40,336,10249,2,0,B|208:336,1,150,0|8
272,336,11060,1,4
256,192,11546,12,0,13492
248,96,13979,6,0,B|248:152,5,50
360,96,15276,1,0
360,216,15762,1,8
304,152,16087,2,0,B|200:152,1,100,0|8
200,232,16735,6,0,B|128:232,4,50,0|8|0|8|0
205,152,17708,1,0
208,72,18033,1,0
128,72,18357,1,0
208,72,18681,1,2
328,72,19168,5,0
384,128,19492,1,8
384,128,19654,1,0
384,128,19817,1,8
384,288,20465,6,0,B|320:328|320:328|248:288,1,150,0|8
184,248,21276,2,0,B|184:144,1,100,0|8
184,64,21925,2,0,B|128:64,4,50
264,64,22898,5,0
264,144,23222,1,0
264,224,23546,1,0
264,304,23871,1,2
144,304,24357,5,0
144,304,24681,1,8
64,304,25006,2,0,B|64:232,1,50,0|8
144,248,25492,2,0,B|144:176,1,50,0|8
64,112,26141,5,0
144,112,26465,1,8
264,112,26952,2,0,B|264:184,2,50,0|8|0
320,56,27600,2,0,B|432:112|432:272|328:360,1,350
136,352,29546,5,0
56,352,29871,1,8
96,288,30195,2,0,B|96:216,1,50,0|8
72,160,30681,2,0,B|136:160,1,50,0|8
240,160,31330,5,0
320,160,31654,1,8
400,160,31979,1,0
360,232,32303,2,0,B|360:304,1,50,8|0
288,312,32789,1,8
216,280,33114,2,0,B|160:120|104:288,1,200
48,224,34087,1,0
248,192,34898,5,0
168,192,35222,1,0
32,112,35871,6,0,B|88:48|176:48,1,150,0|8
200,48,36519,2,0,B|272:48,1,50,0|8
328,48,37006,2,0,B|328:120,1,50,0|8
328,216,37654,6,0,B|256:216,3,50,0|8|0|8
328,280,38465,2,0,B|256:280,1,50,0|8
296,360,38952,6,0,B|208:408|168:312,1,150,0|8
152,248,39762,1,0
144,208,39925,1,8
264,208,40411,1,0
424,208,41060,5,4
424,208,41384,1,4
424,88,41871,2,0,B|424:160,1,50,0|8
344,136,42357,2,0,B|344:72,1,50,0|8
264,88,42844,1,0
264,208,43330,5,8
264,288,43654,2,0,B|264:344,1,50,0|8
256,192,44627,12,0,45925
48,328,46735,6,0,B|80:360|96:312,3,50,0|8|0|8
96,248,47546,2,0,B|96:176,1,50,0|8
96,120,48033,1,0
192,40,48519,2,0,B|272:40|272:112,1,100,8|0
240,120,49006,2,0,B|184:168|224:224,1,100,8|0
280,256,49654,6,0,B|344:256,1,50,0|8
336,336,50141,1,0
296,336,50303,2,0,B|152:336|152:336|152:224,1,250,8|0
216,128,51600,1,0
256,56,51925,5,0
376,56,52411,2,0,B|416:-8|456:64,1,100,0|8
453,95,52898,2,0,B|417:158|377:94,1,100,0|8
296,104,53546,2,0,B|296:176,1,50,0|8
296,232,54033,1,0
216,232,54357,6,0,B|128:232,2,75,0|8|0
216,272,55006,1,8
336,280,55492,2,0,B|400:328|336:352,1,100
216,336,56303,1,0
112,272,56789,1,0
72,336,57114,6,0,B|176:336,1,100,0|8
208,336,57600,1,0
208,256,57925,1,8
208,256,58087,1,0
288,256,58411,1,8
288,176,58735,5,0
288,136,58898,2,0,B|256:96|256:96|224:136,1,100,8|0
200,168,59384,1,8
152,104,59708,1,0
176,32,60033,6,0,B|104:32,1,50,0|8
16,80,60681,1,0
16,120,60844,2,0,B|16:280|16:280|216:280,1,350,8|0
296,192,62465,5,8
376,192,62789,1,4
376,72,63276,1,8
256,72,63762,1,4
176,72,64087,2,2,B|88:144|192:208,1,150
264,272,65060,1,4
344,272,65384,2,0,B|456:272|456:272|456:176,1,200,0|4
304,192,66681,6,0,B|360:192|360:192|336:144,1,100,0|8
312,120,67168,1,4
232,120,67492,2,0,B|160:120,1,50,0|8
176,200,67979,2,0,B|80:200|80:320,1,150,0|4
160,296,68789,1,0
240,296,69114,1,0
440,264,69925,6,0,B|440:336,2,50
440,184,70573,1,0
440,104,70898,6,0,B|504:104,2,50,2|0|8
440,184,71546,1,0
440,184,71708,1,4
320,184,72195,6,0,B|256:184,2,50,2|0|8
320,104,72844,1,0
320,104,73006,1,4
200,104,73492,5,8
144,160,73817,1,0
112,184,73979,1,8
80,208,74141,2,0,B|80:272,1,50,0|8
136,312,74627,2,0,B|208:344|208:344|288:304,1,150
272,72,76087,6,0,B|336:72,1,50,2|0
360,72,76411,1,8
344,152,76735,2,0,B|288:152,1,50,0|4
280,272,77384,6,0,B|344:272,1,50,2|0
368,272,77708,1,8
352,352,78033,2,0,B|288:352,1,50,0|4
184,352,78681,5,8
128,296,79006,2,0,B|48:232|104:160,1,150,0|8
160,120,79817,1,8
192,96,79979,2,0,B|344:128|200:240,1,200,0|4
336,128,81276,6,0,B|336:64,2,50,2|0|8
416,128,81925,2,0,B|480:128,1,50,0|4
464,248,82573,6,0,B|464:304,2,50,2|0|8
384,248,83222,2,0,B|328:248,1,50
232,184,83871,5,8
152,176,84195,2,0,B|32:216|160:272,1,150,0|8
160,344,85006,2,0,B|224:344,1,50,0|8
256,280,85492,6,0,B|256:216,1,50,0|8
258,149,85979,2,0,B|266:-27|434:-27|439:162,1,350
256,192,87438,12,0,90195
