osu file format v9

[General]
AudioFilename: Heart No Edge Ni Idomou.mp3
AudioLeadIn: 1500
PreviewTime: 57139
Countdown: 0
SampleSet: Soft
StackLeniency: 0.4
Mode: 0
LetterboxInBreaks: 1

[Editor]
DistanceSpacing: 1.2
BeatDivisor: 4
GridSize: 8

[Metadata]
Title:Heart no Edge ni Idomou (TV Size)
Artist:Fukuyama Jun & Ono Daisuke & Kamiya Hiroshi
Creator:Disoy
Version:Hard
Source:Working!!
Tags:yongtw123 climbb65588

[Difficulty]
HPDrainRate:5
CircleSize:4
OverallDifficulty:5
ApproachRate:6
SliderMultiplier:1.4
SliderTickRate:1

[Events]
//Background and Video events
Video,0,"Video.avi"
0,0,"Working!!.jpg"
//Break Periods
//Storyboard Layer 0 (Background)
//Storyboard Layer 1 (Fail)
//Storyboard Layer 2 (Pass)
//Storyboard Layer 3 (Foreground)
//Storyboard Sound Samples
//Background Colour Transformations
3,100,163,162,255

[TimingPoints]
139,375,4,1,1,50,1,0
9326,-100,4,2,2,70,0,0
10076,-100,4,1,2,40,0,0
10451,-100,4,2,2,55,0,0
10826,-100,4,2,1,50,0,0
11764,-100,4,2,1,60,0,0
23014,-100,4,2,2,70,0,0
23201,-100,4,2,1,70,0,0
23389,-100,4,2,2,85,0,0
23576,-100,4,2,1,70,0,0
23764,-100,4,2,2,70,0,0
23951,-100,4,2,1,60,0,0
36139,-100,4,2,1,60,0,0
51139,-100,4,1,1,50,0,0
51326,-100,4,1,1,60,0,0
51514,-100,4,1,1,70,0,0
51701,-100,4,1,1,70,0,0
52451,-100,4,2,1,70,0,0
53576,-100,4,1,1,50,0,0
53764,-100,4,2,1,70,0,0
54139,-100,4,2,1,60,0,0
55639,-100,4,1,1,50,0,0
55826,-100,4,1,1,60,0,0
56014,-100,4,1,1,70,0,0
56201,-100,4,1,1,80,0,0
56389,-100,4,2,1,70,0,0
56764,-100,4,1,1,70,0,0
57139,-100,4,2,1,50,0,1
57514,-100,4,2,1,70,0,1
57889,-100,4,1,1,50,0,1
58264,-100,4,2,1,70,0,1
58639,-100,4,1,1,50,0,1
59014,-100,4,2,1,50,0,1
59576,-100,4,1,1,50,0,1
60514,-100,4,2,1,70,0,1
61264,-100,4,2,1,70,0,1
61639,-100,4,1,1,50,0,1
62014,-100,4,2,1,70,0,1
62389,-100,4,1,1,50,0,1
63139,-100,4,1,1,50,0,1
63514,-100,4,2,1,70,0,1
63889,-100,4,1,1,50,0,1
64264,-100,4,2,1,70,0,1
64639,-100,4,1,1,50,0,1
65014,-100,4,2,1,70,0,1
65389,-100,4,1,1,50,0,1
65764,-100,4,2,1,70,0,1
66139,-100,4,1,1,50,0,1
66514,-100,4,2,1,70,0,1
66889,-100,4,1,1,50,0,1
67264,-100,4,2,1,70,0,1
67639,-100,4,1,1,50,0,1
68014,-100,4,2,1,70,0,1
69045,-100,4,2,1,70,0,0
69139,-100,4,2,1,50,0,1
69514,-100,4,2,1,70,0,1
69889,-100,4,1,1,50,0,1
70264,-100,4,2,1,70,0,1
70639,-100,4,1,1,50,0,1
71014,-100,4,2,1,70,0,1
71576,-100,4,1,1,50,0,1
72514,-100,4,2,1,70,0,1
72889,-100,4,1,1,50,0,1
73264,-100,4,2,1,70,0,1
73639,-100,4,1,1,50,0,1
74014,-100,4,2,1,70,0,1
74576,-100,4,1,1,50,0,1
75514,-100,4,2,1,70,0,1
75889,-100,4,1,1,50,0,1
76264,-100,4,2,1,70,0,1
76639,-100,4,1,1,50,0,1
77014,-100,4,2,1,70,0,1
77389,-100,4,1,1,50,0,1
77764,-100,4,2,1,70,0,1
78139,-100,4,1,1,50,0,1
78514,-100,4,2,1,70,0,1
78889,-100,4,1,1,50,0,1
79264,-100,4,2,1,70,0,1
81139,-100,4,2,1,50,0,0
83576,-100,4,1,1,50,0,0
84326,-200,4,1,2,70,0,0
84701,-200,4,2,2,70,0,0
85076,-200,4,2,2,60,0,0
86389,-200,4,1,1,60,0,0
89389,-200,4,2,1,5,0,0

[Colours]
Combo1 : 255,128,192
Combo2 : 128,64,64
Combo3 : 18,79,237
Combo4 : 255,255,0

[HitObjects]
256,192,139,1,4
456,224,2576,6,0,B|416:264|392:272,1,70
328,304,2951,2,0,B|280:320|240:312,1,70,0|0
56,160,5576,6,0,B|96:120|120:112,1,70
184,80,5951,2,0,B|232:64|272:72,1,70
416,80,8576,5,0
368,144,8764,1,0
304,192,8951,2,0,B|160:192,1,140
164,192,9701,1,4
164,192,10076,1,0
32,296,10451,2,0,B|184:296,1,140,2|0
172,296,11014,1,0
312,200,11389,5,4
152,144,11764,1,8
152,144,11857,1,8
152,144,11951,1,8
224,104,12139,2,8,B|256:88|312:88|360:112,1,140,2|8
456,248,12889,1,0
400,312,13076,1,2
376,232,13264,2,0,B|232:232,2,140,8|0|8
424,160,14201,5,2
368,96,14389,1,0
285,88,14576,1,2
200,88,14764,2,0,B|104:88,1,70,8|2
152,168,15139,2,0,B|80:208|48:272,1,140,0|8
216,240,15889,5,0
272,296,16076,1,2
352,320,16264,2,0,B|440:320,1,70,8|2
440,240,16639,2,0,B|496:240,2,35,0|0|2
400,168,17014,1,8
424,88,17201,1,0
400,168,17389,2,0,B|352:216|248:208,1,140,0|8
144,104,18139,5,0
104,176,18326,1,2
192,176,18514,2,0,B|240:192|280:176,1,70,8|2
336,216,18889,5,0
376,288,19076,1,2
288,288,19264,2,0,B|240:304|200:288,1,70,8|2
192,376,19639,6,0,B|152:360|128:304|144:256,1,140,0|8
219,293,20201,1,2
144,328,20389,2,0,B|88:328|32:288|16:264,2,140,0|8|0
219,293,21326,2,0,B|312:296,1,70,2|8
336,224,21701,2,0,B|424:224,3,70,2|0|2|8
264,112,22639,38,8,B|320:96,2,35
184,104,23014,2,0,B|208:48,2,35,2|2|8
112,144,23389,2,0,B|104:96,2,35,4|2|8
80,224,23764,2,0,B|104:264|168:288|208:280,1,140,4|4
272,320,24326,21,2
336,264,24514,1,8
376,192,24701,1,2
288,192,24889,2,0,B|272:192|272:192|256:176|256:176|256:208|256:208|240:192|240:192|176:192,1,140,0|8
120,152,25451,1,2
64,216,25639,2,0,B|64:296,2,70,0|2|8
144,248,26201,2,0,B|160:328,1,70,2|0
157,316,26764,1,8
304,240,27139,6,0,B|320:160,1,70,0|2
400,144,27514,2,0,B|384:224,1,70,8|2
376,296,27889,2,0,B|312:336|240:304,1,140,0|8
192,232,28451,1,2
104,232,28639,2,0,B|80:272|40:280,3,70,0|2|8|2
152,136,29576,1,2
232,104,29764,1,8
152,136,29951,1,2
224,184,30139,6,0,B|272:208|336:192|352:152,1,140,0|8
349,157,30889,1,0
464,280,31264,2,0,B|440:280|440:280|432:272|432:272|432:288|432:288|424:280|424:280|344:280,1,140,8|0
288,344,31826,1,2
224,288,32014,1,8
144,296,32201,1,2
80,240,32389,2,0,B|48:208|40:144|64:96,1,140,0|8
224,80,33139,37,0
256,160,33326,1,2
176,144,33514,1,8
256,160,33701,2,0,B|336:160,1,70,2|0
408,128,34076,1,2
456,200,34264,1,8
376,232,34451,2,0,B|296:232,1,70,2|0
306,232,35014,1,8
152,304,35389,2,0,B|96:312|48:272|48:208,1,140,0|8
152,96,36139,21,4
232,96,36326,1,2
256,176,36514,1,8
192,224,36701,1,2
120,176,36889,2,0,B|72:176|40:104|56:64,2,140,0|8|0
120,264,37826,2,0,B|160:312|208:304,1,70,2|8
264,304,38201,2,0,B|336:304,1,70,2|0
334,304,38764,1,8
456,192,39139,38,0,B|416:192|384:160,1,70,0|2
392,248,39514,2,0,B|352:208|360:160,1,70,8|2
359,187,39889,1,0
272,192,40076,2,0,B|176:192,2,70,2|8|2
240,272,40639,2,0,B|160:272,3,70,0|2|8|2
64,144,41576,5,2
144,160,41764,1,8
88,224,41951,1,2
64,144,42139,2,0,B|88:72|176:80,1,140,0|8
312,168,42889,2,0,B|288:240|200:232,1,140,0|8
232,152,43451,5,2
288,88,43639,1,0
312,168,43826,2,0,B|312:224|296:248,1,70,2|8
384,248,44201,2,0,B|368:296|320:320,1,70,2|0
344,304,44764,1,8
176,304,45139,6,0,B|136:296|104:256,1,70,0|2
64,208,45514,1,8
144,192,45701,1,0
208,136,45889,2,0,B|280:136,2,70,0|2|8
256,192,46451,12,4,48139
256,80,48514,37,8
256,160,48701,1,2
208,224,48889,1,0
128,232,49076,2,0,B|48:232,2,70,2|8|2
176,304,49639,1,0
256,296,49826,2,0,B|344:296,2,70,2|8|2
176,304,50389,2,0,B|32:336,1,140,0|8
176,216,51139,5,0
176,216,51326,1,0
224,120,51514,5,0
224,120,51701,1,0
320,160,51889,5,0
320,160,52076,1,0
272,264,52264,5,0
272,264,52451,2,8,B|320:304,2,35
256,112,53576,6,0,B|256:192,1,70,0|8
168,40,54139,6,0,B|144:96|144:136,1,70,0|2
88,48,54514,2,0,B|96:104|128:120,1,70,8|2
184,168,54889,2,0,B|224:192|256:192,1,70,0|2
256,112,55264,2,0,B|328:104|392:136,1,140,8|0
344,200,55826,5,0
344,200,56014,1,0
424,200,56201,1,0
424,200,56389,2,8,B|472:200,3,35
472,240,56764,2,0,B|448:296|392:328|360:328,1,140,0|4
369,327,57514,5,8
312,264,57701,1,2
232,240,57889,2,0,B|72:240,2,140,0|8|0
296,184,58826,1,2
216,160,59014,1,8
296,184,59201,2,0,B|368:192|440:136,1,140,2|8
427,145,59764,1,8
336,264,60139,6,0,B|416:264,2,70,0|2|8
264,224,60701,2,0,B|192:224,2,70,2|0|2
336,264,61264,2,0,B|304:312|208:320,1,140,8|0
136,280,61826,1,2
96,208,62014,1,8
96,128,62201,2,0,B|144:80|232:80,1,140,2|8
223,80,62764,1,8
384,128,63139,6,0,B|456:128,2,70,0|2|8
328,192,63701,1,2
248,200,63889,2,0,B|176:200,2,70,0|2|8
328,192,64451,1,2
408,224,64639,2,0,B|408:320,1,70,0|2
336,344,65014,2,0,B|336:264,1,70,8|2
328,192,65389,5,0
256,232,65576,1,2
168,232,65764,1,8
104,176,65951,2,0,B|16:176,1,70,2|0
64,96,66326,2,0,B|104:64|136:64,1,70,2|8
208,64,66701,6,0,B|288:64,1,70,2|0
344,8,67076,1,2
424,40,67264,1,8
416,120,67451,1,2
336,136,67639,2,0,B|336:216,1,70,0|2
256,232,68014,2,0,B|256:320,1,70,8|2
176,280,68389,2,8,B|168:328,3,35
128,320,68764,2,0,B|80:344|40:328|16:304|8:272,1,140,8|4
96,136,69514,6,0,B|144:112|184:128|208:152|216:184,1,140,8|0
213,175,70264,1,8
376,136,70639,2,0,B|360:184|320:200,1,70,0|2
416,216,71014,2,0,B|368:240|336:208,1,70,8|2
240,96,71576,1,8
240,96,71764,1,8
120,208,72139,6,0,B|80:144|96:72,1,140,4|8
232,176,72889,2,0,B|272:240|256:312,1,140,0|8
232,176,73639,2,0,B|280:184|312:224,1,70,0|2
352,264,74014,2,0,B|376:320|368:344,1,70,8|2
369,331,74576,1,8
369,331,74764,1,8
448,184,75139,6,0,B|424:128|432:104,1,70,0|2
352,144,75514,2,0,B|336:88|352:40|408:24,2,140,8|2|8
192,88,76639,2,0,B|208:144|192:192|136:208,2,140,0|8|0
192,88,77764,1,8
336,168,78139,6,0,B|304:200|264:208,1,70,0|2
336,264,78514,2,0,B|288:264|264:224,1,70,8|2
200,200,78889,1,0
200,200,79076,1,2
136,144,79264,2,0,B|64:144,1,70,8|2
256,192,79639,12,4,81139
120,112,83576,5,0
176,176,83764,1,0
256,192,83951,1,0
336,176,84139,1,0
336,176,84326,2,0,B|392:192|408:216,2,70,0|2|4
336,176,85451,1,0
336,256,85826,1,2
336,256,86014,1,0
256,280,86389,1,0
256,192,86764,12,0,89389
