osu file format v9

[General]
AudioFilename: Heart No Edge Ni Idomou.mp3
AudioLeadIn: 1500
PreviewTime: 57139
Countdown: 0
SampleSet: Normal
StackLeniency: 0.4
Mode: 0
LetterboxInBreaks: 1

[Editor]
DistanceSpacing: 2
BeatDivisor: 4
GridSize: 8

[Metadata]
Title:Heart no Edge ni Idomou (TV Size)
Artist:Fukuyama Jun & Ono Daisuke & Kamiya Hiroshi
Creator:Disoy
Version:Dis
Source:Working!!
Tags:yongtw123 climbb65588

[Difficulty]
HPDrainRate:6
CircleSize:4
OverallDifficulty:8
ApproachRate:8
SliderMultiplier:1.6
SliderTickRate:1

[Events]
//Background and Video events
Video,0,"Video.avi"
0,0,"Working!!.jpg"
//Break Periods
//Storyboard Layer 0 (Background)
//Storyboard Layer 1 (Fail)
//Storyboard Layer 2 (Pass)
//Storyboard Layer 3 (Foreground)
//Storyboard Sound Samples
//Background Colour Transformations
3,100,163,162,255

[TimingPoints]
139,375,4,1,1,50,1,0
3326,-100,4,2,1,10,0,0
5576,-100,4,1,1,50,0,0
6326,-100,4,2,1,10,0,0
8576,-100,4,1,1,50,0,0
9326,-100,4,2,2,70,0,0
10076,-100,4,1,2,40,0,0
10451,-100,4,2,2,55,0,0
10826,-100,4,2,1,50,0,0
11576,-100,4,2,1,60,0,0
23014,-100,4,2,2,70,0,0
23201,-100,4,2,1,70,0,0
23389,-100,4,2,2,85,0,0
23576,-100,4,2,1,70,0,0
23764,-100,4,2,2,70,0,0
23951,-100,4,2,1,60,0,0
36045,-100,4,2,2,70,0,0
36139,-100,4,2,1,60,0,0
51139,-100,4,1,1,50,0,0
51326,-100,4,1,1,60,0,0
51514,-100,4,1,1,70,0,0
51701,-100,4,1,1,70,0,0
52451,-100,4,2,1,70,0,0
53576,-100,4,1,1,50,0,0
53764,-100,4,2,1,70,0,0
54139,-100,4,2,1,60,0,0
55639,-100,4,1,1,50,0,0
55826,-100,4,1,1,60,0,0
56014,-100,4,1,1,70,0,0
56201,-100,4,1,1,80,0,0
56389,-100,4,2,1,70,0,0
56764,-100,4,1,1,70,0,0
56951,-100,4,2,1,70,0,0
57139,-100,4,2,1,50,0,1
57326,-100,4,1,1,50,0,1
57514,-100,4,2,1,70,0,1
57889,-100,4,1,1,50,0,1
58264,-100,4,2,1,70,0,1
58451,-100,4,1,1,50,0,1
59014,-100,4,2,1,70,0,1
59389,-100,4,1,1,50,0,1
60514,-100,4,2,1,70,0,1
61264,-100,4,2,1,70,0,1
61451,-100,4,1,1,50,0,1
62014,-100,4,2,1,70,0,1
62389,-100,4,1,1,50,0,1
63139,-100,4,1,1,50,0,1
63514,-100,4,2,1,70,0,1
63889,-100,4,1,1,50,0,1
64264,-100,4,2,1,70,0,1
64639,-100,4,1,1,50,0,1
65014,-100,4,2,1,70,0,1
65389,-100,4,1,1,50,0,1
65764,-100,4,2,1,70,0,1
66139,-100,4,1,1,50,0,1
66514,-100,4,2,1,70,0,1
66889,-100,4,1,1,50,0,1
67264,-100,4,2,1,70,0,1
67639,-100,4,1,1,50,0,1
68014,-100,4,2,1,70,0,1
68951,-100,4,1,1,65,0,1
69045,-100,4,1,1,65,0,0
69139,-100,4,2,1,50,0,1
69326,-100,4,1,1,50,0,1
69514,-100,4,2,1,70,0,1
69889,-100,4,1,1,50,0,1
70264,-100,4,2,1,70,0,1
70639,-100,4,1,1,50,0,1
71014,-100,4,2,1,70,0,1
71389,-100,4,1,1,50,0,1
72514,-100,4,2,1,70,0,1
72889,-100,4,1,1,50,0,1
73264,-100,4,2,1,70,0,1
73639,-100,4,1,1,50,0,1
74014,-100,4,2,1,70,0,1
74389,-100,4,1,1,50,0,1
75514,-100,4,2,1,70,0,1
75889,-100,4,1,1,50,0,1
76264,-100,4,2,1,70,0,1
76639,-100,4,1,1,50,0,1
77014,-100,4,2,1,70,0,1
77389,-100,4,1,1,50,0,1
77764,-100,4,2,1,70,0,1
78139,-100,4,1,1,50,0,1
78514,-100,4,2,1,70,0,1
78889,-100,4,1,1,50,0,1
79264,-100,4,2,1,70,0,1
80014,-100,4,2,2,60,0,1
80201,-100,4,2,1,70,0,1
80389,-100,4,2,2,70,0,1
80576,-100,4,2,1,70,0,1
80764,-100,4,1,2,70,0,1
80951,-100,4,1,1,50,0,1
81139,-100,4,1,1,50,0,0
84326,-200,4,1,2,70,0,0
84701,-200,4,2,2,70,0,0
85076,-200,4,2,2,60,0,0
86389,-200,4,1,1,60,0,0
89389,-200,4,2,1,5,0,0

[Colours]
Combo1 : 255,128,192
Combo2 : 128,64,64
Combo3 : 18,79,237
Combo4 : 255,255,0

[HitObjects]
256,192,139,1,4
64,320,2576,5,0
152,280,2764,1,0
200,200,2951,1,0
288,160,3139,2,0,B|400:160,1,80,0|0
448,64,5576,5,0
360,104,5764,1,0
312,184,5951,1,0
224,224,6139,2,0,B|112:224,1,80,0|0
256,88,8576,21,0
136,192,8764,1,0
256,296,8951,1,0
376,192,9139,1,0
256,88,9326,6,0,B|256:112|256:112|272:128|272:128|240:128|240:128|256:144|256:144|256:208,1,160,2|4
256,202,10076,1,0
256,202,10451,5,4
256,202,10826,2,8,B|256:288,1,80
256,282,11389,1,0
352,320,11576,21,8
368,312,11670,1,8
384,304,11764,1,8
400,296,11857,1,8
416,288,11951,2,0,B|448:240|432:184,1,80,8|0
368,136,12326,6,0,B|336:184|352:240,1,80,2|8
256,160,12701,2,0,B|256:216|288:256,1,80,8|0
368,136,13076,1,2
296,64,13264,1,8
192,64,13451,2,0,B|144:80|128:120,1,80,2|0
64,192,13826,5,2
176,304,14014,1,10
144,224,14201,22,0,B|176:176|224:168,1,80,10|0
304,184,14576,2,0,B|280:224|224:240,1,80,2|8
242,233,14951,1,2
144,224,15139,2,0,B|32:224,1,80,0|2
64,120,15514,5,8
208,40,15701,1,10
160,112,15889,6,0,B|184:152|168:200,1,80,0|2
264,136,16264,2,0,B|256:176|208:208,1,80,8|2
144,272,16639,2,0,B|32:272,2,80,0|2|8
240,304,17201,21,8
320,288,17389,1,0
392,248,17576,1,2
440,176,17764,1,8
448,88,17951,2,0,B|360:88,1,80,2|0
272,120,18326,5,2
248,256,18514,1,10
136,160,18701,1,8
208,184,18889,6,0,B|184:240|128:248,1,80,0|2
56,216,19264,2,0,B|40:256|56:312,1,80,8|2
136,352,19639,2,0,B|176:368|232:352,1,80,0|2
280,280,20014,21,8
360,224,20201,1,10
264,224,20389,1,0
344,280,20576,1,2
312,184,20764,2,0,B|280:136|208:168,1,80,8|2
200,64,21139,6,0,B|168:64|152:104|128:104,1,80,0|2
48,168,21514,1,8
128,240,21701,1,10
208,168,21889,2,0,B|296:168,1,80,0|2
352,88,22264,1,8
432,152,22451,2,0,B|424:160|424:160|424:168|424:168|416:160|416:160|416:168|416:168|384:200,1,80,2|4
368,288,22826,37,8
360,296,22920,1,8
352,304,23014,1,2
264,256,23201,1,8
248,264,23295,1,8
232,272,23389,1,4
184,184,23576,1,8
160,184,23670,1,8
136,184,23764,1,0
48,168,23951,22,0,B|64:120|104:104,1,80,8|4
136,184,24326,2,0,B|120:232|80:248,1,80,2|8
184,264,24701,2,0,B|144:288|96:280,2,80,10|0|2
264,216,25264,2,0,B|360:216,1,80,8|2
352,312,25639,2,0,B|400:288|424:248,1,80,0|2
432,168,26014,21,8
312,48,26201,1,10
408,72,26389,22,0,B|384:120|336:128,1,80,0|2
288,192,26764,2,0,B|240:208|200:192,1,80,8|2
136,256,27139,2,0,B|72:248|56:208,1,80,0|2
32,136,27514,1,8
24,40,27701,1,10
80,120,27889,1,0
152,176,28076,2,0,B|232:152,1,80,2|8
216,248,28451,2,0,B|248:160,1,80,2|0
312,240,28826,2,0,B|288:160,1,80,2|8
168,48,29201,21,10
264,64,29389,2,0,B|336:48|368:80,1,80,0|2
440,40,29764,2,0,B|440:80|400:112,1,80,8|2
320,152,30139,2,0,B|224:152,1,80,0|2
224,248,30514,2,8,B|120:248,1,80,8|10
104,336,30889,2,0,B|96:336|96:336|88:328|88:328|88:344|88:344|80:336|80:336|40:336,2,80,0|2|8
200,336,31451,2,0,B|272:344|288:296,1,80,2|0
360,336,31826,2,0,B|392:287|394:254,1,80,2|8
256,176,32201,5,10
344,208,32389,2,0,B|320:240|320:240|272:248,1,80,0|2
168,144,32764,38,0,B|192:112|192:112|240:104,1,80,8|2
232,200,33139,2,0,B|208:232|208:232|160:240,1,80,0|2
120,320,33514,2,8,B|32:320,1,80,8|10
120,320,33889,1,0
208,280,34076,1,2
296,320,34264,1,8
384,288,34451,2,0,B|360:240|304:224,1,80,2|0
240,200,34826,1,2
176,128,35014,2,0,B|64:128,2,80,8|10|0
264,96,35576,6,0,B|368:96,2,80,2|8|10
216,112,36045,1,2
176,128,36139,2,0,B|72:128,1,80,4|2
40,208,36514,1,8
88,288,36701,2,0,B|120:248|120:200,1,80,10|0
184,288,37076,2,0,B|184:240|152:192,1,80,2|8
96,144,37451,1,2
96,144,37639,2,0,B|8:96,2,80,0|2|8
248,224,38201,5,10
192,144,38389,2,0,B|224:112|272:112,1,80,0|2
360,112,38764,38,0,B|456:112,1,80,8|2
472,144,39045,1,2
448,184,39139,2,0,B|368:184,1,80,2|2
400,272,39514,2,0,B|480:304,2,80,8|10|0
304,272,40076,37,2
288,272,40170,1,2
272,272,40264,2,0,B|216:208,1,80,8|2
216,176,40545,1,2
184,144,40639,2,0,B|144:104|104:104,1,80,2|0
80,120,40920,21,2
72,168,41014,2,0,B|96:224|160:232,1,80,10|10
176,232,41295,1,2
224,224,41389,2,2,B|272:232|288:288,1,80
272,320,41670,37,2
240,352,41764,2,0,B|128:352,1,80,10|0
120,320,42045,1,2
80,288,42139,2,0,B|0:288,2,80,2|2|8
224,224,42701,5,10
144,224,42889,2,0,B|88:176|96:128,1,80,0|2
128,72,43264,38,0,B|88:40|40:88,2,80,8|2|0
216,120,43826,2,0,B|304:120,1,80,2|8
280,216,44201,2,0,B|368:216,1,80,10|0
368,312,44576,2,0,B|424:288|440:248,2,80,2|8|2
272,312,45139,2,0,B|256:304|216:336|184:320,1,80,0|2
112,280,45514,2,8,B|72:272|48:224,1,80,8|10
112,104,45889,2,0,B|72:112|48:160,1,80,0|2
120,192,46264,2,0,B|224:192,1,80,8|2
272,104,46639,5,0
264,216,46826,1,2
200,120,47014,1,8
304,160,47201,1,10
200,192,47389,5,0
248,288,47576,1,2
352,280,47764,1,8
368,176,47951,1,2
280,120,48139,1,0
200,192,48326,6,0,B|120:192,1,80,2|8
64,272,48701,2,0,B|160:272,1,80,10|0
168,360,49076,2,0,B|208:368|256:336,3,80,2|8|2|0
264,256,49826,1,2
360,256,50014,1,8
392,168,50201,1,10
312,112,50389,1,0
232,168,50576,1,2
312,192,50764,2,0,B|312:288,1,80,8|2
312,352,51139,5,0
200,352,51326,1,0
328,280,51514,5,0
184,280,51701,1,0
352,208,51889,5,0
160,208,52076,1,0
336,136,52264,5,0
176,136,52451,1,8
176,136,52545,1,8
176,136,52639,1,8
256,192,53576,6,0,B|256:208|256:208|264:216|264:216|248:216|248:216|256:224|256:224|256:256,1,80,0|8
256,192,54139,6,0,B|256:96,1,80,0|2
176,144,54514,2,8,B|144:64,1,80,8|10
88,136,54889,2,0,B|24:80,1,80,0|2
8,168,55264,2,0,B|48:240,1,80,8|2
112,296,55639,5,0
200,328,55826,1,0
288,312,56014,1,0
352,240,56201,1,0
344,144,56389,1,8
328,128,56482,1,8
304,120,56576,1,8
280,120,56670,1,0
256,128,56764,2,0,B|256:216,1,80,0|8
200,264,57139,6,0,B|136:304|104:296,1,80,4|2
64,248,57514,2,0,B|-32:248,2,80,8|10|0
136,216,58076,2,0,B|168:176|216:176,1,80,0|8
280,176,58451,2,0,B|368:176,1,80,2|0
368,256,58826,2,0,B|448:272,1,80,0|8
368,256,59201,1,8
272,272,59389,1,0
184,240,59576,5,8
64,128,59764,1,8
160,144,59951,6,0,B|216:120|256:144,1,80,2|0
240,40,60326,2,0,B|288:64|288:112,1,80,2|8
288,200,60701,2,0,B|288:208|288:208|296:216|296:216|280:216|280:216|288:224|288:224|288:256,1,80,10|0
200,288,61076,2,0,B|152:320|104:312,1,80,2|8
40,264,61451,1,2
40,264,61639,2,0,B|88:232|136:240,1,80,0|2
208,232,62014,2,0,B|240:224|272:256|296:248,1,80,8|2
284,249,62389,1,0
456,248,62576,5,8
296,200,62764,1,8
392,176,62951,6,0,B|400:128|376:96,1,80,2|0
296,48,63326,1,2
200,72,63514,2,0,B|152:32|104:48,1,80,8|10
120,136,63889,2,0,B|72:136|40:96,2,80,0|2|8
208,168,64451,2,0,B|304:168,1,80,2|0
432,96,64826,5,0
424,248,65014,1,8
288,168,65201,1,10
376,176,65389,6,0,B|360:232|312:232,1,80,0|2
232,240,65764,2,0,B|144:240,1,80,8|2
56,160,66139,5,0
184,168,66326,1,2
72,232,66514,1,8
120,112,66701,1,10
152,240,66889,1,0
152,240,67076,6,0,B|168:296|208:312,1,80,2|8
248,224,67451,2,0,B|336:224,1,80,2|0
440,224,67826,5,2
384,272,68014,1,8
496,272,68201,1,10
440,224,68389,5,8
416,184,68482,1,8
376,160,68576,1,8
328,152,68670,1,8
280,160,68764,2,0,B|184:160,1,80,8|0
168,72,69139,2,0,B|136:96|128:144,1,80,4|2
56,80,69514,2,0,B|64:128|104:152,1,80,8|10
176,200,69889,6,0,B|256:200,1,80,0|2
256,200,70264,2,0,B|360:200,1,80,8|2
416,152,70639,2,0,B|440:192|416:240,1,80,0|2
336,280,71014,2,0,B|360:312|416:312,2,80,8|10|0
256,200,71576,5,8
96,112,71764,1,8
208,96,71951,6,0,B|248:80|296:80,1,80,2|0
384,80,72326,2,0,B|480:80,2,80,2|8|10
328,160,72889,2,0,B|240:160,2,80,0|2|8
424,184,73451,2,0,B|408:232|368:256,1,80,2|0
296,296,73826,2,0,B|192:296,1,80,2|8
136,248,74201,1,10
208,184,74389,1,0
96,248,74576,5,8
208,144,74764,1,8
128,168,74951,6,0,B|72:104,2,80,2|0|2
192,240,75514,2,0,B|248:304,1,80,8|10
280,208,75889,2,0,B|352:240,1,80,0|2
344,144,76264,2,0,B|448:144,1,80,8|2
344,144,76639,2,0,B|328:96|328:96|288:64,1,80,0|2
168,240,77014,6,8,B|184:288|184:288|224:320,1,80,8|10
320,168,77389,2,0,B|304:120|304:120|264:88,1,80,0|2
192,224,77764,2,8,B|208:272|208:272|248:304,1,80,8|2
328,288,78139,6,0,B|424:288,1,80,0|2
376,200,78514,2,8,B|440:168|448:136,1,80,8|10
352,120,78889,2,0,B|264:120,1,80,0|2
184,160,79264,5,8
56,240,79451,1,2
192,296,79639,1,4
136,224,79826,5,8
128,216,79920,1,8
120,208,80014,1,2
160,120,80201,1,8
136,112,80295,1,8
112,104,80389,1,4
160,16,80576,1,8
128,16,80670,1,8
96,16,80764,2,0,B|0:16,2,80
256,192,81326,12,0,83576
200,96,83764,1,0
256,48,83951,1,0
312,96,84139,1,0
256,144,84326,6,0,B|256:224,1,80,0|2
256,224,85076,1,4
256,224,85451,2,0,B|256:304,1,80
256,304,86014,5,0
256,304,86389,1,0
256,304,86764,1,4
256,192,86951,12,0,89389
