osu file format v12

[General]
AudioFilename: happysnow.mp3
AudioLeadIn: 0
PreviewTime: 49043
Countdown: 0
SampleSet: Soft
StackLeniency: 0.7
Mode: 0
LetterboxInBreaks: 0
WidescreenStoryboard: 0

[Editor]
Bookmarks: 20543
DistanceSpacing: 1.2
BeatDivisor: 4
GridSize: 32

[Metadata]
Title:Happy Snow
TitleUnicode:Happy Snow
Artist:Fukuhara Kaori, Yuuki Aoi, Uchiyama Yumi, Kotobuki Minako
ArtistUnicode:福原香織, 悠木碧, 内山夕実, 寿美菜子
Creator:Wafu
Version:Easy
Source:Aチャンネル
Tags:christmas A-Channel: The Animation Ichii Tooru Momoki Run Nishi Yuuko Tennouji Nagisa
BeatmapID:324876
BeatmapSetID:128248

[Difficulty]
HPDrainRate:2
CircleSize:3
OverallDifficulty:2
ApproachRate:3
SliderMultiplier:1
SliderTickRate:1

[Events]
//Background and Video events
Video,0,"A Channel 10.avi"
0,0,"kawaii.jpg",0,0
//Break Periods
//Storyboard Layer 0 (Background)
//Storyboard Layer 1 (Fail)
//Storyboard Layer 2 (Pass)
//Storyboard Layer 3 (Foreground)
//Storyboard Sound Samples
//Background Colour Transformations
3,100,163,162,255

[TimingPoints]
1343,600,4,2,1,70,1,0
37943,-100,4,2,2,70,0,0
38093,-100,4,2,1,70,0,0
42743,-100,4,2,2,70,0,0
42893,-100,4,2,1,70,0,0
49343,-100,4,2,1,50,0,1
49943,-100,4,2,1,80,0,1
51143,-100,4,2,2,80,0,1
51293,-100,4,2,1,80,0,1
57143,-100,4,2,2,80,0,1
57293,-100,4,2,1,80,0,1
61943,-100,4,2,2,80,0,1
62093,-100,4,2,1,80,0,1
66743,-100,4,2,2,80,0,1
66893,-100,4,2,1,80,0,1
68543,-100,4,2,1,80,0,0
72743,-100,4,2,2,80,0,0
72893,-100,4,2,1,80,0,0
76343,-100,4,2,2,80,0,0
76493,-100,4,2,1,80,0,0
81143,-100,4,2,2,80,0,0
81293,-100,4,2,1,80,0,0
87743,-100,4,2,1,50,0,1
88343,-100,4,2,2,80,0,1
88493,-100,4,2,1,80,0,1
93143,-100,4,2,2,80,0,1
93293,-100,4,2,1,80,0,1
97943,-100,4,2,2,80,0,1
98093,-100,4,2,1,80,0,1
102743,-100,4,2,2,80,0,1
102893,-100,4,2,1,80,0,1
106943,-100,4,2,1,80,0,0
107543,-100,4,2,2,80,0,0
107693,-100,4,2,1,80,0,0
112343,-100,4,2,2,80,0,0
112493,-100,4,2,1,80,0,0
114743,-100,4,2,2,80,0,0
114893,-100,4,2,1,80,0,0
118943,-100,4,2,1,25,0,0
123143,-100,4,2,1,5,0,0

[Colours]
Combo1 : 100,177,255
Combo2 : 223,238,255
Combo3 : 170,213,255

[HitObjects]
423,55,20543,2,0,P|379:79|330:80,1,100,0|2,0:0|0:0,0:0:0:0:
215,45,21743,2,0,P|165:46|122:70,1,100,0|2,0:0|0:0,0:0:0:0:
149,187,22943,5,0,0:0:0:0:
78,284,23543,1,2,0:0:0:0:
159,342,24043,2,0,P|191:347|225:347,1,66.6666666666667
372,245,25343,6,0,P|393:201|384:153,2,100,0|2|0,0:0|0:0|0:0,0:0:0:0:
273,315,27143,1,2,0:0:0:0:
155,290,27743,6,0,L|106:307,2,50,0|0|2,0:0|0:0|0:0,0:0:0:0:
243,209,28943,2,0,P|240:159|209:118,1,100,0|2,0:0|0:0,0:0:0:0:
317,64,30143,6,0,L|416:68,1,100,0|2,0:0|0:0,0:0:0:0:
501,153,31343,2,0,P|507:201|486:246,1,100,0|2,0:0|0:0,0:0:0:0:
389,176,32543,5,0,0:0:0:0:
341,286,33143,1,2,0:0:0:0:
236,344,33743,2,0,P|187:354|137:352,1,100,0|2,0:0|0:0,0:0:0:0:
86,244,34943,6,0,P|76:195|87:146,2,100,0|2|0,0:0|0:0|0:0,0:0:0:0:
197,198,36743,1,2,0:0:0:0:
251,89,37343,6,0,P|343:60|424:112,1,200
325,181,39143,1,2,0:0:0:0:
304,299,39743,6,0,P|258:318|208:320,1,100,0|2,0:0|0:0,0:0:0:0:
97,274,40943,2,0,L|113:173,1,100,0|2,0:0|0:0,0:0:0:0:
154,62,42143,6,0,P|225:124|312:86,1,200
397,2,43943,1,2,0:0:0:0:
425,118,44543,6,0,L|443:223,2,100,0|2|0,0:0|0:0|0:0,0:0:0:0:
307,143,46343,1,2,0:0:0:0:
250,249,46943,6,0,P|181:275|109:257,2,150,2|2|0,0:0|0:0|0:0,0:0:0:0:
307,143,49343,5,4,0:0:0:0:
213,68,49943,1,2,0:0:0:0:
98,101,50543,2,0,P|63:185|141:234,1,200
259,248,52343,2,0,P|276:296|276:345,2,100,2|0|2,0:0|0:0|0:0,0:0:0:0:
180,159,54143,6,0,P|163:111|163:62,1,100,0|2,0:0|0:0,0:0:0:0:
279,94,55343,1,0,0:0:0:0:
380,29,55943,1,2,0:0:0:0:
435,135,56543,6,0,P|449:235|373:276,1,200
320,167,58343,1,2,0:0:0:0:
230,257,58943,6,0,P|189:285|140:296,2,100,0|2|0,0:0|0:0|0:0,0:0:0:0:
142,175,60743,1,2,0:0:0:0:
171,57,61343,6,0,P|266:37|350:87,1,200
403,194,63143,1,2,0:0:0:0:
436,309,63743,6,0,L|529:345,2,100,0|2|0,0:0|0:0|0:0,0:0:0:0:
324,352,65543,1,2,0:0:0:0:
265,247,66143,6,0,P|199:216|133:246,2,150,0|0|2,0:0|0:0|0:0,0:0:0:0:
384,258,68543,6,0,P|431:243|469:211,1,100,0|2,0:0|0:0,0:0:0:0:
454,90,69743,2,0,P|407:104|369:137,1,100,0|2,0:0|0:0,0:0:0:0:
272,207,70943,5,0,0:0:0:0:
169,145,71543,1,2,0:0:0:0:
66,208,72143,2,0,P|40:117|103:45,1,200
224,41,73943,5,2,0:0:0:0:
323,108,74543,2,0,P|364:136|413:133,1,100,0|2,0:0|0:0,0:0:0:0:
510,63,75743,6,0,P|536:155|476:230,1,200
359,263,77543,1,2,0:0:0:0:
256,202,78143,6,0,P|206:202|165:230,1,100,0|2,0:0|0:0,0:0:0:0:
47,250,79343,2,0,L|36:150,1,100,0|2,0:0|0:0,0:0:0:0:
118,63,80543,6,0,P|190:90|299:46,1,200
352,153,82343,1,2,0:0:0:0:
432,64,82943,6,0,P|463:104|469:153,1,100,0|2,0:0|0:0,0:0:0:0:
411,257,84143,2,0,L|408:314,2,50,0|0|2,0:0|0:0|0:0,0:0:0:0:
293,279,85343,6,0,P|250:304|201:313,1,100,0|2,0:0|0:0,0:0:0:0:
107,238,86543,2,0,P|149:212|198:203,1,100,0|2,0:0|0:0,0:0:0:0:
316,180,87743,6,0,P|341:91|262:42,1,200,4|0,0:0|0:0,0:0:0:0:
146,75,89543,1,2,0:0:0:0:
75,172,90143,6,0,P|64:226|71:272,2,100,0|2|0,0:0|0:0|0:0,0:0:0:0:
146,75,91943,1,2,0:0:0:0:
260,39,92543,6,0,P|352:7|445:40,1,200
472,157,94343,1,2,0:0:0:0:
394,249,94943,6,0,P|352:274|302:281,1,100,0|2,0:0|0:0,0:0:0:0:
233,183,96143,2,0,P|183:189|140:215,1,100,0|2,0:0|0:0,0:0:0:0:
57,301,97343,6,0,P|28:207|73:120,1,200
180,67,99143,1,2,0:0:0:0:
296,97,99743,6,0,L|395:103,1,100,0|2,0:0|0:0,0:0:0:0:
429,218,100943,2,0,L|330:212,1,100,0|2,0:0|0:0,0:0:0:0:
207,213,102143,6,0,P|153:293|57:305,1,200
90,190,103943,1,2,0:0:0:0:
169,100,104543,6,0,P|218:94|272:109,1,100,0|2,0:0|0:0,0:0:0:0:
348,194,105743,2,0,P|396:205|445:200,1,100,0|2,0:0|0:0,0:0:0:0:
498,92,106943,6,0,P|411:49|316:73,1,200
196,62,108743,1,2,0:0:0:0:
111,148,109343,6,0,P|93:194|93:243,1,100,0|2,0:0|0:0,0:0:0:0:
200,298,110543,2,0,L|302:307,1,100,0|2,0:0|0:0,0:0:0:0:
418,290,111743,6,0,P|475:203|435:126,1,200
342,202,113543,1,2,0:0:0:0:
242,268,114143,6,0,P|146:287|56:247,1,200
18,133,115943,1,2,0:0:0:0:
119,68,116543,6,0,P|167:83|216:76,1,100,0|2,0:0|0:0,0:0:0:0:
335,56,117743,2,0,P|384:49|431:63,1,100,0|2,0:0|0:0,0:0:0:0:
256,192,118943,12,0,123143,0:0:0:0:
