osu file format v7

[General]
AudioFilename: Sister_Wars_Short_Cut.mp3
AudioLeadIn: 0
PreviewTime: 13271
Countdown: 0
SampleSet: Normal
StackLeniency: 0.7
Mode: 0
LetterboxInBreaks: 1

[Editor]
DistanceSpacing: 0.800000011920929
BeatDivisor: 8
GridSize: 8

[Metadata]
Title:Sister Wars
Artist:Fukuhara Kaori
Creator:Strawberry-kun
Version:StrawberryStyle
Source:Lucky Star
Tags:Lucky Star Raki Suta Hiiragi Tsukasa

[Difficulty]
HPDrainRate:7
CircleSize:5
OverallDifficulty:8
SliderMultiplier:1.6
SliderTickRate:1

[Events]
//Background and Video events
0,0,"bg.png"
//Break Periods
//Storyboard Layer 0 (Background)
//Storyboard Layer 1 (Fail)
//Storyboard Layer 2 (Pass)
//Storyboard Layer 3 (Foreground)
//Storyboard Sound Samples
//Background Colour Transformations
3,100,160,255,255

[TimingPoints]
650,394.736842105263,4,1,0,80,1,0
5386,-100,4,1,0,0,0,0
5584,-100,4,1,0,10,0,0
5781,-100,4,1,0,20,0,0
5978,-100,4,1,0,30,0,0
6176,-100,4,1,0,40,0,0
6373,-100,4,1,0,50,0,0
6571,-100,4,1,0,60,0,0
6768,-100,4,1,0,70,0,0
6965,-100,4,1,0,80,0,0
25518,-100,4,1,0,80,0,1
38529,-100,4,1,0,80,0,0
38544,-100,4,1,0,80,0,1
51176,-100,4,2,0,80,0,0
62130,-100,4,1,0,80,0,0
77623,-100,4,1,0,100,0,0
77821,-100,4,1,0,90,0,0
78018,-100,4,1,0,80,0,0
78215,-100,4,1,0,70,0,0
78413,-100,4,1,0,60,0,0
78610,-100,4,1,0,50,0,0
78807,-100,4,1,0,40,0,0
79005,-100,4,1,0,30,0,0
79202,-100,4,1,0,20,0,0
79399,-100,4,1,0,10,0,0
79597,-100,4,1,0,0,0,0

[Colours]
Combo1 : 0,115,210
Combo2 : 210,0,215
Combo3 : 0,210,115
Combo4 : 115,0,210

[HitObjects]
256,192,5386,12,4,6965
80,192,7360,5,8
136,160,7557,1,2
256,192,7952,1,8
312,160,8150,1,2
192,192,8544,1,8
224,248,8742,1,0
192,304,8939,2,0,B|104:304,2,80,2|0|0
192,304,9531,1,2
344,192,10123,6,0,B|408:264|344:344,1,160,8|0
312,264,10715,1,2
248,264,10913,1,2
248,264,11011,1,0
248,264,11110,1,0
320,224,11307,2,0,B|248:160|168:224,1,160,4|0
110,218,11899,1,0
110,154,12097,1,2
110,154,12196,1,0
110,154,12294,1,0
174,154,12492,2,0,B|238:90,2,80,4|0|0
174,218,13084,1,4
240,216,13281,6,0,B|408:216,1,160,2|8
400,152,13873,1,0
464,152,14071,2,0,B|464:320,2,160,2|8|0
432,96,15057,1,0
400,152,15255,2,0,B|400:320,2,160,2|8|4
400,152,16242,1,4
336,152,16439,6,0,B|264:184|352:240|280:288,1,160,8|0
217,287,17031,1,0
217,223,17228,2,0,B|168:208,2,40,2|0|0
262,177,17623,1,2
217,132,17821,1,0
262,87,18018,2,0,B|424:87,2,160,2|8|0
262,87,19005,1,4
262,87,19202,1,0
197,87,19399,1,4
232,144,19597,6,0,B|232:192,2,40,2|0|0
296,144,19992,2,0,B|328:176,2,40,8|0|0
280,208,20386,2,0,B|296:256,2,40,2|0|0
304,272,20781,1,0
176,272,21176,2,0,B|128:320|72:232|24:280,1,160,2|0
64,328,21768,1,8
120,352,21965,2,0,B|160:368|200:336,2,80,4|0|0
120,352,22557,1,4
184,352,22755,6,0,B|352:352,1,160,2|0
480,128,23544,2,0,B|480:296,1,160,2|0
256,32,24334,5,4
32,192,24728,1,4
480,192,25123,1,4
256,352,25518,5,12
256,256,25913,6,0,B|256:88,1,160,8|0
256,32,26505,1,0
320,32,26702,2,0,B|432:16|416:120,2,160,2|0|0
320,96,27689,1,0
368,144,27886,2,0,B|336:176|288:160,3,80,0|2|0|8
320,96,28676,1,8
320,96,28775,1,0
320,96,28873,1,0
368,56,29071,6,0,B|328:-16|248:80|224:24,1,160,8|0
226,28,29663,1,0
226,28,29860,2,0,B|154:68|250:148|194:172,1,160,8|0
198,170,30452,1,0
256,192,30650,1,0
384,192,31044,2,0,B|296:192,1,80,2|0
256,240,31439,2,2,B|88:240,1,160,2|4
96,112,32228,5,8
96,112,32426,1,0
160,112,32623,2,0,B|240:176|296:88,2,160,2|2|8
96,224,33807,2,0,B|184:224,1,80
240,224,34202,2,0,B|312:272,2,80,0|2|0
208,168,34794,1,8
208,168,34893,1,0
208,168,34992,1,0
272,168,35189,1,0
256,192,35288,12,8,38544
192,192,38939,5,0
320,192,39334,1,8
256,80,39728,1,0
256,208,40123,2,0,B|232:296,2,80,8|2|0
256,144,40715,2,0,B|336:112,1,80,2|0
376,160,41110,1,8
328,208,41307,1,8
328,208,41406,1,0
328,208,41505,1,0
376,248,41702,6,0,B|336:336|240:312,1,160,2|0
248,248,42294,1,0
184,248,42492,2,0,B|80:272|72:168,2,160,2|0|0
256,144,43676,2,0,B|256:56,1,80,2|0
320,64,44071,2,2,B|320:232,1,160,2|4
192,192,44860,6,0,B|192:104,1,80,8|0
192,48,45255,1,2
192,48,45452,1,0
128,64,45649,2,0,B|48:96,1,80,2|0
96,144,46044,2,0,B|16:176,1,80,2|0
16,240,46439,1,2
80,240,46636,1,0
144,240,46834,1,0
144,240,47031,1,2
112,296,47228,1,0
176,296,47426,1,8
176,296,47524,1,0
176,296,47623,1,8
144,352,47821,1,0
256,192,47919,12,8,51176
256,88,51571,5,0
256,88,51768,1,2
288,88,51867,1,0
320,88,51965,1,0
352,88,52064,1,0
384,88,52163,1,0
384,152,52360,2,0,B|416:232,1,80,0|0
376,280,52755,5,0
376,280,52952,1,2
344,296,53051,1,0
312,312,53149,1,0
280,296,53248,1,0
248,280,53347,1,0
208,232,53544,1,0
168,280,53742,1,2
128,232,53939,2,0,B|104:192,2,40,2|0|0
88,280,54334,6,0,B|0:280|0:168,1,160
0,104,54926,1,2
32,96,55024,1,0
64,88,55123,1,0
96,80,55222,1,0
128,72,55321,1,0
160,64,55419,1,0
192,56,55518,1,0
256,56,55715,1,0
256,120,55913,6,0,B|304:192,1,80,0|2
300,186,56209,1,0
300,186,56307,1,0
368,184,56505,1,0
368,248,56702,1,0
432,248,56899,1,2
432,216,56998,1,0
432,184,57097,1,0
432,152,57196,1,0
432,120,57294,1,0
368,120,57492,6,0,B|200:120,1,160
208,184,58084,1,2
208,248,58281,1,0
176,256,58380,1,0
144,264,58478,1,0
112,272,58577,1,0
80,280,58676,1,0
48,288,58774,1,0
16,296,58873,1,0
16,232,59071,6,0,B|16:64,1,160,0|2
72,48,59663,1,0
128,72,59860,1,0
160,72,59959,1,0
192,72,60057,1,2
224,72,60156,1,0
256,72,60255,1,0
320,72,60452,1,0
288,128,60649,6,0,B|288:296,1,160
352,288,61242,1,0
400,248,61439,1,0
424,224,61538,1,0
440,200,61636,1,0
448,168,61735,1,2
440,136,61834,1,0
424,112,61932,1,0
400,88,62031,1,0
368,168,62228,5,4
112,168,63018,5,0
144,168,63117,1,0
176,168,63215,1,0
240,168,63413,1,0
304,168,63610,1,0
368,168,63807,6,2,B|352:256,1,80,2|0
432,168,64202,2,2,B|448:80,1,80,2|0
432,232,64597,1,8
432,232,64794,1,0
432,296,64992,6,2,B|488:360,1,80,2|0
376,328,65386,2,2,B|432:392,1,80,2|0
320,360,65781,1,8
256,248,66176,5,0
256,248,66274,1,0
256,248,66373,1,2
256,184,66571,1,8
256,184,66768,1,0
256,120,66965,6,2,B|256:32,1,80,2|0
320,40,67360,2,2,B|320:128,1,80,2|0
384,120,67755,1,0
384,152,67853,1,0
384,184,67952,1,0
384,216,68051,1,0
384,248,68149,2,2,B|384:336,1,80,2|0
320,328,68544,6,2,B|320:240,1,80,2|0
320,184,68939,2,0,B|272:184,2,40
256,184,69334,2,0,B|208:184,2,40
256,152,69630,1,0
256,120,69728,2,0,B|256:32,1,80,4|0
192,40,70123,6,2,B|128:104,1,80,2|0
192,40,70518,2,2,B|256:104,1,80,2|0
192,128,70913,1,8
192,256,71307,6,2,B|104:256,1,80,2|0
192,256,71702,2,2,B|280:256,1,80,2|0
192,192,72097,1,8
312,144,72492,5,0
312,144,72590,1,0
312,144,72689,1,2
336,200,72886,1,8
336,200,73084,1,0
320,264,73281,6,2,B|352:344,1,80,2|0
288,352,73676,2,2,B|256:272,1,80,2|0
256,216,74071,2,0,B|88:216,2,160
296,168,75057,5,8
296,168,75156,1,0
296,168,75255,1,0
336,216,75452,2,0,B|384:216,2,40,8|0|0
296,264,75847,1,8
296,264,75946,1,0
296,264,76044,1,0
256,216,76242,1,2
32,192,76439,5,4
480,192,77031,1,4
256,192,77623,12,0,79597
