osu file format v7

[General]
AudioFilename: Sister_Wars_Short_Cut.mp3
AudioLeadIn: 0
PreviewTime: 13271
Countdown: 0
SampleSet: Normal
StackLeniency: 0.7
Mode: 0
LetterboxInBreaks: 1

[Editor]
DistanceSpacing: 0.800000011920929
BeatDivisor: 4
GridSize: 8

[Metadata]
Title:Sister Wars
Artist:Fukuhara Kaori
Creator:Strawberry-kun
Version:Easy
Source:Lucky Star
Tags:Lucky Star Raki Suta Hiiragi Tsukasa

[Difficulty]
HPDrainRate:3
CircleSize:4
OverallDifficulty:3
SliderMultiplier:1.2
SliderTickRate:1

[Events]
//Background and Video events
0,0,"bg.png"
//Break Periods
2,51376,60788
//Storyboard Layer 0 (Background)
//Storyboard Layer 1 (Fail)
//Storyboard Layer 2 (Pass)
//Storyboard Layer 3 (Foreground)
//Storyboard Sound Samples
//Background Colour Transformations
3,100,160,255,255

[TimingPoints]
650,394.736842105263,4,1,0,80,1,0
5386,-100,4,1,0,0,0,0
5584,-100,4,1,0,10,0,0
5781,-100,4,1,0,20,0,0
5978,-100,4,1,0,30,0,0
6176,-100,4,1,0,40,0,0
6373,-100,4,1,0,50,0,0
6571,-100,4,1,0,60,0,0
6768,-100,4,1,0,70,0,0
6965,-100,4,1,0,80,0,0
25518,-100,4,1,0,80,0,1
38529,-100,4,1,0,80,0,0
38544,-100,4,1,0,80,0,1
51176,-100,4,2,0,80,0,0
62130,-100,4,1,0,80,0,0
79597,-100,4,1,0,0,0,0

[Colours]
Combo1 : 0,115,210
Combo2 : 210,0,215
Combo3 : 0,210,115
Combo4 : 115,0,210

[HitObjects]
256,192,5386,12,4,6965
256,128,7360,6,0,B|256:64,1,60,8|0
184,128,7952,2,0,B|184:64,1,60,8|0
112,128,8544,2,0,B|112:192,5,60,0|0|2|0|0|2
256,128,10123,6,0,B|256:64,1,60,8|0
328,128,10715,2,0,B|328:64,1,60,8|0
400,128,11307,2,0,B|400:192,5,60,0|0|2|0|0|2
160,184,13281,5,0
224,112,13676,1,8
288,184,14071,1,0
352,112,14465,1,8
416,184,14860,2,2,B|456:264|368:352|280:312,1,240
136,192,16439,5,0
232,192,16834,1,8
328,192,17228,1,0
328,288,17623,1,8
232,288,18018,2,2,B|152:320|48:264|56:176,1,240
208,72,19597,5,0
272,144,19992,1,8
208,216,20386,1,0
144,144,20781,1,8
80,216,21176,2,2,B|80:296|184:344|264:288,1,240
432,192,22755,6,0,B|304:192,3,120,2|0|2|0
216,192,24334,5,4
120,192,24728,1,4
24,192,25123,1,4
24,96,25518,5,12
120,96,25913,6,0,B|368:96,1,240
456,96,27097,1,0
408,176,27492,2,0,B|408:240,3,60,2|0|0|2
336,176,28478,2,8,B|336:240,1,60
264,176,29071,6,0,B|16:176,1,240
24,272,30255,1,0
120,272,30650,1,0
216,272,31044,6,0,B|280:272,1,60,2|0
328,272,31439,2,2,B|456:272,1,120,2|4
448,176,32228,6,0,B|488:120|448:56,2,120,8|0|2
368,120,33413,1,2
272,120,33807,2,0,B|208:120,3,60,2|0|0|2
272,192,34794,2,8,B|208:192,1,60
256,192,35189,12,8,38544
456,152,38939,6,0,B|328:152,1,120,0|8
240,152,39728,1,0
144,152,40123,2,0,B|144:216,3,60,2|0|0|2
72,152,41110,2,8,B|72:220,1,60
168,192,41702,5,0
168,288,42097,1,8
264,288,42492,2,0,B|392:264|432:128,1,240
334,133,43676,6,0,B|272:134,1,60,2|0
226,133,44071,2,2,B|104:134,1,120,2|4
80,224,44860,6,0,B|64:296|136:328,2,120,8|0|2
176,240,46044,1,2
272,240,46439,2,0,B|336:240,3,60,2|0|0|2
272,312,47426,2,8,B|336:312,1,60
256,192,47821,12,8,51176
256,192,62228,5,4
256,192,63807,6,2,B|272:128|328:96,2,120
352,192,64992,2,2,B|336:256|280:288,2,120
64,192,66965,6,2,B|64:64,2,120
160,192,68149,2,2,B|160:320,2,120
424,80,70123,6,2,B|296:80,2,120
488,152,71307,2,2,B|488:280,2,120
256,320,73281,6,0,B|384:320,1,120,8|0
256,176,74465,2,0,B|384:176,1,120,8|0
256,32,75649,6,0,B|384:32,1,120,8|0
456,88,76439,2,0,B|456:272,1,180,4|4
256,192,77623,12,0,79597
