osu file format v9

[General]
AudioFilename: 01 - Miracle Guy ~TV size~.mp3
AudioLeadIn: 2000
PreviewTime: 55792
Countdown: 0
SampleSet: Normal
StackLeniency: 0.7
Mode: 0
LetterboxInBreaks: 1

[Editor]
DistanceSpacing: 0.8
BeatDivisor: 4
GridSize: 8

[Metadata]
Title:Miracle Guy (TV size)
Artist:Fukuhara Kaori
Creator:Zorlok_
Version:Hard
Source:Lucky Star
Tags:Hiiragi Kagami Lucky Star

[Difficulty]
HPDrainRate:7
CircleSize:5
OverallDifficulty:7
ApproachRate:7
SliderMultiplier:1.6
SliderTickRate:2

[Events]
//Background and Video events
0,0,"Bg.jpg"
//Break Periods
//Storyboard Layer 0 (Background)
//Storyboard Layer 1 (Fail)
//Storyboard Layer 2 (Pass)
//Storyboard Layer 3 (Foreground)
//Storyboard Sound Samples
//Background Colour Transformations
3,100,165,252,217

[TimingPoints]
720,437.956204379562,4,1,0,70,1,0
26778,-100,4,1,0,100,0,0
26997,-100,4,1,0,20,0,0
27216,-100,4,1,0,100,0,0
27435,-100,4,1,0,20,0,0
27654,-100,4,1,0,100,0,0
27873,-100,4,1,0,21,0,0
28092,-100,4,1,0,100,0,0
28311,-100,4,1,0,22,0,0
28530,-100,4,1,0,70,0,0
33785,-100,4,1,0,100,0,0
34004,-100,4,1,0,20,0,0
34223,-100,4,1,0,100,0,0
34442,-100,4,1,0,20,0,0
34661,-100,4,1,0,100,0,0
34880,-100,4,1,0,18,0,0
35099,-100,4,1,0,100,0,0
35318,-100,4,1,0,20,0,0
35537,-100,4,1,0,70,0,0
49990,-100,4,1,0,89,0,0
56778,-100,4,1,0,82,0,1
63566,-100,4,1,0,82,0,0
70792,-100,4,1,0,82,0,1
77581,-100,4,1,0,82,0,0

[Colours]
Combo1 : 146,11,244
Combo2 : 103,254,137
Combo3 : 166,102,244
Combo4 : 22,219,6

[HitObjects]
32,32,720,1,8
160,32,1157,1,8
224,32,1376,1,0
288,32,1595,1,8
416,32,2033,1,8
416,160,2471,1,8
416,224,2690,1,0
416,288,2909,1,8
416,160,3347,1,8
416,288,3785,1,8
288,288,4223,6,0,B|176:328|160:200,1,160,8|0
232,224,4880,2,0,B|240:128|132:114,1,160,8|0
80,112,5537,1,8
80,48,5756,1,0
144,48,5975,1,8
208,48,6194,1,0
272,48,6413,1,0
272,112,6632,2,8,B|256:160|304:192,1,80,8|0
240,216,7070,2,0,B|216:264|272:296,1,80,0|8
112,296,7727,6,0,B|208:240|144:144,1,160,8|0
88,160,8384,2,0,B|40:64|136:24,1,160,8|0
192,24,9041,2,0,B|272:24,4,80,8|0|8|0|8
192,88,10136,2,8,B|240:168,1,80,8|0
296,160,10574,2,0,B|408:160,1,80,0|8
240,160,11230,6,0,B|296:168|286:251,1,80,8|0
287,215,11668,1,0
352,216,11887,1,0
352,280,12106,1,0
288,280,12325,2,8,B|200:328|128:232,1,160,0|0
144,251,12982,1,0
256,192,13420,5,8
256,128,13639,1,0
256,256,14077,1,0
256,192,14296,1,8
256,192,14515,5,4
456,352,14953,1,0
256,192,15391,1,4
48,16,15829,1,0
256,192,16267,1,4
256,192,17143,5,4
72,32,18457,5,0
128,64,18676,1,8
72,96,18895,1,0
128,128,19114,1,0
72,160,19333,1,8
128,192,19552,1,0
72,224,19771,1,14
256,192,19990,12,4,21084
128,272,21522,2,0,B|216:312|288:208,1,160
269,231,22179,1,0
392,192,22617,1,8
392,128,22836,1,0
392,64,23055,1,8
328,64,23274,2,0,B|272:40|256:120,1,80,0|8
264,152,23712,1,0
200,152,23931,5,8
200,152,24150,2,0,B|96:152|104:256,1,160
168,256,24807,1,8
168,256,25026,2,0,B|240:336|304:256,1,160
336,208,25683,2,8,B|416:208,1,80,8|0
480,208,26121,1,8
480,144,26340,1,0
480,80,26559,1,8
416,80,26778,6,4,B|368:112|328:56,1,80,4|0
288,40,27216,2,4,B|248:0|192:40,1,80,4|0
168,72,27654,2,4,B|136:112|80:72,1,80,4|0
56,32,28092,2,4,B|0:48|24:112,1,80
16,160,28530,5,8
80,160,28749,1,0
80,224,28968,2,0,B|40:264|96:304,2,80,8|0|8
144,224,29625,2,0,B|224:224,1,80,0|0
288,224,30063,1,0
352,224,30282,1,8
424,48,30938,5,0
360,48,31157,2,8,B|256:16|200:120,1,160
152,96,31814,1,0
88,96,32033,1,8
88,160,32252,1,0
88,288,32690,1,0
144,320,32909,1,0
208,336,33128,1,4
272,320,33347,1,8
328,288,33566,1,0
392,272,33785,6,4,B|448:272|448:208,1,80,4|0
464,160,34223,2,4,B|504:120|456:80,1,80
416,56,34661,2,4,B|376:8|328:64,1,80
280,56,35099,2,4,B|229:28|192:96,1,80,4|0
256,192,35756,5,4
216,144,35975,1,8
168,192,36194,1,0
128,144,36413,1,8
88,192,36632,1,0
128,240,36851,1,8
88,288,37070,1,0
128,336,37289,2,8,B|256:392|376:288,1,240,8|0
408,184,38384,1,0
328,136,38712,1,8
216,256,39260,5,4
264,216,39479,1,8
216,176,39698,1,0
264,136,39917,1,8
216,96,40136,1,0
264,56,40355,1,8
216,16,40574,1,0
264,56,40792,2,8,B|408:128|328:288,1,240,8|0
344,320,41668,1,0
224,352,42106,1,8
192,296,42325,1,0
160,352,42544,1,8
232,248,42982,5,8
272,200,43201,1,0
312,248,43420,1,8
352,200,43639,1,0
392,248,43858,1,8
432,200,44077,1,0
432,136,44296,2,8,B|328:96|272:192,1,160
287,168,44953,1,0
288,232,45172,1,8
160,232,45610,1,8
112,184,45829,1,0
160,136,46048,1,8
272,192,46486,5,8
304,248,46705,1,0
336,192,46924,1,8
368,248,47143,1,0
400,192,47362,1,8
432,248,47581,1,0
432,312,47800,2,8,B|349:364|270:258|158:323,2,240
432,312,49333,1,0
32,336,49990,6,0,B|96:288,1,80
96,288,50428,2,0,B|16:208,1,80
88,192,50865,1,8
40,152,51084,1,0
88,112,51303,1,12
480,16,51741,6,0,B|400:80,1,80,0|0
416,64,52179,2,0,B|495:127,1,80,0|0
432,160,52617,1,0
480,200,52836,1,8
432,240,53055,1,4
304,272,53493,6,0,B|235:313,1,80
224,248,53931,2,0,B|155:289,1,80
155,288,54369,1,0
88,288,54588,2,8,B|-16:152|168:48,1,240
184,80,55464,1,0
184,80,55683,1,8
64,40,56121,5,8
128,56,56340,1,0
184,80,56559,1,8
240,56,56778,2,0,B|280:16|328:72,1,80,4|8
312,120,57216,2,0,B|352:144|400:96,2,80,0|12|0
312,120,57873,1,0
320,184,58092,1,8
272,232,58311,1,0
208,232,58530,2,0,B|160:232|144:184,1,80,8|4
144,128,58968,2,0,B|144:80|208:64,1,80,0|12
288,152,59625,5,0
352,160,59844,1,8
328,104,60063,1,0
376,64,60282,2,0,B|432:56|432:112,2,80,4|8|4
376,128,60938,2,0,B|400:176|456:152,2,80,12|0|12
336,184,61595,1,0
368,240,61814,2,0,B|328:272|264:232,1,80,0|12
232,248,62252,1,8
168,248,62471,2,0,B|120:280|72:224,1,80,0|8
93,244,62909,1,0
96,184,63128,2,0,B|32:176|48:104,2,80
288,144,64223,5,4
232,176,64442,1,8
232,176,64661,2,0,B|136:176|104:64,1,160
111,87,65318,1,0
224,32,65756,2,0,B|464:0|384:216,1,320
256,192,67070,5,12
88,288,67727,5,0
152,272,67946,1,8
208,248,68165,1,0
272,248,68384,2,0,B|304:288|352:248,2,80,8|4|8
272,248,69041,1,0
272,184,69260,2,4,B|368:224|424:112,1,160
409,137,69917,1,0
448,88,70136,5,8
392,64,70355,1,0
448,88,70574,1,8
440,152,70792,2,8,B|431:195|351:179,1,80,12|8
392,120,71230,2,0,B|328:104|312:184,1,80,0|8
320,208,71668,1,0
368,248,71887,1,8
320,296,72106,1,0
256,296,72325,2,0,B|214:321|183:290,1,80,8|0
128,256,72763,2,0,B|99:214|131:183,1,80,8|0
184,144,73201,2,0,B|224:116|256:148,1,80,8|0
304,192,73639,6,0,B|331:232|300:264,1,80
232,264,74077,1,8
232,264,74296,2,8,B|175:163|75:143|83:82,1,240
144,80,75172,1,0
144,80,75391,2,8,B|260:102|340:38|404:102,1,240
424,136,76267,1,8
488,152,76486,1,0
496,88,76705,1,8
440,56,76924,1,0
440,56,77143,2,0,B|408:8|336:48,1,80,8|0
304,32,77581,5,12
248,56,77800,2,0,B|184:104,1,80,0|8
248,56,78238,2,0,B|312:106,2,80
248,56,78895,1,0
248,56,79114,6,0,B|184:106,1,80
144,152,79552,1,4
144,216,79771,2,0,B|176:272|240:216,1,80,8|0
216,176,80209,2,0,B|264:136|304:200,1,80,8|0
288,240,80647,1,8
344,208,80865,1,0
336,144,81084,5,8
280,112,81303,2,0,B|240:80|184:136,1,80,0|8
208,184,81741,2,0,B|248:160|288:200,1,80
208,184,82179,1,0
160,232,82398,1,8
200,288,82617,1,0
256,256,82836,1,8
256,192,83055,1,0
256,192,83274,2,8,B|336:144|160:112|272:48,2,160
251,61,84369,1,0
256,192,84588,5,8
256,192,85026,1,12
256,192,85245,1,12
256,192,86121,1,0
256,192,86340,12,4,87873
256,192,88092,1,12
