osu file format v9

[General]
AudioFilename: 01 - Miracle Guy ~TV size~.mp3
AudioLeadIn: 2000
PreviewTime: 55792
Countdown: 0
SampleSet: Normal
StackLeniency: 0.5
Mode: 0
LetterboxInBreaks: 1

[Editor]
Bookmarks: 87216
DistanceSpacing: 0.7
BeatDivisor: 2
GridSize: 8

[Metadata]
Title:Miracle Guy (TV size)
Artist:Fukuhara Kaori
Creator:Zorlok_
Version:Easy
Source:Lucky Star
Tags:Hiiragi Kagami Lucky Star

[Difficulty]
HPDrainRate:3
CircleSize:3
OverallDifficulty:2
ApproachRate:3
SliderMultiplier:1.3
SliderTickRate:2

[Events]
//Background and Video events
0,0,"Bg.jpg"
//Break Periods
//Storyboard Layer 0 (Background)
//Storyboard Layer 1 (Fail)
//Storyboard Layer 2 (Pass)
//Storyboard Layer 3 (Foreground)
//Storyboard Sound Samples
//Background Colour Transformations
3,100,165,252,217

[TimingPoints]
720,437.956204379562,4,1,0,50,1,0
21303,-100,4,1,0,71,0,0
26559,-90.0900900900901,4,1,0,71,0,0
28092,-100,4,1,0,71,0,0
56778,-100,4,1,0,71,0,1
63566,-100,4,1,0,71,0,0
70792,-100,4,1,0,71,0,1
77362,-100,4,1,0,71,0,0

[Colours]
Combo1 : 191,113,249
Combo2 : 150,254,173
Combo3 : 215,119,121
Combo4 : 132,252,122

[HitObjects]
64,72,720,1,0
248,72,1595,1,8
64,72,2471,1,0
248,72,3347,1,8
408,152,4223,6,0,B|288:256|152:192,2,260,0|8|0
408,336,6851,1,8
296,192,7727,5,0
160,72,8603,2,0,B|160:344,2,260,8|0|8
296,192,11230,5,0
112,192,12106,1,8
296,192,12982,1,0
112,192,13858,1,8
208,96,14515,6,0,B|208:240,4,130,0|8|0|8|0
256,272,17143,1,4
464,96,18457,6,0,B|464:224,3,130,0|0|0|4
152,296,21303,6,0,B|256:328|352:280,1,195
224,216,22617,1,8
408,216,23493,1,0
408,128,23931,2,0,B|304:72|208:136,1,195
176,128,24807,1,8
104,184,25245,5,0
104,368,26121,1,8
216,272,26778,2,0,B|264:328|376:304,3,144.30000008601,0|8|0|12
392,312,28311,5,0
392,224,28749,1,0
264,96,29625,1,8
416,192,30501,1,0
328,192,30938,2,0,B|120:192,2,195,8|0|0
184,304,33128,5,8
320,304,33785,2,0,B|472:304,3,130,0|8|0|12
448,168,35756,5,4
392,240,36194,1,8
328,304,36632,1,0
240,328,37070,1,8
192,328,37289,2,0,B|40:328|32:160,1,260
256,192,39260,6,0,B|256:56,3,130,0|8|0|8
256,192,40792,12,4,42325
256,192,42982,6,4,B|256:64,2,130
256,280,44296,2,0,B|352:352|464:256,2,195,0|8|0
152,120,46267,6,0,B|16:216|40:368,1,260,0|8
128,344,47581,1,0
256,192,47800,12,4,49333
416,264,49990,6,0,B|288:320|152:256,1,260,4|0
160,80,51741,2,0,B|287:24|411:82,1,260,4|0
424,216,53274,6,0,B|336:128|232:336|120:160,1,325
168,88,54807,2,0,B|312:88,2,130
256,192,56340,5,8
344,192,56778,2,0,B|248:432|152:224,3,260,0|8|0|8
120,192,59844,5,0
32,192,60282,2,0,B|128:-48|224:160,3,260,0|8|0|8
424,272,64223,6,0,B|302:336|174:264,3,260,8|0|8|0
176,80,67727,5,8
264,80,68165,2,0,B|440:64|424:256,2,260
88,192,70792,5,4
88,104,71230,2,0,B|256:-64|280:224|440:48,2,390,8|0|8
88,192,74296,5,4
96,280,74734,2,0,B|264:112|288:400|448:224,2,390,8|0|8
256,360,78238,6,0,B|256:216,2,130,8|0|8
120,360,79771,2,0,B|72:224|224:144,1,260
256,56,81741,6,0,B|386:56,2,130
272,192,83274,2,0,B|313:285|505:277,2,260,0|0|0
256,192,86121,12,12,88092
