osu file format v14

[General]
AudioFilename: Invasion of stray cats.mp3
AudioLeadIn: 0
PreviewTime: 55448
Countdown: 1
SampleSet: Normal
StackLeniency: 0.7
Mode: 0
LetterboxInBreaks: 1
WidescreenStoryboard: 0

[Editor]
Bookmarks: 40802
DistanceSpacing: 1
BeatDivisor: 4
GridSize: 4
TimelineZoom: 3

[Metadata]
Title:Invasion of stray cats
TitleUnicode:Invasion of stray cats
Artist:FujuniseikouyuuP
ArtistUnicode:FujuniseikouyuuP
Creator:val0108
Version:Stray0108
Source:
Tags:
BeatmapID:588523
BeatmapSetID:256947

[Difficulty]
HPDrainRate:6
CircleSize:4
OverallDifficulty:7.5
ApproachRate:9.5
SliderMultiplier:1.8
SliderTickRate:1

[Events]
//Background and Video events
0,0,"sample-6e27dbe2c3fe858b59a005a9c8dc2fe4.jpg",0,0
//Break Periods
2,27328,28403
2,38848,40043
2,71488,78443
2,88768,89963
2,121887,136523
2,196768,197483
//Storyboard Layer 0 (Background)
//Storyboard Layer 1 (Fail)
//Storyboard Layer 2 (Pass)
//Storyboard Layer 3 (Foreground)
//Storyboard Sound Samples

[TimingPoints]
248,240,4,1,0,80,1,0
28928,-100,4,1,0,60,0,0
55448,-200,4,1,0,80,0,0
55928,-100,4,1,0,80,0,1
71288,-100,4,1,0,80,0,0
78968,-100,4,1,0,60,0,0
82808,-100,4,1,0,80,0,0
95288,-66.6666666666667,4,1,0,80,0,0
95528,-100,4,1,0,80,0,0
105128,-100,4,2,0,60,0,0
105848,-100,4,1,0,80,0,1
121208,-200,4,1,0,80,0,0
136088,-100,4,1,0,80,0,0
152408,-100,4,1,0,80,0,1
196568,-100,4,1,0,80,0,0
215408,-200,4,1,0,30,0,0

[Colours]
Combo1 : 128,128,0
Combo2 : 64,128,128
Combo3 : 255,255,255

[HitObjects]
256,72,1208,5,0,0:0:0:0:
256,168,1328,1,0,0:0:0:0:
256,200,1388,1,0,0:0:0:0:
256,232,1448,2,0,P|208:248|160:224,1,90
176,112,1688,5,0,0:0:0:0:
336,112,1808,1,0,0:0:0:0:
256,336,1928,1,0,0:0:0:0:
256,336,2048,1,0,0:0:0:0:
255,231,2168,6,0,P|296:247|339:235,1,90
408,176,2408,1,0,0:0:0:0:
104,168,2528,2,0,P|87:209|100:251,1,90
176,112,2768,2,0,L|80:88,1,90
8,287,3008,2,0,B|96:287|96:351|176:344,1,180
256,232,3368,1,0,0:0:0:0:
104,168,3488,1,0,0:0:0:0:
104,168,3608,2,0,L|196:95,1,90
408,168,3848,2,0,L|316:95,1,90
376,336,4088,6,0,P|416:352|472:320,1,90,0|0,0:0|0:0,0:0:0:0:
496,192,4328,1,0,0:0:0:0:
256,232,4448,2,0,L|167:217,1,90
256,88,4688,2,0,L|344:102,1,90
256,320,4928,1,0,0:0:0:0:
89,254,5048,2,0,P|87:209|104:168,1,90
337,201,5288,2,0,P|300:225|256:232,1,90
188,32,5528,2,0,P|228:53|256:88,1,90
256,320,5768,5,0,0:0:0:0:
256,320,5888,1,0,0:0:0:0:
256,320,6008,2,0,P|283:354|323:375,1,90
424,312,6248,1,0,0:0:0:0:
428,201,6368,2,0,L|338:201,1,90
84,183,6608,2,0,L|174:183,1,90
66,378,6848,6,0,B|10:338|10:338|-6:282|18:218,1,180
104,136,7208,1,0,0:0:0:0:
160,256,7328,1,0,0:0:0:0:
256,104,7448,2,0,L|256:224,1,90
408,136,7688,1,0,0:0:0:0:
352,256,7808,1,0,0:0:0:0:
184,152,7928,6,0,P|172:102|191:54,1,90
256,272,8168,1,0,0:0:0:0:
328,152,8288,2,0,P|340:102|321:54,1,90,0|0,0:0|0:0,0:0:0:0:
256,272,8528,2,0,L|256:376,1,90
392,192,8768,2,0,L|496:192,1,90,0|0,0:0|0:0,0:0:0:0:
120,192,9008,2,0,L|16:192,2,90,0|0|0,0:0|0:0|0:0,0:0:0:0:
488,96,9368,1,0,0:0:0:0:
487,288,9488,2,0,P|440:296|320:240,1,180
112,93,9848,6,0,P|68:88|24:95,1,90
128,176,10088,1,0,0:0:0:0:
200,136,10208,2,0,P|208:88|200:48,1,90
56,228,10448,2,0,P|94:258|132:270,1,90
435,184,10688,2,0,L|256:192,1,180
160,200,11048,1,0,0:0:0:0:
320,112,11168,1,0,0:0:0:0:
300,320,11288,1,0,0:0:0:0:
300,320,11408,1,0,0:0:0:0:
300,320,11528,2,0,B|255:328|255:328|193:315,1,90
214,64,11768,6,0,B|257:54|257:54|321:69,1,90
256,192,12008,1,0,0:0:0:0:
212,319,12128,2,0,B|169:329|169:329|124:318,1,90
300,319,12368,2,0,B|343:329|343:329|387:318,1,90
472,296,12608,1,0,0:0:0:0:
488,208,12728,6,0,L|384:224,1,90
310,207,12968,2,0,L|399:221,1,90
256,104,13208,6,0,L|167:90,1,90
78,104,13450,2,0,L|167:91,1,90
32,176,13688,6,0,P|40:224|64:256,1,90
176,280,13928,1,0,0:0:0:0:
232,176,14048,2,0,P|190:159|146:163,1,90,0|0,0:0|0:0,0:0:0:0:
240,384,14288,2,0,P|275:356|293:315,1,90,0|0,0:0|0:0,0:0:0:0:
394,171,14528,2,0,P|314:206|232:176,1,180
464,112,14888,1,0,0:0:0:0:
512,192,15008,1,0,0:0:0:0:
464,272,15128,2,0,P|430:301|386:311,1,90
386,72,15369,2,0,P|430:82|464:112,1,90
248,96,15608,6,0,B|296:96|296:96|352:136,1,90
264,288,15848,2,0,B|216:288|216:288|181:263,1,90
352,216,16088,2,0,B|400:216|400:216|434:240,1,90
376,304,16328,1,0,0:0:0:0:
136,80,16448,1,0,0:0:0:0:
160,168,16568,2,0,B|112:168|112:168|77:143,1,90
77,143,16928,6,0,L|288:144,1,180
320,80,17288,1,0,0:0:0:0:
320,304,17408,1,0,0:0:0:0:
256,240,17528,6,0,L|77:241,1,180,0|0,0:0|0:0,0:0:0:0:
0,192,17888,1,0,0:0:0:0:
77,143,18008,2,0,L|181:143,1,90
24,0,18248,2,0,P|16:40|24:96,1,90
32,296,18488,2,0,P|88:240|200:240,1,180
479,295,18968,2,0,P|415:236|327:233,2,180,0|0|0,0:0|0:0|0:0,0:0:0:0:
256,128,19688,5,0,0:0:0:0:
256,240,19808,1,0,0:0:0:0:
168,184,19928,2,0,L|72:184,1,90
344,88,20168,2,0,L|440:88,1,90
343,184,20408,2,0,P|255:201|168:184,1,180,0|0,0:0|0:0,0:0:0:0:
344,88,20768,5,0,0:0:0:0:
344,184,20888,1,0,0:0:0:0:
256,32,21008,1,0,0:0:0:0:
256,240,21128,1,0,0:0:0:0:
168,88,21248,1,0,0:0:0:0:
168,184,21368,6,0,P|256:201|343:184,1,180,0|0,0:0|0:0,0:0:0:0:
96,136,21728,2,0,P|80:88|96:40,1,90
416,136,21968,2,0,P|432:88|416:40,1,90
344,88,22208,1,0,0:0:0:0:
344,184,22328,2,0,L|448:224,1,90
256,120,22568,1,0,0:0:0:0:
256,336,22688,2,0,P|212:344|168:333,2,90,0|0|0,0:0|0:0|0:0,0:0:0:0:
343,333,23048,2,0,P|299:344|256:336,1,90,0|0,0:0|0:0,0:0:0:0:
32,104,23288,6,0,L|56:208,1,90
72,280,23528,1,0,0:0:0:0:
209,259,23648,2,0,P|178:227|136:216,1,90
256,336,23888,2,0,L|368:320,2,90,0|0|0,0:0|0:0|0:0,0:0:0:0:
166,60,24248,2,0,L|256:48,1,90,0|0,0:0|0:0,0:0:0:0:
376,168,24488,1,0,0:0:0:0:
376,168,24608,2,0,B|392:216|392:216|376:232|378:251,1,90
136,216,24848,2,0,B|120:168|120:168|132:146|133:131,1,90
256,192,25088,1,0,0:0:0:0:
256,192,25208,12,0,27128,0:0:0:0:
416,192,28928,5,0,0:0:0:0:
311,266,29048,2,0,B|344:232|344:232|320:192|344:152|344:152|304:112,1,180
96,192,29408,1,0,0:0:0:0:
201,266,29528,2,0,B|168:232|168:232|192:192|168:152|168:152|208:112,1,180
256,192,29888,1,0,0:0:0:0:
301,369,30008,2,0,L|197:369,1,90
256,192,30248,2,0,L|256:72,1,90
184,296,30488,5,0,0:0:0:0:
328,296,30608,1,0,0:0:0:0:
256,101,30728,1,0,0:0:0:0:
175,248,30848,2,0,P|256:280|361:222,1,180,0|0,0:0|0:0,0:0:0:0:
256,16,31208,1,0,0:0:0:0:
256,16,31328,1,0,0:0:0:0:
176,152,31448,6,0,B|189:146|189:146|200:155|200:155|215:149|215:149|229:157|229:157|246:149|246:149|268:158|268:158|285:149|285:149|304:156|304:156|322:148|322:148|339:153,1,180,0|0,0:0|0:0,0:0:0:0:
429,153,31808,1,0,0:0:0:0:
496,216,31928,2,0,P|486:259|455:290,1,90
16,215,32168,2,0,P|25:259|56:290,1,90
256,104,32408,1,0,0:0:0:0:
213,186,32528,2,0,B|256:203|256:203|324:177,1,90
256,16,32768,1,0,0:0:0:0:
256,104,32888,5,0,0:0:0:0:
256,288,33008,2,0,L|256:378,1,90,0|0,0:0|0:0,0:0:0:0:
356,284,33248,1,0,0:0:0:0:
456,282,33368,2,0,L|456:192,2,90,0|0|0,0:0|0:0|0:0,0:0:0:0:
408,8,33728,6,0,P|430:92|379:162,1,180
213,186,34088,2,0,L|336:208,1,90
384,240,34328,1,0,0:0:0:0:
316,296,34448,1,0,0:0:0:0:
229,262,34568,2,0,L|106:284,1,90
64,328,34808,5,0,0:0:0:0:
135,150,34928,2,0,P|179:156|213:186,1,90
64,328,35168,2,0,L|64:230,1,90
64,56,35408,2,0,L|64:154,1,90
208,296,35648,1,0,0:0:0:0:
304,88,35768,6,0,P|295:44|313:4,1,90
312,280,36008,2,0,P|353:294|380:329,1,90
144,192,36248,2,0,P|102:224|32:207,1,90
256,192,36488,1,0,0:0:0:0:
256,192,36608,1,0,0:0:0:0:
256,192,36728,12,0,38648,0:0:0:0:
176,336,40568,6,0,P|221:331|256:304,1,90
335,336,40808,2,0,P|290:331|256:304,1,90
256,124,41048,2,0,L|256:304,1,180
432,55,41528,6,0,P|390:63|342:55,1,90
164,56,41768,2,0,P|119:63|75:55,1,90,0|0,0:0|0:0,0:0:0:0:
344,56,42008,2,0,L|158:56,1,180
78,328,42488,6,0,L|168:328,1,90
344,328,42728,2,0,L|434:328,1,90,0|0,0:0|0:0,0:0:0:0:
167,328,42968,2,0,P|255:342|344:328,1,180
72,238,43448,6,0,B|60:193|60:193|72:150,1,90
440,238,43688,2,0,B|452:193|452:193|440:150,1,90
168,192,43928,2,0,L|348:192,1,180
192,64,44408,6,0,P|144:64|96:40,1,90
320,64,44648,2,0,P|368:64|416:40,1,90
168,192,44888,1,0,0:0:0:0:
344,192,45008,1,0,0:0:0:0:
300,304,45128,2,0,B|255:311|255:311|198:301,1,90
48,171,45368,6,0,B|48:248|128:248|119:329,1,180
256,46,45728,2,0,L|256:136,1,90,0|0,0:0|0:0,0:0:0:0:
463,171,45968,2,0,B|464:248|384:248|392:329,1,180
138,172,46328,2,0,L|48:172,1,90
256,46,46568,1,0,0:0:0:0:
256,232,46688,1,0,0:0:0:0:
256,136,46808,1,0,0:0:0:0:
304,272,46928,2,0,L|184:272,2,90,0|0|0,0:0|0:0|0:0,0:0:0:0:
464,172,47288,6,0,L|312:172,1,135
256,136,47528,2,0,L|256:32,1,90
360,88,47768,1,0,0:0:0:0:
256,232,47888,1,0,0:0:0:0:
152,88,48008,1,0,0:0:0:0:
152,88,48128,1,0,0:0:0:0:
104,8,48248,6,0,P|64:88|120:176,1,180
256,46,48608,1,0,0:0:0:0:
408,8,48728,2,0,P|448:88|392:176,1,180
256,88,49088,1,0,0:0:0:0:
256,267,49208,6,0,L|256:87,2,180,0|0|0,0:0|0:0|0:0,0:0:0:0:
408,374,50168,6,0,P|448:294|392:206,1,180
256,336,50528,1,0,0:0:0:0:
104,374,50648,2,0,P|64:294|120:206,1,180
256,294,51008,1,0,0:0:0:0:
256,114,51128,6,0,L|256:294,2,180,0|0|0,0:0|0:0|0:0,0:0:0:0:
360,264,52088,6,0,P|384:320|368:368,1,90
266,65,52328,2,0,P|302:17|352:7,1,90
141,246,52568,2,0,P|81:238|47:200,1,90
351,85,52808,6,0,L|396:162,1,90
115,162,53048,2,0,L|160:85,1,90
301,328,53288,2,0,L|211:328,1,90
308,57,53528,2,0,P|350:40|392:52,1,90
211,327,53768,2,0,P|169:344|127:332,1,90
59,221,54008,6,0,B|59:253|59:253|51:277|51:277|51:325,1,90
152,160,54248,5,0,0:0:0:0:
152,250,54368,1,0,0:0:0:0:
256,112,54488,5,0,0:0:0:0:
256,202,54608,1,0,0:0:0:0:
360,160,54728,5,0,0:0:0:0:
360,250,54848,1,0,0:0:0:0:
453,221,54968,5,0,0:0:0:0:
461,309,55448,6,0,B|461:277|461:277|453:253|453:253|453:221,1,90
173,73,55928,6,0,P|256:40|336:75,1,180,0|0,0:0|0:0,0:0:0:0:
256,264,56288,1,0,0:0:0:0:
200,336,56408,2,0,P|152:352|112:336,1,90
312,336,56648,2,0,P|360:352|400:336,1,90
256,174,56888,2,0,L|256:264,1,90
24,128,57128,2,0,B|40:120|40:120|56:128|56:128|69:123|69:123|80:128|80:128|93:119|93:119|104:128|104:128|120:125|120:125|135:134|135:134|155:123|155:123|175:134|175:134|194:128,1,180
336,192,57488,1,0,0:0:0:0:
184,254,57608,1,0,0:0:0:0:
184,130,57728,1,0,0:0:0:0:
224,328,57848,6,0,P|182:339|128:320,1,90
288,56,58088,2,0,P|330:45|384:64,1,90
488,256,58328,2,0,B|472:264|472:264|456:256|456:256|443:261|443:261|432:256|432:256|419:265|419:265|408:256|408:256|392:259|392:259|377:250|377:250|357:261|357:261|337:250|337:250|328:252,2,180,0|0|0,0:0|0:0|0:0,0:0:0:0:
488,128,58928,1,0,0:0:0:0:
256,192,59048,2,0,L|152:192,1,90
75,192,59288,1,0,0:0:0:0:
75,192,59528,5,0,0:0:0:0:
256,192,59648,1,0,0:0:0:0:
16,232,59768,6,0,P|2:193|17:148,1,90
496,232,60008,2,0,P|510:193|495:148,1,90
256,104,60248,1,0,0:0:0:0:
256,280,60488,5,0,0:0:0:0:
176,232,60608,1,0,0:0:0:0:
336,232,60728,1,0,0:0:0:0:
176,152,60848,1,0,0:0:0:0:
336,152,60968,1,0,0:0:0:0:
336,152,61208,5,0,0:0:0:0:
176,232,61328,1,0,0:0:0:0:
408,192,61448,1,0,0:0:0:0:
104,192,61568,1,0,0:0:0:0:
256,192,61688,6,0,B|256:80|256:80|288:48|328:88,1,180,0|0,0:0|0:0,0:0:0:0:
336,232,62048,1,0,0:0:0:0:
176,96,62168,2,0,L|176:0,2,90,0|0|0,0:0|0:0|0:0,0:0:0:0:
256,312,62528,1,0,0:0:0:0:
256,312,62768,5,0,0:0:0:0:
336,96,62888,2,0,L|336:0,1,90,0|0,0:0|0:0,0:0:0:0:
16,136,63128,2,0,P|56:144|120:128,1,90
495,136,63368,2,0,P|451:144|408:135,1,90
256,222,63608,6,0,L|256:312,1,90,0|0,0:0|0:0,0:0:0:0:
256,128,63848,2,0,L|256:38,1,90,0|0,0:0|0:0,0:0:0:0:
336,360,64088,1,0,0:0:0:0:
176,360,64208,2,0,B|131:367|131:367|80:358,2,90,0|0|0,0:0|0:0|0:0,0:0:0:0:
174,112,64568,2,0,B|127:196,1,90,0|0,0:0|0:0,0:0:0:0:
338,272,64808,2,0,P|257:238|176:272,1,180,0|0,0:0|0:0,0:0:0:0:
256,360,65168,1,0,0:0:0:0:
381,190,65288,2,0,B|338:112,1,90,0|0,0:0|0:0,0:0:0:0:
175,112,65528,6,0,P|256:145|337:112,1,180,0|0,0:0|0:0,0:0:0:0:
256,40,65888,1,0,0:0:0:0:
45,192,66008,2,0,P|87:203|130:191,1,90
467,192,66248,2,0,P|424:203|381:191,1,90
256,40,66488,5,0,0:0:0:0:
256,40,66728,2,0,B|256:88|256:88|224:144,1,90
128,192,66968,1,0,0:0:0:0:
128,192,67208,1,0,0:0:0:0:
384,192,67328,1,0,0:0:0:0:
256,352,67448,6,0,B|256:304|256:304|288:248,1,90
397,113,67688,2,0,B|355:136|355:136|290:137,1,90
117,108,67928,2,0,B|158:132|158:132|179:168,1,90
118,276,68168,1,0,0:0:0:0:
117,108,68288,1,0,0:0:0:0:
212,320,68408,2,0,L|302:320,1,90
302,68,68648,2,0,L|212:68,1,90
118,276,68888,2,0,P|106:316|122:372,1,90
394,276,69128,2,0,P|406:316|390:372,1,90
180,152,69368,6,0,B|256:144|256:244|348:232,1,180,0|0,0:0|0:0,0:0:0:0:
332,151,69728,2,0,B|256:140|256:240|180:232,1,180,0|0,0:0|0:0,0:0:0:0:
100,192,70088,1,0,0:0:0:0:
412,192,70208,1,0,0:0:0:0:
256,92,70328,6,0,L|256:-20,2,90,0|0|0,0:0|0:0|0:0,0:0:0:0:
152,332,70688,1,0,0:0:0:0:
360,332,70808,1,0,0:0:0:0:
168,160,70928,2,0,B|256:180|256:180|348:160,1,180
256,284,71288,1,0,0:0:0:0:
256,320,78968,6,0,L|160:320,1,90
166,64,79208,2,0,L|256:64,1,90
123,236,79448,2,0,P|115:191|123:147,1,90
256,192,79688,1,0,0:0:0:0:
256,192,79808,1,0,0:0:0:0:
388,236,79928,2,0,P|396:191|388:147,1,90
256,320,80168,2,0,L|352:320,1,90
175,149,80408,6,0,P|164:192|184:248,1,90
256,44,80648,2,0,L|168:64,1,90
256,340,80888,2,0,L|344:320,1,90
80,304,81128,2,0,L|192:324,2,90,0|0|0,0:0|0:0|0:0,0:0:0:0:
0,192,81488,1,0,0:0:0:0:
79,79,81608,2,0,L|168:64,1,90,0|0,0:0|0:0,0:0:0:0:
346,192,81848,2,0,L|256:192,1,90
166,192,82088,2,0,L|256:192,1,90
336,112,82328,5,0,0:0:0:0:
336,272,82448,1,0,0:0:0:0:
176,272,82568,1,0,0:0:0:0:
176,112,82688,1,0,0:0:0:0:
256,340,82808,6,0,P|348:364|448:320,1,180,0|0,0:0|0:0,0:0:0:0:
256,240,83168,1,0,0:0:0:0:
178,364,83288,2,0,L|88:364,1,90
32,208,83528,2,0,P|20:251|28:296,1,90
331,172,83768,2,0,B|348:174|364:226|364:226|372:112,1,180,0|0,0:0|0:0,0:0:0:0:
181,172,84128,2,0,B|164:174|148:226|148:226|140:111,1,180,0|0,0:0|0:0,0:0:0:0:
256,240,84488,1,0,0:0:0:0:
256,76,84608,1,0,0:0:0:0:
212,320,84728,6,0,B|256:328|256:328|332:316,1,90
112,240,84968,2,0,L|104:140,1,90
300,360,85208,2,0,B|256:368|256:368|212:360,1,90,0|0,0:0|0:0,0:0:0:0:
400,240,85448,2,0,L|408:140,1,90
188,112,85688,6,0,B|236:76|304:96|304:96|288:24,1,180,0|0,0:0|0:0,0:0:0:0:
220,290,86048,2,0,B|165:267|148:198|148:198|94:248,1,180,0|0,0:0|0:0,0:0:0:0:
359,173,86408,2,0,B|366:232|315:281|315:281|385:303,1,180,0|0,0:0|0:0,0:0:0:0:
256,192,86768,12,0,88568,0:0:0:0:
335,47,90488,6,0,P|291:52|256:79,1,90
176,48,90727,2,0,P|221:52|256:80,1,90
256,260,90967,2,0,L|256:80,1,180
80,328,91446,6,0,P|124:320|168:328,1,90
348,327,91687,2,0,P|392:320|436:328,1,90,0|0,0:0|0:0,0:0:0:0:
168,328,91927,2,0,L|348:328,1,180
434,56,92407,6,0,L|344:56,1,90
168,56,92647,2,0,L|78:56,1,90,0|0,0:0|0:0,0:0:0:0:
345,56,92886,2,0,P|256:41|167:56,1,180
440,146,93366,6,0,B|452:191|452:191|440:232,1,90
72,146,93607,2,0,B|60:191|60:191|71:232,1,90
344,192,93847,2,0,L|164:192,1,180
384,356,94328,6,0,P|396:312|388:256,1,90
164,192,94568,1,0,0:0:0:0:
344,192,94688,1,0,0:0:0:0:
119,268,94808,2,0,P|116:312|128:356,1,90
256,280,95048,1,0,0:0:0:0:
256,104,95168,1,0,0:0:0:0:
164,192,95288,6,0,B|206:184|206:184|248:224|256:264|256:264|264:224|309:184|309:184|352:194,1,270.000010299683
132,92,95648,2,0,P|92:112|40:88,1,90
380,92,95888,2,0,P|420:112|472:88,1,90
309,33,96128,6,0,P|294:119|344:192,1,180,0|0,0:0|0:0,0:0:0:0:
360,304,96488,1,0,0:0:0:0:
256,356,96608,1,0,0:0:0:0:
152,304,96728,1,0,0:0:0:0:
256,266,96848,2,0,L|256:356,1,90
163,192,97088,2,0,P|212:119|198:33,1,180,0|0,0:0|0:0,0:0:0:0:
50,99,97448,2,0,P|92:111|132:92,1,90
461,99,97688,2,0,P|419:111|379:91,1,90
256,116,97928,1,0,0:0:0:0:
256,116,98048,1,0,0:0:0:0:
168,304,98168,6,0,P|107:357|23:309,1,180
136,192,98528,1,0,0:0:0:0:
167,79,98648,2,0,P|102:25|27:65,1,180
168,192,99008,1,0,0:0:0:0:
348,192,99128,6,0,L|156:192,2,180,0|0|0,0:0|0:0|0:0,0:0:0:0:
344,304,100088,6,0,P|409:358|484:318,1,180
376,192,100448,1,0,0:0:0:0:
344,79,100568,2,0,P|409:25|484:65,1,180
344,192,100928,1,0,0:0:0:0:
164,192,101048,6,0,L|356:192,2,180,0|0|0,0:0|0:0|0:0,0:0:0:0:
331,326,102008,6,0,P|296:296|280:252,1,90
181,58,102248,2,0,P|216:88|232:132,1,90
181,325,102488,2,0,L|91:325,1,90
330,58,102729,2,0,L|420:58,1,90
156,180,102968,2,0,B|129:193|129:193|69:193,1,90
356,204,103208,2,0,B|382:190|382:190|442:190,1,90
299,343,103448,2,0,B|256:356|256:356|200:340,1,90
51,132,103688,6,0,B|51:165|51:165|59:189|59:189|59:221,1,90
461,132,103928,2,0,B|461:165|461:165|453:189|453:189|453:221,1,90
360,192,104168,5,0,0:0:0:0:
360,282,104288,1,0,0:0:0:0:
256,240,104408,5,0,0:0:0:0:
256,330,104528,1,0,0:0:0:0:
152,192,104648,5,0,0:0:0:0:
152,282,104768,1,0,0:0:0:0:
52,132,104888,5,0,0:0:0:0:
52,132,105128,6,0,B|52:164|52:164|60:188|60:188|60:220,1,90
60,247,105308,1,0,0:0:0:0:
60,274,105368,2,0,B|60:320|60:320|96:368,1,90
425,355,105608,2,0,B|452:320|452:320|452:274,1,90
342,55,105848,6,0,P|256:32|170:56,1,180,0|0,0:0|0:0,0:0:0:0:
256,256,106208,1,0,0:0:0:0:
359,307,106328,2,0,P|402:319|444:305,1,90
151,309,106569,2,0,P|109:321|67:307,1,90
213,127,106808,2,0,B|256:116|256:116|300:128,1,90
256,372,107048,2,0,L|256:192,1,180
200,56,107408,1,0,0:0:0:0:
312,56,107528,1,0,0:0:0:0:
92,56,107648,1,0,0:0:0:0:
420,56,107768,6,0,B|420:108|420:108|436:160,1,90
360,308,108008,2,0,B|360:260|360:260|348:216,1,90
256,20,108248,2,0,B|264:56|264:56|252:72|252:72|276:116|256:192,1,180
152,308,108608,1,0,0:0:0:0:
80,144,108728,2,0,B|92:108|92:108|92:56,1,90
163,219,108969,2,0,B|152:260|152:260|152:308,1,90
360,308,109208,1,0,0:0:0:0:
360,308,109448,5,0,0:0:0:0:
360,76,109568,1,0,0:0:0:0:
480,148,109688,6,0,P|492:192|470:252,1,90
32,148,109928,2,0,P|20:192|42:252,1,90
256,336,110168,1,0,0:0:0:0:
256,48,110408,5,0,0:0:0:0:
296,232,110528,1,0,0:0:0:0:
216,152,110648,1,0,0:0:0:0:
256,336,110768,1,0,0:0:0:0:
256,336,110888,2,0,P|304:352|352:324,1,90
131,120,111128,2,0,P|96:147|87:190,1,90
380,119,111368,2,0,P|374:76|341:47,1,90
132,264,111608,6,0,B|176:250|196:220|196:220|300:232,1,180
380,120,111968,2,0,B|336:134|316:164|316:164|212:152,2,180,0|0|0,0:0|0:0|0:0,0:0:0:0:
391,208,112568,1,0,0:0:0:0:
121,176,112688,1,0,0:0:0:0:
472,180,112808,2,0,P|475:224|456:264,1,90,0|0,0:0|0:0,0:0:0:0:
212,24,113048,6,0,B|256:16|256:16|300:24,1,90
40,204,113288,2,0,P|37:159|56:119,1,90,0|0,0:0|0:0,0:0:0:0:
300,360,113528,6,0,B|256:368|256:368|212:360,1,90
87,229,113768,2,0,L|176:248,1,90
336,248,114008,1,0,0:0:0:0:
176,136,114128,1,0,0:0:0:0:
336,136,114248,2,0,L|424:154,1,90
256,244,114488,1,0,0:0:0:0:
256,112,114608,1,0,0:0:0:0:
341,304,114728,2,0,P|256:328|170:304,1,180,0|0,0:0|0:0,0:0:0:0:
16,196,115088,1,0,0:0:0:0:
83,302,115208,2,0,P|127:310|171:303,1,90
483,115,115448,6,0,P|439:107|395:114,1,90
341,303,115688,2,0,P|327:238|343:173,1,135
343,174,115929,2,0,L|254:173,1,90
166,334,116168,2,0,L|258:335,1,90
168,174,116408,1,0,0:0:0:0:
104,112,116528,1,0,0:0:0:0:
166,49,116649,2,0,L|256:49,1,90
492,228,116888,2,0,P|502:271|490:314,1,90
20,156,117128,2,0,P|9:112|21:69,1,90
344,174,117368,5,0,0:0:0:0:
408,112,117488,1,0,0:0:0:0:
345,49,117608,2,0,L|255:49,1,90
166,49,117848,2,0,L|256:49,1,90
408,112,118088,1,0,0:0:0:0:
168,174,118208,1,0,0:0:0:0:
344,173,118328,1,0,0:0:0:0:
104,112,118448,1,0,0:0:0:0:
256,144,118568,2,0,L|256:248,1,90
179,353,118808,2,0,P|150:317|94:297,1,90
333,353,119048,2,0,P|361:317|417:297,1,90
168,174,119288,6,0,L|180:368,1,180
344,174,119648,2,0,L|332:368,1,180
256,144,120008,1,0,0:0:0:0:
256,240,120128,1,0,0:0:0:0:
184,84,120248,6,0,L|92:84,1,90
328,300,120488,2,0,L|420:300,1,90
256,192,120728,1,0,0:0:0:0:
100,193,120848,2,0,B|184:193|184:281|280:273,1,180,0|0,0:0|0:0,0:0:0:0:
412,191,121208,6,0,B|328:191|328:103|232:111,1,180,0|0,0:0|0:0,0:0:0:0:
335,47,137048,6,0,P|291:52|256:79,1,90
176,48,137287,2,0,P|221:52|256:80,1,90
256,260,137527,2,0,L|256:80,1,180
80,328,138006,6,0,P|124:320|168:328,1,90
348,327,138247,2,0,P|392:320|436:328,1,90,0|0,0:0|0:0,0:0:0:0:
168,328,138487,2,0,L|348:328,1,180
434,56,138967,6,0,L|344:56,1,90
168,56,139207,2,0,L|78:56,1,90,0|0,0:0|0:0,0:0:0:0:
345,56,139446,2,0,P|256:41|167:56,1,180
440,146,139926,6,0,B|452:191|452:191|440:232,1,90
72,146,140167,2,0,B|60:191|60:191|71:232,1,90
344,192,140407,2,0,L|164:192,1,180
320,320,140888,6,0,P|368:320|416:344,1,90
192,320,141128,2,0,P|144:320|96:344,1,90
344,192,141368,1,0,0:0:0:0:
168,192,141488,1,0,0:0:0:0:
212,80,141608,2,0,B|257:73|257:73|314:83,1,90
464,213,141848,6,0,B|464:136|384:136|393:55,1,180
256,338,142208,2,0,L|256:248,1,90,0|0,0:0|0:0,0:0:0:0:
49,213,142448,2,0,B|48:136|128:136|120:55,1,180
374,212,142808,2,0,L|464:212,1,90
256,338,143048,1,0,0:0:0:0:
256,152,143168,1,0,0:0:0:0:
256,248,143288,1,0,0:0:0:0:
212,112,143408,2,0,L|332:112,1,90,0|0,0:0|0:0,0:0:0:0:
215,264,143648,6,0,B|140:272|124:200|48:212,1,180
320,224,144008,2,0,P|328:264|312:316,1,90
296,119,144248,2,0,B|372:112|388:184|464:172,1,180
192,160,144608,1,0,0:0:0:0:
104,8,144728,6,0,P|64:88|120:176,1,180
256,46,145088,1,0,0:0:0:0:
408,8,145208,2,0,P|448:88|392:176,1,180
256,88,145568,1,0,0:0:0:0:
256,267,145688,6,0,L|256:87,2,180,0|0|0,0:0|0:0|0:0,0:0:0:0:
408,374,146648,6,0,P|448:294|392:206,1,180
256,336,147008,1,0,0:0:0:0:
104,374,147128,2,0,P|64:294|120:206,1,180
256,294,147488,1,0,0:0:0:0:
256,114,147608,6,0,L|256:294,2,180,0|0|0,0:0|0:0|0:0,0:0:0:0:
152,264,148568,6,0,P|128:320|144:368,1,90
246,65,148808,2,0,P|210:17|160:7,1,90
371,246,149048,2,0,P|431:238|465:200,1,90
161,85,149288,6,0,L|116:162,1,90
397,162,149528,2,0,L|352:85,1,90
211,328,149768,2,0,L|301:328,1,90
204,57,150008,2,0,P|162:40|120:52,1,90
301,327,150248,2,0,P|343:344|385:332,1,90
453,221,150488,6,0,B|453:253|453:253|461:277|461:277|461:325,1,90
360,160,150728,5,0,0:0:0:0:
360,250,150848,1,0,0:0:0:0:
256,112,150968,5,0,0:0:0:0:
256,202,151088,1,0,0:0:0:0:
152,160,151208,5,0,0:0:0:0:
152,250,151328,1,0,0:0:0:0:
59,221,151448,6,0,L|59:324,1,90
132,368,151688,1,0,0:0:0:0:
212,324,151808,1,0,0:0:0:0:
300,324,151928,1,0,0:0:0:0:
380,368,152048,1,0,0:0:0:0:
453,311,152168,2,0,L|453:221,1,90
256,92,152408,6,0,L|256:272,1,180
168,112,152768,1,0,0:0:0:0:
84,152,152888,2,0,P|68:200|88:256,1,90
427,151,153128,2,0,P|443:193|435:237,1,90
344,272,153368,1,0,0:0:0:0:
344,112,153488,1,0,0:0:0:0:
512,192,153608,2,0,L|332:192,1,180
180,192,153968,1,0,0:0:0:0:
256,252,154088,1,0,0:0:0:0:
256,132,154208,1,0,0:0:0:0:
92,192,154328,6,0,L|-4:192,1,90
166,328,154568,2,0,L|256:328,1,90
423,8,154808,2,0,B|352:0|344:80|256:56,1,180
176,100,155168,1,0,0:0:0:0:
399,188,155288,2,0,P|415:146|410:102,1,90
296,280,155528,2,0,P|324:314|365:332,1,90
256,144,155768,2,0,P|212:151|176:177,1,90
208,260,156008,1,0,0:0:0:0:
336,136,156128,1,0,0:0:0:0:
96,228,156248,6,0,P|84:172|100:124,1,90
152,72,156488,1,0,0:0:0:0:
0,128,156608,1,0,0:0:0:0:
12,264,156728,2,0,P|48:300|96:316,1,90
500,120,156968,2,0,P|464:84|416:68,1,90
196,100,157208,1,0,0:0:0:0:
316,100,157328,1,0,0:0:0:0:
83,69,157448,2,0,P|42:87|12:120,1,90
128,192,157688,6,0,L|268:192,1,135
320,236,157928,2,0,L|185:236,1,135
136,280,158168,6,0,L|336:284,1,180
49,147,158528,2,0,B|40:184|40:184|48:236,2,90,0|0|0,0:0|0:0|0:0,0:0:0:0:
124,100,158888,1,0,0:0:0:0:
128,192,159008,1,0,0:0:0:0:
204,136,159128,2,0,L|316:148,1,90
135,279,159368,2,0,L|124:100,1,180
312,340,159728,1,0,0:0:0:0:
388,284,159848,2,0,L|376:104,1,180
200,44,160208,5,0,0:0:0:0:
176,224,160328,2,0,P|220:228|272:208,1,90
124,100,160568,1,0,0:0:0:0:
280,84,160688,1,0,0:0:0:0:
96,180,160808,2,0,P|84:224|100:284,1,90
160,312,161048,1,0,0:0:0:0:
32,120,161168,1,0,0:0:0:0:
188,152,161288,2,0,L|404:168,1,180
460,320,161648,1,0,0:0:0:0:
372,340,161768,2,0,P|372:292|396:256,1,90
372,340,162008,6,0,P|308:360|268:348,1,90
404,76,162248,2,0,P|424:140|412:180,1,90
259,207,162488,2,0,P|181:163|92:161,1,180,0|0,0:0|0:0,0:0:0:0:
360,248,162848,1,0,0:0:0:0:
256,295,162968,2,0,P|247:251|259:208,1,90
404,76,163208,1,0,0:0:0:0:
336,164,163328,1,0,0:0:0:0:
452,8,163448,2,0,P|480:40|488:104,1,90
59,8,163688,2,0,P|31:41|21:85,1,90
308,88,163928,5,0,0:0:0:0:
176,164,164048,1,0,0:0:0:0:
336,164,164168,1,0,0:0:0:0:
108,76,164288,1,0,0:0:0:0:
64,156,164408,2,0,L|64:265,1,90
204,88,164648,5,0,0:0:0:0:
336,164,164768,1,0,0:0:0:0:
176,164,164888,1,0,0:0:0:0:
404,76,165008,1,0,0:0:0:0:
448,156,165128,2,0,L|448:265,1,90
256,360,165368,2,0,L|256:244,1,90
256,22,165608,2,0,L|256:112,1,90
64,128,165848,6,0,B|172:128|172:128|176:168|228:208,1,180
256,264,166208,1,0,0:0:0:0:
256,112,166328,1,0,0:0:0:0:
256,264,166448,1,0,0:0:0:0:
300,340,166568,2,0,P|256:352|192:324,1,90
305,189,166808,2,0,B|336:168|340:128|340:128|448:128,2,180,0|0|0,0:0|0:0|0:0,0:0:0:0:
120,208,167408,1,0,0:0:0:0:
352,260,167528,2,0,L|464:276,1,90
63,128,167768,6,0,P|27:206|64:296,1,180,0|0,0:0|0:0,0:0:0:0:
160,128,168128,1,0,0:0:0:0:
224,64,168248,2,0,P|264:44|328:44,1,90
203,343,168488,2,0,P|247:340|288:320,1,90
140,48,168728,1,0,0:0:0:0:
120,208,168848,1,0,0:0:0:0:
188,264,168968,2,0,L|400:316,2,180,0|0|0,0:0|0:0|0:0,0:0:0:0:
52,44,169568,1,0,0:0:0:0:
200,176,169688,6,0,P|200:220|187:264,1,90
236,64,169928,2,0,P|274:41|318:30,1,90
121,98,170168,2,0,P|83:76|52:44,1,90
121,98,170408,1,0,0:0:0:0:
292,140,170528,1,0,0:0:0:0:
100,184,170648,2,0,B|92:228|92:228|108:288,1,90
256,336,170888,1,0,0:0:0:0:
408,271,171008,2,0,B|420:228|420:228|412:184,2,90,0|0|0,0:0|0:0|0:0,0:0:0:0:
154,352,171368,2,0,L|64:352,1,90
358,32,171608,6,0,L|448:32,1,90
308,188,171848,2,0,P|296:136|312:88,1,90,0|0,0:0|0:0,0:0:0:0:
384,140,172088,1,0,0:0:0:0:
256,264,172208,1,0,0:0:0:0:
203,188,172328,2,0,P|216:145|207:101,1,90,0|0,0:0|0:0,0:0:0:0:
64,264,172568,2,0,P|106:275|150:265,1,90,0|0,0:0|0:0,0:0:0:0:
214,15,172808,6,0,P|137:54|127:139,1,180,0|0,0:0|0:0,0:0:0:0:
256,192,173168,1,0,0:0:0:0:
384,244,173288,2,0,P|374:329|297:368,2,180,0|0|0,0:0|0:0|0:0,0:0:0:0:
348,160,173888,1,0,0:0:0:0:
296,88,174008,2,0,P|312:48|368:16,2,90,0|0|0,0:0|0:0|0:0,0:0:0:0:
436,128,174368,1,0,0:0:0:0:
224,132,174488,2,0,L|108:120,1,90
384,244,174728,2,0,L|500:232,1,90
488,56,174968,2,0,P|436:44|376:60,1,90,0|0,0:0|0:0,0:0:0:0:
24,328,175208,2,0,P|76:340|136:324,1,90,0|0,0:0|0:0,0:0:0:0:
108,48,175448,6,0,B|108:96|84:132|84:132|120:232,1,180
176,132,175808,1,0,0:0:0:0:
108,48,175928,2,0,P|52:36|0:44,1,90
404,48,176168,2,0,P|460:36|512:44,1,90
336,132,176408,2,0,P|297:89|278:40,1,90
452,156,176648,2,0,B|384:248|384:248|356:232|304:244,1,180
256,176,177008,1,0,0:0:0:0:
192,240,177128,2,0,P|180:288|204:340,1,90
216,84,177368,6,0,L|120:72,1,90
36,124,177608,1,0,0:0:0:0:
36,260,177728,1,0,0:0:0:0:
128,312,177848,2,0,L|217:300,2,90,0|0|0,0:0|0:0|0:0,0:0:0:0:
48,44,178208,1,0,0:0:0:0:
224,8,178328,2,0,P|272:28|300:76,1,90,0|0,0:0|0:0,0:0:0:0:
128,312,178568,2,0,P|120:268|135:226,1,90,0|0,0:0|0:0,0:0:0:0:
432,240,178809,2,0,P|397:268|354:275,1,90,0|0,0:0|0:0,0:0:0:0:
208,104,179048,1,0,0:0:0:0:
356,194,179168,1,0,0:0:0:0:
203,277,179288,6,0,B|212:196|212:196|272:184|300:112,1,180,0|0,0:0|0:0,0:0:0:0:
136,160,179648,1,0,0:0:0:0:
100,240,179768,2,0,L|84:360,1,90
208,104,180008,2,0,L|219:14,1,90
372,280,180248,2,0,P|328:277|292:252,1,90
136,160,180488,2,0,L|344:124,1,180,0|0,0:0|0:0,0:0:0:0:
128,76,180848,1,0,0:0:0:0:
28,189,180968,2,0,P|58:222|100:240,1,90
54,23,181208,6,0,P|43:67|47:111,2,90,0|0|0,0:0|0:0|0:0,0:0:0:0:
457,23,181688,2,0,P|468:67|464:112,2,90,0|0|0,0:0|0:0|0:0,0:0:0:0:
256,80,182048,1,0,0:0:0:0:
169,154,182168,2,0,L|256:180,1,90
340,156,182408,1,0,0:0:0:0:
172,72,182528,2,0,B|116:48|116:48|52:48,2,90,0|0|0,0:0|0:0|0:0,0:0:0:0:
376,260,182888,2,0,B|424:223|424:223|456:168,1,90,0|0,0:0|0:0,0:0:0:0:
24,268,183128,6,0,B|12:332|12:332|32:364,1,90,0|0,0:0|0:0,0:0:0:0:
169,154,183368,2,0,P|121:130|53:122,1,90,0|0,0:0|0:0,0:0:0:0:
20,180,183608,1,0,0:0:0:0:
108,304,183728,1,0,0:0:0:0:
108,304,183848,2,0,L|220:288,1,90
456,264,184088,2,0,L|344:248,1,90
169,154,184328,2,0,B|229:170|269:62|333:62,1,180
344,155,184688,1,0,0:0:0:0:
196,64,184808,2,0,P|144:44|92:56,1,90
316,64,185048,6,0,P|368:44|440:144,2,180,0|0|0,0:0|0:0|0:0,0:0:0:0:
420,208,185648,2,0,P|472:212|520:168,2,90,0|0|0,0:0|0:0|0:0,0:0:0:0:
256,8,186008,1,0,0:0:0:0:
169,154,186128,2,0,L|217:262,1,90
373,288,186368,2,0,B|310:300|258:228|205:236,1,180
110,82,186728,2,0,P|151:63|196:64,1,90,0|0,0:0|0:0,0:0:0:0:
196,324,186968,5,0,0:0:0:0:
108,222,187088,1,0,0:0:0:0:
108,312,187208,1,0,0:0:0:0:
20,210,187328,1,0,0:0:0:0:
196,324,187448,2,0,P|216:363|255:383,1,90
316,324,187688,5,0,0:0:0:0:
404,222,187808,1,0,0:0:0:0:
404,312,187928,1,0,0:0:0:0:
492,210,188048,1,0,0:0:0:0:
316,324,188168,2,0,P|295:363|256:383,1,90,0|0,0:0|0:0,0:0:0:0:
256,272,188408,1,0,0:0:0:0:
256,176,188528,2,0,L|256:68,2,90,0|0|0,0:0|0:0|0:0,0:0:0:0:
348,192,188888,6,0,L|160:192,1,180,0|0,0:0|0:0,0:0:0:0:
88,144,189248,1,0,0:0:0:0:
172,105,189368,2,0,P|179:148|167:191,1,90
88,240,189608,1,0,0:0:0:0:
88,52,189728,1,0,0:0:0:0:
88,332,189848,2,0,B|152:312|184:388|260:368,2,180,0|0|0,0:0|0:0|0:0,0:0:0:0:
12,192,190448,1,0,0:0:0:0:
160,192,190568,2,0,L|268:192,1,90
426,52,190808,6,0,B|362:72|330:-3|256:16,1,180,0|0,0:0|0:0,0:0:0:0:
204,92,191168,1,0,0:0:0:0:
88,240,191288,2,0,P|120:272|168:280,1,90,0|0,0:0|0:0,0:0:0:0:
41,106,191528,2,0,L|12:192,1,90
8,280,191768,1,0,0:0:0:0:
116,60,191888,1,0,0:0:0:0:
259,173,192008,2,0,P|296:94|260:16,1,180,0|0,0:0|0:0,0:0:0:0:
204,92,192368,1,0,0:0:0:0:
170,187,192488,2,0,L|260:174,1,90,0|0,0:0|0:0,0:0:0:0:
334,240,192728,6,0,B|240:256|240:256|224:280|244:320,1,135,0|0,0:0|0:0,0:0:0:0:
234,293,192968,2,0,L|142:309,1,90
344,160,193208,2,0,L|436:144,1,90
150,102,193448,2,0,P|150:147|169:188,1,90,0|0,0:0|0:0,0:0:0:0:
408,220,193688,5,0,0:0:0:0:
320,88,193808,1,0,0:0:0:0:
334,240,193928,2,0,P|368:288|408:296,1,90,0|0,0:0|0:0,0:0:0:0:
484,12,194168,2,0,B|408:0|408:0|284:16,1,180,0|0,0:0|0:0,0:0:0:0:
256,192,194528,1,0,0:0:0:0:
206,370,194648,6,0,P|144:360|96:320,1,90,0|0,0:0|0:0,0:0:0:0:
256,104,194888,1,0,0:0:0:0:
256,280,195008,1,0,0:0:0:0:
212,32,195128,2,0,B|256:24|256:24|308:32,1,90
305,370,195368,6,0,P|368:360|416:320,1,90,0|0,0:0|0:0,0:0:0:0:
344,192,195608,1,0,0:0:0:0:
168,192,195728,1,0,0:0:0:0:
416,148,195848,2,0,B|424:192|424:192|416:244,1,90
96,148,196088,2,0,B|88:192|88:192|96:244,1,90
344,192,196328,6,0,L|292:192,1,45
168,192,196448,2,0,L|220:192,1,45
256,192,196568,1,0,0:0:0:0:
144,76,198008,6,0,P|132:36|104:8,2,60,0|0|0,0:0|0:0|0:0,0:0:0:0:
368,76,198248,2,0,P|380:36|408:8,2,60,0|0|0,0:0|0:0|0:0,0:0:0:0:
256,172,198488,5,0,0:0:0:0:
172,200,198608,2,0,P|124:172|76:160,1,90,0|0,0:0|0:0,0:0:0:0:
340,200,198848,2,0,P|388:172|436:160,1,90,0|0,0:0|0:0,0:0:0:0:
316,286,199088,2,0,L|340:200,1,90
412,252,199328,5,0,0:0:0:0:
352,364,199448,2,0,P|296:368|252:348,1,90,0|0,0:0|0:0,0:0:0:0:
424,336,199688,2,0,P|480:332|524:352,1,90,0|0,0:0|0:0,0:0:0:0:
256,212,199928,2,0,L|279:125,1,90
364,96,200168,1,0,0:0:0:0:
232,292,200288,1,0,0:0:0:0:
188,148,200408,6,0,L|211:61,2,90,0|0|0,0:0|0:0|0:0,0:0:0:0:
152,328,200768,2,0,P|180:364|236:376,1,90,0|0,0:0|0:0,0:0:0:0:
405,278,201008,2,0,L|316:288,1,90,0|0,0:0|0:0,0:0:0:0:
128,232,201248,1,0,0:0:0:0:
120,88,201368,6,0,L|143:1,1,90
188,148,201608,1,0,0:0:0:0:
56,168,201728,1,0,0:0:0:0:
128,232,201848,2,0,P|172:252|244:244,1,90
384,232,202088,2,0,P|340:252|268:244,1,90
256,96,202328,5,0,0:0:0:0:
340,60,202448,2,0,P|372:36|428:32,1,90
420,353,202688,2,0,P|376:349|340:324,1,90
452,172,202928,2,0,P|472:212|460:280,1,90,0|0,0:0|0:0,0:0:0:0:
204,168,203168,5,0,0:0:0:0:
204,168,203288,2,0,P|178:131|174:87,1,90
344,78,203528,2,0,L|256:96,1,90
52,244,203768,2,0,L|140:226,1,90
228,24,204008,1,0,0:0:0:0:
96,152,204128,1,0,0:0:0:0:
204,168,204248,6,0,L|296:184,2,90,0|0|0,0:0|0:0|0:0,0:0:0:0:
304,328,204608,2,0,P|332:300|328:224,1,90
60,228,204848,2,0,P|65:184|95:151,1,90
432,56,205088,2,0,L|344:78,1,90
256,100,205328,1,0,0:0:0:0:
320,160,205448,1,0,0:0:0:0:
204,168,205568,1,0,0:0:0:0:
328,240,205688,1,0,0:0:0:0:
156,236,205808,2,0,B|128:316|56:304|32:384,1,180
273,306,206168,5,0,0:0:0:0:
273,306,206288,2,0,P|309:280|328:240,1,90,0|0,0:0|0:0,0:0:0:0:
168,100,206528,2,0,L|64:84,1,90
320,160,206768,2,0,L|424:144,1,90
100,168,207008,1,0,0:0:0:0:
278,220,207128,2,0,P|289:263|271:304,1,90,0|0,0:0|0:0,0:0:0:0:
89,255,207368,2,0,P|46:243|19:207,1,90,0|0,0:0|0:0,0:0:0:0:
88,360,207608,2,0,L|177:349,1,90
380,292,207848,1,0,0:0:0:0:
188,256,207968,1,0,0:0:0:0:
380,292,208088,6,0,P|412:260|416:204,2,90,0|0|0,0:0|0:0|0:0,0:0:0:0:
192,168,208448,2,0,P|144:180|112:212,1,90,0|0,0:0|0:0,0:0:0:0:
56,36,208688,2,0,P|65:79|95:112,1,90,0|0,0:0|0:0,0:0:0:0:
256,244,208928,1,0,0:0:0:0:
274,131,209048,2,0,L|192:168,1,90
156,384,209288,2,0,L|238:347,1,90
336,196,209528,1,0,0:0:0:0:
256,244,209648,1,0,0:0:0:0:
176,284,209768,2,0,P|136:272|104:228,1,90
336,284,210008,5,0,0:0:0:0:
256,334,210128,2,0,L|256:244,1,90
388,88,210368,2,0,L|315:140,1,90
124,88,210608,2,0,L|196:140,1,90
256,64,210848,1,0,0:0:0:0:
68,27,210968,2,0,P|37:60|32:104,1,90,0|0,0:0|0:0,0:0:0:0:
107,234,211208,2,0,P|151:242|199:274,1,90,0|0,0:0|0:0,0:0:0:0:
322,264,211448,2,0,P|360:242|405:234,1,90,0|0,0:0|0:0,0:0:0:0:
479,104,211688,2,0,P|474:60|443:27,1,90,0|0,0:0|0:0,0:0:0:0:
256,116,211928,5,0,0:0:0:0:
256,116,212048,1,0,0:0:0:0:
256,116,212168,2,0,B|200:116|200:116|144:84,1,90,0|0,0:0|0:0,0:0:0:0:
256,268,212408,1,0,0:0:0:0:
256,268,212528,1,0,0:0:0:0:
256,268,212648,2,0,B|200:268|200:268|170:284,1,90,0|0,0:0|0:0,0:0:0:0:
344,192,212888,5,0,0:0:0:0:
164,192,213008,1,0,0:0:0:0:
164,192,213248,2,0,L|344:192,1,180
84,144,213608,1,0,0:0:0:0:
84,240,213728,1,0,0:0:0:0:
164,96,213848,5,0,0:0:0:0:
164,288,213968,2,0,P|208:300|268:280,1,90
347,95,214208,2,0,P|305:84|261:93,1,90
348,288,214448,1,0,0:0:0:0:
164,192,214688,6,0,L|344:192,1,180
428,144,215048,1,0,0:0:0:0:
428,240,215168,1,0,0:0:0:0:
348,94,215288,1,0,0:0:0:0:
348,288,215408,6,0,B|244:288|244:288|268:288|268:288|244:288|244:288|268:288|268:288|168:288,1,270
