osu file format v14

[General]
AudioFilename: Invasion of stray cats.mp3
AudioLeadIn: 0
PreviewTime: 55208
Countdown: 0
SampleSet: Soft
StackLeniency: 0.7
Mode: 2
LetterboxInBreaks: 1
WidescreenStoryboard: 1

[Editor]
Bookmarks: 29048,40802,71288,90488,105368,121208
DistanceSpacing: 1
BeatDivisor: 4
GridSize: 16
TimelineZoom: 2.300001

[Metadata]
Title:Invasion of stray cats
TitleUnicode:Invasion of stray cats
Artist:FujuniseikouyuuP
ArtistUnicode:FujuniseikouyuuP
Creator:224dj
Version:492STEP
Source:
Tags:CWC Korean team warmup map 충격과 공포다 그지깽깽이들아!
BeatmapID:698097
BeatmapSetID:311029

[Difficulty]
HPDrainRate:3.4
CircleSize:3.9
OverallDifficulty:9.3
ApproachRate:9.3
SliderMultiplier:1.8
SliderTickRate:1

[Events]
//Background and Video events
0,0,"Shaymin.png",0,0
//Break Periods
2,79868,82234
//Storyboard Layer 0 (Background)
//Storyboard Layer 1 (Fail)
//Storyboard Layer 2 (Pass)
//Storyboard Layer 3 (Foreground)
//Storyboard Sound Samples

[TimingPoints]
1188,240,4,2,0,65,1,0
21348,-83.3333333333333,4,2,0,65,0,0
29028,-100,4,2,0,65,0,0
32868,-83.3333333333333,4,2,0,65,0,0
42948,-66.6666666666667,4,2,0,65,0,0
43908,-50,4,2,0,65,0,0
44388,-83.3333333333333,4,2,0,65,0,0
55908,-74.0740740740741,4,2,0,65,0,1
71268,-86.9565217391304,4,2,0,65,0,0
90948,120,4,2,0,65,1,0
91428,240,4,2,0,65,1,0
91908,120,4,2,0,65,1,0
92388,240,4,2,0,65,1,0
105828,-74.0740740740741,4,2,0,65,0,1
120228,-86.9565217391304,4,2,0,65,0,0

[Colours]
Combo1 : 174,255,38
Combo2 : 128,255,128
Combo3 : 220,255,128
Combo4 : 0,234,18

[HitObjects]
256,192,1188,5,4,0:0:0:0:
112,144,1308,2,0,L|68:133,1,45
224,160,1428,2,0,L|213:149,1,15
320,112,1548,2,0,L|331:122,1,15
240,80,1668,2,0,L|229:69,1,15
352,32,1788,2,0,L|363:42,1,15
464,64,1908,2,0,L|507:53,1,45
256,128,2028,2,0,L|211:119,1,45
128,128,2148,6,0,L|16:160,1,90,6|0,0:0|0:0,0:0:0:0:
160,208,2328,1,0,0:0:0:0:
288,224,2388,2,0,L|304:336,1,90
432,320,2628,2,0,L|416:208,1,90
144,224,2868,2,0,L|32:192,1,90
368,288,3108,5,2,0:0:0:0:
464,256,3228,1,0,0:0:0:0:
352,224,3348,1,0,0:0:0:0:
480,192,3468,1,0,0:0:0:0:
368,160,3588,1,2,0:0:0:0:
464,128,3708,1,0,0:0:0:0:
208,112,3828,1,2,0:0:0:0:
160,96,3888,1,0,0:0:0:0:
192,80,3948,1,0,0:0:0:0:
384,128,4068,6,0,L|496:160,1,90,2|0,0:0|0:0,0:0:0:0:
352,208,4248,1,0,0:0:0:0:
224,224,4308,2,0,L|208:336,1,90
80,320,4548,2,0,L|96:208,1,90
368,224,4788,2,0,L|480:192,1,90
144,288,5028,5,2,0:0:0:0:
48,256,5148,1,0,0:0:0:0:
160,224,5268,1,2,0:0:0:0:
32,192,5388,1,0,0:0:0:0:
144,160,5508,1,2,0:0:0:0:
48,128,5628,1,0,0:0:0:0:
304,112,5748,1,2,0:0:0:0:
352,96,5808,1,0,0:0:0:0:
400,80,5868,1,2,0:0:0:0:
480,160,5988,6,0,L|432:256,1,90,6|0,0:0|0:0,0:0:0:0:
304,272,6228,2,0,L|192:288,1,90
32,224,6468,2,0,L|144:208,1,90,2|0,0:0|0:0,0:0:0:0:
304,96,6708,2,0,L|192:112,1,90
96,160,6948,6,0,L|32:272,1,90,2|0,0:0|0:0,0:0:0:0:
192,256,7128,1,0,0:0:0:0:
320,256,7188,2,0,L|384:144,1,90
48,160,7428,2,0,L|160:160,1,90,2|0,0:0|0:0,0:0:0:0:
272,160,7668,1,2,0:0:0:0:
320,160,7728,1,0,0:0:0:0:
368,160,7788,1,0,0:0:0:0:
112,224,7908,6,0,L|71:143,1,90,2|0,0:0|0:0,0:0:0:0:
208,112,8148,2,0,L|320:96,1,90
480,160,8388,2,0,L|368:176,1,90
80,288,8628,2,0,L|192:272,1,90
272,256,8868,6,0,L|320:256,3,45,2|0|0|0,0:0|0:0|0:0|0:0,0:0:0:0:
384,208,9108,2,0,L|432:208,2,45,2|0|0,0:0|0:0|0:0,0:0:0:0:
320,208,9288,1,0,0:0:0:0:
144,160,9348,2,0,L|80:160,1,45,2|0,0:0|0:0,0:0:0:0:
224,112,9468,2,0,L|288:112,1,45,2|0,0:0|0:0,0:0:0:0:
112,64,9588,1,2,0:0:0:0:
0,64,9708,1,2,0:0:0:0:
112,128,9828,6,0,L|224:160,1,90,4|0,0:0|0:0,0:0:0:0:
336,176,10068,2,0,L|224:208,1,90
144,240,10308,2,0,L|144:352,1,90
288,336,10548,2,0,L|192:336,1,90
288,272,10788,5,2,0:0:0:0:
416,240,10908,1,0,0:0:0:0:
480,160,11028,1,0,0:0:0:0:
352,112,11148,1,0,0:0:0:0:
192,224,11268,1,2,0:0:0:0:
320,192,11388,1,0,0:0:0:0:
368,112,11508,1,2,0:0:0:0:
240,64,11628,1,0,0:0:0:0:
400,128,11748,6,0,L|288:160,1,90,2|0,0:0|0:0,0:0:0:0:
32,176,11988,2,0,L|144:208,1,90
416,240,12228,2,0,L|416:352,1,90
96,336,12468,2,0,L|192:336,1,90
304,272,12708,5,2,0:0:0:0:
80,240,12828,1,0,0:0:0:0:
32,160,12948,1,0,0:0:0:0:
256,112,13068,1,0,0:0:0:0:
416,224,13188,1,2,0:0:0:0:
288,192,13308,1,0,0:0:0:0:
160,160,13428,1,2,0:0:0:0:
224,144,13488,1,0,0:0:0:0:
288,128,13548,1,2,0:0:0:0:
400,128,13668,6,0,L|432:240,1,90,4|0,0:0|0:0,0:0:0:0:
112,128,13908,2,0,L|87:214,1,90
208,240,14148,2,0,L|320:256,1,90
48,320,14388,2,0,L|160:336,1,90
432,336,14628,5,2,0:0:0:0:
464,224,14748,1,0,0:0:0:0:
320,256,14868,1,2,0:0:0:0:
304,144,14988,1,0,0:0:0:0:
144,112,15108,2,0,L|80:112,1,45,2|0,0:0|0:0,0:0:0:0:
192,80,15228,2,0,L|240:80,1,45
96,192,15348,2,0,L|32:192,1,45
128,160,15468,2,0,L|176:160,1,45
368,96,15588,5,4,0:0:0:0:
496,160,15708,1,0,0:0:0:0:
368,208,15828,1,0,0:0:0:0:
64,288,15948,1,0,0:0:0:0:
368,272,16068,1,4,0:0:0:0:
448,240,16188,1,0,0:0:0:0:
128,176,16308,1,0,0:0:0:0:
224,144,16428,1,0,0:0:0:0:
336,128,16548,6,0,L|368:192,1,45,2|0,0:0|0:0,0:0:0:0:
224,160,16668,2,0,L|192:224,1,45,2|0,0:0|0:0,0:0:0:0:
368,240,16788,2,0,L|400:304,1,45,2|0,0:0|0:0,0:0:0:0:
240,272,16908,2,0,L|176:272,1,45,2|0,0:0|0:0,0:0:0:0:
128,304,17028,2,0,L|64:304,6,45
32,288,17508,6,0,P|16:192|32:128,1,135,4|0,0:0|0:0,0:0:0:0:
192,160,17748,2,0,L|192:32,1,90
304,64,17988,1,0,0:0:0:0:
432,80,18108,1,0,0:0:0:0:
336,128,18228,1,0,0:0:0:0:
464,144,18348,1,0,0:0:0:0:
160,176,18468,6,0,L|64:176,1,90
192,240,18708,2,0,L|96:240,1,90
384,288,18948,2,0,L|432:256,3,45
368,240,19188,2,0,L|416:208,1,45
352,192,19308,2,0,L|400:160,1,45
432,144,19428,6,0,P|368:96|304:96,1,135
128,112,19668,2,0,L|32:160,1,90
192,272,19908,2,0,L|241:197,1,90
384,176,20148,1,0,0:0:0:0:
272,128,20268,1,0,0:0:0:0:
144,80,20388,6,0,P|128:128|80:208,1,135
224,224,20628,2,0,L|224:336,1,90
352,336,20868,2,0,P|416:288|432:208,1,135
368,224,21108,2,0,P|288:224|224:176,1,135
208,144,21348,6,0,L|336:144,1,107.999996704102,2|0,0:0|0:0,0:0:0:0:
176,80,21588,2,0,L|304:80,1,107.999996704102
144,208,21828,2,0,L|272:208,1,107.999996704102
112,144,22068,2,0,L|240:144,1,107.999996704102
336,144,22308,5,2,0:0:0:0:
480,176,22428,1,0,0:0:0:0:
208,240,22548,1,0,0:0:0:0:
480,304,22668,1,0,0:0:0:0:
128,320,22788,2,0,L|96:192,1,107.999996704102
384,320,23028,2,0,L|416:192,1,107.999996704102
304,176,23268,6,0,L|160:176,1,107.999996704102,2|0,0:0|0:0,0:0:0:0:
64,128,23508,2,0,L|192:128,1,107.999996704102
304,80,23748,2,0,L|160:80,1,107.999996704102
64,32,23988,2,0,L|192:32,1,107.999996704102
448,48,24228,5,2,0:0:0:0:
336,112,24348,1,0,0:0:0:0:
448,176,24468,1,0,0:0:0:0:
128,240,24588,1,0,0:0:0:0:
32,336,24708,2,0,L|144:336,1,107.999996704102,2|0,0:0|0:0,0:0:0:0:
368,336,24948,2,0,B|480:336|480:336|480:272,1,161.999995056153
160,240,25188,6,0,L|32:224,1,107.999996704102,4|0,0:0|0:0,0:0:0:0:
304,192,25428,2,0,L|432:176,1,107.999996704102
208,160,25668,2,0,L|80:144,1,107.999996704102
352,112,25908,2,0,L|480:96,1,107.999996704102
144,64,26148,5,0,0:0:0:0:
32,96,26268,1,0,0:0:0:0:
176,128,26388,1,0,0:0:0:0:
64,160,26508,1,0,0:0:0:0:
176,192,26628,1,0,0:0:0:0:
64,224,26748,1,0,0:0:0:0:
208,256,26868,1,0,0:0:0:0:
96,288,26988,1,0,0:0:0:0:
416,272,27108,5,0,0:0:0:0:
496,208,27228,1,0,0:0:0:0:
416,160,27348,1,0,0:0:0:0:
304,144,27468,1,0,0:0:0:0:
112,144,27588,2,0,L|48:256,1,107.999996704102
400,144,27828,2,0,L|464:256,1,107.999996704102
144,320,28068,6,0,P|64:272|48:192,1,161.999995056153,2|0,0:0|0:0,0:0:0:0:
224,192,28308,2,0,P|176:144|128:112,1,107.999996704102
368,80,28548,2,0,L|432:80,1,53.9999983520508,2|0,0:0|0:0,0:0:0:0:
496,32,28668,2,0,L|416:32,1,53.9999983520508
240,144,28788,2,0,L|176:144,1,53.9999983520508
112,192,28908,2,0,L|192:192,1,53.9999983520508
240,192,29028,6,0,P|336:208|400:240,1,135,4|0,0:0|0:0,0:0:0:0:
176,272,29268,2,0,L|64:272,1,90
176,208,29508,5,0,0:0:0:0:
224,112,29628,1,0,0:0:0:0:
416,176,29748,1,0,0:0:0:0:
464,80,29868,1,0,0:0:0:0:
176,208,29988,1,0,0:0:0:0:
128,112,30108,1,0,0:0:0:0:
416,176,30228,1,0,0:0:0:0:
368,80,30348,1,0,0:0:0:0:
176,208,30468,1,0,0:0:0:0:
416,176,30588,1,0,0:0:0:0:
128,112,30708,1,0,0:0:0:0:
368,80,30828,1,0,0:0:0:0:
144,160,30948,6,0,L|16:160,3,90
368,160,31428,2,0,L|496:160,3,90
320,208,31908,6,0,L|400:288,1,90,2|0,0:0|0:0,0:0:0:0:
256,272,32148,2,0,L|336:352,1,90,2|0,0:0|0:0,0:0:0:0:
176,352,32388,2,0,L|64:352,1,90,2|0,0:0|0:0,0:0:0:0:
208,272,32628,2,0,L|252:280,1,45,2|0,0:0|0:0,0:0:0:0:
336,256,32748,2,0,L|291:247,1,45
64,208,32868,6,0,L|64:64,1,107.999996704102,4|0,0:0|0:0,0:0:0:0:
448,208,33108,2,0,L|448:64,1,107.999996704102
320,112,33348,2,0,L|192:112,1,107.999996704102
352,192,33588,2,0,L|480:192,1,107.999996704102
144,304,33828,6,0,L|8:281,1,107.999996704102
144,224,34068,2,0,L|76:110,1,107.999996704102
464,320,34308,2,0,L|384:208,1,107.999996704102
304,160,34548,2,0,L|336:32,1,107.999996704102
192,48,34788,6,0,L|64:48,1,107.999996704102
384,112,35028,2,0,L|512:112,1,107.999996704102
80,144,35268,1,0,0:0:0:0:
48,272,35388,1,0,0:0:0:0:
256,304,35508,1,0,0:0:0:0:
448,320,35628,1,0,0:0:0:0:
144,336,35748,6,0,L|144:208,1,107.999996704102,2|0,0:0|0:0,0:0:0:0:
368,336,35988,2,0,L|368:208,1,107.999996704102
80,208,36228,2,0,B|32:144|32:144|32:96,1,107.999996704102,2|0,0:0|0:0,0:0:0:0:
432,208,36468,2,0,B|480:144|480:144|480:48,1,161.999995056153,2|0,0:0|0:0,0:0:0:0:
172,96,36708,6,4,L|64:96,1,107.999996704102
368,144,36948,2,0,L|240:208,1,107.999996704102
176,192,37188,2,0,L|68:192,1,107.999996704102
352,272,37428,2,0,L|416:272,2,53.9999983520508
48,256,37668,6,0,L|112:144,1,107.999996704102,2|0,0:0|0:0,0:0:0:0:
224,144,37908,2,0,L|176:32,1,107.999996704102
384,32,38148,2,0,L|496:32,3,107.999996704102
192,208,38628,6,0,L|64:208,1,107.999996704102,4|0,0:0|0:0,0:0:0:0:
192,112,38868,2,0,L|80:112,1,107.999996704102
336,208,39108,2,0,L|464:208,1,107.999996704102
84,112,39348,1,0,0:0:0:0:
304,112,39468,1,0,0:0:0:0:
416,112,39588,5,2,0:0:0:0:
464,96,39648,1,0,0:0:0:0:
512,80,39708,1,0,0:0:0:0:
464,64,39768,1,0,0:0:0:0:
416,48,39828,1,0,0:0:0:0:
368,32,39888,1,0,0:0:0:0:
160,192,39948,2,0,L|160:256,1,53.9999983520508
304,336,40068,2,0,L|448:320,1,107.999996704102,2|0,0:0|0:0,0:0:0:0:
512,256,40308,2,0,L|368:224,1,107.999996704102
160,224,40548,6,0,L|96:128,1,107.999996704102,4|0,0:0|0:0,0:0:0:0:
352,224,40788,2,0,L|416:128,1,107.999996704102
160,64,41028,2,0,L|400:64,1,215.999993408203
160,224,41508,6,0,L|48:176,1,107.999996704102,4|0,0:0|0:0,0:0:0:0:
352,224,41748,2,0,L|252:181,1,107.999996704102
376,64,41988,2,0,L|160:64,1,215.999993408203
160,224,42468,6,0,L|32:256,1,107.999996704102,4|0,0:0|0:0,0:0:0:0:
352,224,42708,2,0,L|480:256,1,107.999996704102
224,256,42948,2,0,B|352:192|352:192|352:48,1,270.000010299683
160,224,43428,6,0,L|16:224,1,135.000005149842,4|0,0:0|0:0,0:0:0:0:
352,224,43668,2,0,L|512:224,1,135.000005149842
160,192,43908,2,0,B|288:128|288:128|240:96|240:96|384:16,1,360
224,64,44388,6,0,L|80:96,1,107.999996704102,4|0,0:0|0:0,0:0:0:0:
224,160,44628,2,0,L|112:256,1,107.999996704102
288,224,44868,2,0,L|288:352,1,107.999996704102,2|0,0:0|0:0,0:0:0:0:
48,304,45108,2,0,L|48:192,1,107.999996704102
176,192,45348,6,0,L|288:176|384:192,1,161.999995056153,4|0,0:0|0:0,0:0:0:0:
416,208,45588,2,0,L|416:336,1,107.999996704102
80,320,45828,2,0,L|176:240,3,107.999996704102,2|0|2|0,0:0|0:0|0:0|0:0,0:0:0:0:
240,208,46308,6,0,P|400:192|432:160,1,161.999995056153,4|0,0:0|0:0,0:0:0:0:
208,144,46548,2,0,L|208:32,1,107.999996704102
320,32,46788,2,0,L|432:32,1,107.999996704102,4|0,0:0|0:0,0:0:0:0:
320,144,47028,2,0,L|448:144,1,107.999996704102,4|0,0:0|0:0,0:0:0:0:
192,176,47268,5,4,0:0:0:0:
128,176,47328,1,0,0:0:0:0:
64,208,47388,1,0,0:0:0:0:
32,272,47448,1,0,0:0:0:0:
176,272,47508,1,0,0:0:0:0:
240,272,47568,1,0,0:0:0:0:
304,304,47628,1,0,0:0:0:0:
336,368,47688,1,0,0:0:0:0:
160,336,47748,2,0,L|32:336,1,107.999996704102,2|0,0:0|0:0,0:0:0:0:
352,336,47988,2,0,L|480:336,1,107.999996704102
368,272,48228,6,0,L|304:96,1,161.999995056153,4|0,0:0|0:0,0:0:0:0:
176,128,48468,2,0,L|224:16,1,107.999996704102
352,32,48708,2,0,L|480:32,2,107.999996704102
256,32,49068,1,0,0:0:0:0:
480,144,49188,5,8,0:0:0:0:
48,192,49428,1,8,0:0:0:0:
480,256,49668,1,8,0:0:0:0:
256,224,49788,1,0,0:0:0:0:
48,192,49908,1,0,0:0:0:0:
256,160,50028,1,0,0:0:0:0:
384,144,50148,6,0,B|448:144|448:144|448:288,1,161.999995056153,4|0,0:0|0:0,0:0:0:0:
256,256,50388,2,0,L|256:144,1,107.999996704102
384,96,50628,1,0,0:0:0:0:
256,96,50748,1,0,0:0:0:0:
384,32,50868,1,0,0:0:0:0:
256,32,50988,1,0,0:0:0:0:
128,32,51108,6,0,P|96:112|16:176,1,161.999995056153,8|0,0:0|0:0,0:0:0:0:
240,176,51348,2,0,P|304:208|416:224,1,161.999995056153,8|0,0:0|0:0,0:0:0:0:
160,256,51588,2,0,L|32:272,1,107.999996704102,8|0,0:0|0:0,0:0:0:0:
160,336,51828,2,0,L|288:320,1,107.999996704102
368,304,52068,6,0,L|368:176,1,107.999996704102,4|0,0:0|0:0,0:0:0:0:
224,192,52308,2,0,L|224:64,1,107.999996704102
480,160,52548,2,0,L|480:32,1,107.999996704102
128,256,52788,2,0,L|128:128,1,107.999996704102
352,176,53028,2,0,L|496:160,1,107.999996704102,4|0,0:0|0:0,0:0:0:0:
240,112,53268,2,0,L|112:96,1,107.999996704102
16,224,53508,2,0,L|160:208,1,107.999996704102
336,192,53748,2,0,L|464:144,1,107.999996704102
336,96,53988,5,4,0:0:0:0:
192,80,54108,1,0,0:0:0:0:
304,144,54228,1,0,0:0:0:0:
176,128,54348,1,0,0:0:0:0:
272,192,54468,1,4,0:0:0:0:
160,176,54588,1,0,0:0:0:0:
32,176,54708,1,4,0:0:0:0:
256,192,54828,1,0,0:0:0:0:
480,176,54948,6,0,B|416:160|432:272|432:272|384:320|304:288|400:224|400:224|320:224,1,377.999988464356,4|0,0:0|0:0,0:0:0:0:
192,240,55428,6,0,P|111:240|48:288,1,161.999995056153
320,240,55668,2,0,P|401:240|464:288,1,161.999995056153
208,320,55908,6,0,P|128:288|80:192,1,182.250000695229,4|0,0:0|0:0,0:0:0:0:
224,208,56148,2,0,P|224:128|304:112,1,121.500000463486
368,128,56388,1,0,0:0:0:0:
480,160,56508,1,0,0:0:0:0:
288,224,56628,1,0,0:0:0:0:
96,256,56748,1,0,0:0:0:0:
384,304,56868,6,0,P|432:256|448:144,1,182.250000695229,4|0,0:0|0:0,0:0:0:0:
224,224,57108,2,0,P|176:176|160:64,1,182.250000695229
368,144,57348,2,0,L|512:144,1,121.500000463486
144,144,57588,2,0,L|0:144,1,121.500000463486
320,256,57828,5,4,0:0:0:0:
480,240,57948,1,0,0:0:0:0:
336,192,58068,1,0,0:0:0:0:
464,176,58188,1,0,0:0:0:0:
352,128,58308,1,0,0:0:0:0:
448,112,58428,1,0,0:0:0:0:
320,64,58548,1,0,0:0:0:0:
464,48,58668,1,0,0:0:0:0:
128,128,58788,6,0,L|48:128,1,60.7500002317429,4|0,0:0|0:0,0:0:0:0:
224,192,58908,1,0,0:0:0:0:
352,208,59028,2,0,P|448:224|480:320,1,182.250000695229
208,304,59268,2,0,L|96:240,1,121.500000463486
224,192,59508,2,0,L|320:96,1,121.500000463486
192,64,59748,5,8,0:0:0:0:
64,64,59868,1,0,0:0:0:0:
176,96,59988,1,0,0:0:0:0:
48,96,60108,1,0,0:0:0:0:
352,144,60228,1,8,0:0:0:0:
240,144,60348,1,0,0:0:0:0:
336,176,60468,1,0,0:0:0:0:
224,176,60588,1,0,0:0:0:0:
112,208,60708,5,4,0:0:0:0:
48,320,60828,1,0,0:0:0:0:
400,176,60948,1,0,0:0:0:0:
464,64,61068,1,0,0:0:0:0:
48,96,61188,2,0,B|48:160|48:160|208:160,1,182.250000695229,2|0,0:0|0:0,0:0:0:0:
432,192,61428,2,0,B|432:256|432:256|336:256,1,121.500000463486,2|0,0:0|0:0,0:0:0:0:
256,256,61668,5,4,0:0:0:0:
352,176,61788,1,0,0:0:0:0:
256,96,61908,1,0,0:0:0:0:
32,96,62028,1,0,0:0:0:0:
336,256,62148,1,4,0:0:0:0:
432,176,62268,1,0,0:0:0:0:
336,96,62388,1,0,0:0:0:0:
32,96,62508,1,0,0:0:0:0:
256,96,62628,6,0,L|256:224,1,121.500000463486,2|0,0:0|0:0,0:0:0:0:
400,176,62868,2,0,L|400:304,1,121.500000463486
256,288,63108,2,0,P|160:288|80:192,1,182.250000695229
256,288,63348,2,0,P|352:288|432:192,1,182.250000695229
176,80,63588,6,0,L|64:128,1,121.500000463486,4|0,0:0|0:0,0:0:0:0:
176,192,63828,1,0,0:0:0:0:
288,224,63948,1,0,0:0:0:0:
48,240,64068,2,0,L|16:384,1,121.500000463486
464,240,64308,2,0,L|496:384,1,121.500000463486
352,352,64548,6,0,P|272:320|192:208,1,182.250000695229,4|0,0:0|0:0,0:0:0:0:
384,224,64788,2,0,P|368:128|304:112,1,121.500000463486
224,112,65028,1,0,0:0:0:0:
112,160,65148,1,0,0:0:0:0:
208,224,65268,1,0,0:0:0:0:
352,240,65388,1,0,0:0:0:0:
480,256,65508,6,0,L|432:128,1,121.500000463486,4|0,0:0|0:0,0:0:0:0:
288,224,65748,2,0,L|224:96,1,121.500000463486
96,96,65988,2,0,L|0:96,2,81.0000003089905,4|0|0,0:0|0:0|0:0,0:0:0:0:
176,144,66228,2,0,L|272:144,1,60.7500002317429
176,208,66348,2,0,L|112:208,1,60.7500002317429
288,256,66468,6,0,L|432:256,1,121.500000463486,4|0,0:0|0:0,0:0:0:0:
176,160,66708,2,0,L|288:64,1,121.500000463486
48,80,66948,2,0,P|96:192|176:256,1,182.250000695229
384,224,67188,2,0,B|480:192|480:192|480:144,1,121.500000463486
176,80,67428,5,8,0:0:0:0:
48,96,67548,1,0,0:0:0:0:
176,128,67668,1,0,0:0:0:0:
64,144,67788,1,0,0:0:0:0:
192,176,67908,1,8,0:0:0:0:
48,192,68028,1,0,0:0:0:0:
176,224,68148,1,0,0:0:0:0:
64,240,68268,1,0,0:0:0:0:
352,240,68388,5,4,0:0:0:0:
480,208,68508,1,0,0:0:0:0:
224,192,68628,1,0,0:0:0:0:
16,160,68748,1,0,0:0:0:0:
368,128,68868,2,0,L|512:112,1,121.500000463486,4|0,0:0|0:0,0:0:0:0:
144,128,69108,2,0,L|0:112,1,121.500000463486
128,192,69348,6,0,P|272:192|320:208,1,182.250000695229,4|0,0:0|0:0,0:0:0:0:
160,256,69588,2,0,L|160:384,1,121.500000463486
288,192,69828,2,0,P|432:192|448:160,1,182.250000695229
304,128,70068,2,0,L|304:0,1,121.500000463486
176,48,70308,6,0,L|160:128,1,60.7500002317429,2|0,0:0|0:0,0:0:0:0:
96,160,70428,2,0,L|80:224,1,60.7500002317429
160,256,70548,2,0,L|192:320,1,60.7500002317429
272,320,70668,2,0,L|336:352,1,60.7500002317429
400,320,70788,2,0,L|464:320,6,60.7500002317429
272,288,71268,6,0,L|352:176,1,103.500001974106,4|0,0:0|0:0,0:0:0:0:
448,176,71508,2,0,L|384:48,1,103.500001974106
110,83,71748,2,0,L|64:176,1,103.500001974106
179,203,71989,2,0,L|240:288,1,103.500001974106
336,304,72228,5,0,0:0:0:0:
448,272,72348,1,0,0:0:0:0:
352,224,72468,1,0,0:0:0:0:
464,192,72588,1,0,0:0:0:0:
144,256,72708,5,0,0:0:0:0:
240,224,72828,1,0,0:0:0:0:
160,176,72948,1,0,0:0:0:0:
256,144,73068,1,0,0:0:0:0:
352,112,73188,6,0,L|224:80,1,103.500001974106,4|0,0:0|0:0,0:0:0:0:
32,64,73428,2,0,L|96:176,1,103.500001974106
352,208,73668,2,0,L|464:224,1,103.500001974106
160,208,73908,2,0,L|48:224,1,103.500001974106
320,272,74148,5,0,0:0:0:0:
448,288,74268,1,0,0:0:0:0:
320,272,74388,1,0,0:0:0:0:
448,288,74508,1,0,0:0:0:0:
320,208,74628,1,0,0:0:0:0:
464,336,74748,1,0,0:0:0:0:
160,240,74868,1,0,0:0:0:0:
464,336,74988,1,0,0:0:0:0:
32,192,75108,6,0,L|128:96,1,103.500001974106,4|0,0:0|0:0,0:0:0:0:
336,144,75348,2,0,L|464:144,1,103.500001974106
105,118,75588,2,0,L|32:192,1,103.500001974106
336,144,75828,2,0,L|464:144,1,103.500001974106
80,288,76068,6,0,L|80:160,1,103.500001974106
208,208,76308,2,0,L|208:96,1,103.500001974106
352,128,76548,2,0,L|352:0,1,103.500001974106
80,96,76788,2,0,L|80:224,1,103.500001974106
416,144,77028,5,4,0:0:0:0:
480,272,77148,1,0,0:0:0:0:
208,224,77268,2,0,L|352:240,1,103.500001974106
96,240,77508,5,0,0:0:0:0:
32,112,77628,1,0,0:0:0:0:
304,160,77748,2,0,L|160:144,1,103.500001974106
304,224,77988,6,0,L|400:224,1,51.7500009870529,2|0,0:0|0:0,0:0:0:0:
400,208,78108,2,0,L|464:208,1,51.7500009870529
208,176,78228,2,0,L|256:96,1,51.7500009870529
272,112,78348,2,0,L|304:64,1,51.7500009870529
80,160,78468,2,0,L|80:96,1,51.7500009870529,2|0,0:0|0:0,0:0:0:0:
112,80,78588,2,0,L|112:16,1,51.7500009870529
416,96,78708,2,0,L|480:96,1,51.7500009870529
256,80,78828,2,0,L|176:80,1,51.7500009870529
256,192,78948,12,0,79668,0:0:0:0:
336,224,82788,6,0,L|480:224,1,103.500001974106,4|0,0:0|0:0,0:0:0:0:
512,160,83028,2,0,L|400:160,1,103.500001974106
176,160,83268,2,0,L|32:160,1,103.500001974106
0,224,83508,2,0,L|112:224,1,103.500001974106
416,304,83748,6,0,L|448:176,1,103.500001974106,2|0,0:0|0:0,0:0:0:0:
320,160,83988,2,0,L|432:128,1,103.500001974106
96,304,84228,2,0,L|64:176,1,103.500001974106,2|0,0:0|0:0,0:0:0:0:
192,160,84468,2,0,L|80:128,1,103.500001974106
384,96,84708,6,0,L|496:96,1,103.500001974106,4|0,0:0|0:0,0:0:0:0:
384,192,84948,2,0,L|496:192,1,103.500001974106
128,96,85188,2,0,L|16:96,1,103.500001974106
288,192,85428,2,0,L|176:192,1,103.500001974106
96,208,85668,6,0,L|96:352,1,103.500001974106,2|0,0:0|0:0,0:0:0:0:
208,320,85908,2,0,L|336:320,1,103.500001974106
32,304,86148,2,0,L|32:176,1,103.500001974106,2|0,0:0|0:0,0:0:0:0:
240,224,86388,2,0,B|240:192|240:192|272:160|272:160|176:160,1,155.250002961159
128,160,86628,6,0,L|16:144,1,103.500001974106,4|0,0:0|0:0,0:0:0:0:
304,96,86868,2,0,L|176:64,1,103.500001974106
448,80,87108,2,0,L|352:32,1,103.500001974106
80,32,87348,2,0,L|32:128,1,103.500001974106
384,160,87588,6,0,L|496:144,1,103.500001974106,2|0,0:0|0:0,0:0:0:0:
208,96,87828,2,0,L|336:64,1,103.500001974106
64,80,88068,2,0,L|160:32,1,103.500001974106,2|0,0:0|0:0,0:0:0:0:
432,32,88308,2,0,L|480:128,1,103.500001974106
368,160,88548,5,4,0:0:0:0:
256,192,88668,1,0,0:0:0:0:
480,224,88788,1,0,0:0:0:0:
240,288,88908,1,0,0:0:0:0:
32,320,89028,1,0,0:0:0:0:
272,304,89148,1,0,0:0:0:0:
48,240,89268,1,0,0:0:0:0:
288,224,89388,1,0,0:0:0:0:
192,208,89508,6,0,L|112:192,1,51.7500009870529,2|0,0:0|0:0,0:0:0:0:
64,160,89628,2,0,L|144:144,1,51.7500009870529
176,112,89748,2,0,L|96:112,1,51.7500009870529
80,64,89868,2,0,L|144:64,1,51.7500009870529
368,80,89988,2,0,L|432:80,1,51.7500009870529,2|0,0:0|0:0,0:0:0:0:
256,144,90108,2,0,L|192:144,1,51.7500009870529,2|0,0:0|0:0,0:0:0:0:
368,208,90228,2,0,L|432:208,1,51.7500009870529,2|0,0:0|0:0,0:0:0:0:
256,272,90348,2,0,L|192:272,1,51.7500009870529,2|0,0:0|0:0,0:0:0:0:
48,272,90468,6,0,L|48:160,1,103.500001974106,4|0,0:0|0:0,0:0:0:0:
464,272,90708,2,0,L|464:160,1,103.500001974106
64,192,90948,2,0,L|464:192,1,360
48,272,91428,6,0,L|48:160,1,103.500001974106,4|0,0:0|0:0,0:0:0:0:
464,272,91668,2,0,L|464:160,1,103.500001974106
64,192,91908,2,0,L|464:192,1,360
64,256,92388,6,0,L|48:144,1,90,4|0,0:0|0:0,0:0:0:0:
384,240,92628,2,0,P|448:176|464:144,1,90
192,128,92868,2,0,L|0:128,1,180
320,176,93348,5,4,0:0:0:0:
448,208,93468,1,0,0:0:0:0:
336,256,93588,1,4,0:0:0:0:
464,288,93708,1,0,0:0:0:0:
128,320,93828,2,0,L|96:176,1,135,4|0,0:0|0:0,0:0:0:0:
224,192,94068,2,0,L|224:80,1,90
336,80,94308,5,4,0:0:0:0:
464,128,94428,1,0,0:0:0:0:
192,192,94548,1,0,0:0:0:0:
64,224,94668,1,0,0:0:0:0:
176,272,94788,1,4,0:0:0:0:
400,304,94908,1,0,0:0:0:0:
48,272,95028,1,0,0:0:0:0:
160,208,95148,1,0,0:0:0:0:
432,128,95268,6,0,B|464:160|464:160|464:208|464:208|432:240,1,135,4|0,0:0|0:0,0:0:0:0:
176,304,95508,2,0,L|64:304,1,90
352,256,95748,2,0,L|448:208,1,90
176,176,95988,2,0,L|240:80,1,90
352,64,96228,5,4,0:0:0:0:
464,96,96348,1,0,0:0:0:0:
320,176,96468,1,0,0:0:0:0:
464,224,96588,1,0,0:0:0:0:
224,256,96708,1,0,0:0:0:0:
464,352,96828,1,0,0:0:0:0:
128,352,96948,1,0,0:0:0:0:
16,288,97068,1,0,0:0:0:0:
336,256,97188,6,0,L|448:256,1,90,4|0,0:0|0:0,0:0:0:0:
352,176,97428,2,0,L|464:176,1,90
336,96,97668,2,0,L|448:96,1,90
304,16,97908,2,0,L|416:16,1,90
112,80,98148,6,0,P|80:160|80:224,1,135,4|0,0:0|0:0,0:0:0:0:
240,224,98388,2,0,L|240:336,1,90
400,80,98628,2,0,P|432:160|432:224,1,135
384,256,98868,2,0,L|288:256,1,90
0,336,99108,5,8,0:0:0:0:
512,336,99348,1,8,0:0:0:0:
0,192,99588,1,8,0:0:0:0:
256,192,99708,1,0,0:0:0:0:
384,192,99828,1,0,0:0:0:0:
144,192,99948,1,0,0:0:0:0:
432,80,100068,6,0,P|464:160|464:224,1,135,4|0,0:0|0:0,0:0:0:0:
272,224,100308,2,0,L|288:336,1,90
80,80,100548,2,0,P|48:160|48:224,1,135
96,240,100788,2,0,L|192:240,1,90
512,336,101028,5,8,0:0:0:0:
0,336,101268,1,8,0:0:0:0:
512,192,101508,1,8,0:0:0:0:
256,192,101628,1,0,0:0:0:0:
128,192,101748,1,0,0:0:0:0:
368,192,101868,1,0,0:0:0:0:
384,192,101988,6,0,L|304:288,1,90,4|0,0:0|0:0,0:0:0:0:
208,288,102228,2,0,L|144:368,1,90
384,192,102468,2,0,L|304:96,1,90
208,96,102708,2,0,L|144:16,1,90
64,48,102948,1,4,0:0:0:0:
48,160,103068,1,0,0:0:0:0:
320,48,103188,1,0,0:0:0:0:
352,160,103308,1,0,0:0:0:0:
208,192,103428,1,4,0:0:0:0:
176,320,103548,1,0,0:0:0:0:
464,192,103668,1,0,0:0:0:0:
496,320,103788,1,0,0:0:0:0:
384,336,103908,5,8,0:0:0:0:
288,288,104028,1,0,0:0:0:0:
32,224,104148,1,0,0:0:0:0:
128,176,104268,1,0,0:0:0:0:
464,192,104388,1,8,0:0:0:0:
368,144,104508,1,0,0:0:0:0:
272,112,104628,1,8,0:0:0:0:
368,64,104748,1,0,0:0:0:0:
464,32,104868,2,0,P|480:144|320:272,1,315,8|0,0:0|0:0,0:0:0:0:
48,288,105348,6,0,P|96:224|112:144,1,135
384,272,105588,2,0,P|432:208|448:128,1,135
112,128,105828,5,4,0:0:0:0:
0,160,105948,1,0,0:0:0:0:
112,208,106068,1,0,0:0:0:0:
224,240,106188,1,0,0:0:0:0:
496,208,106308,2,0,P|464:160|304:144,1,182.250000695229
80,160,106548,2,0,P|83:113|160:80,1,121.500000463486
368,96,106788,5,4,0:0:0:0:
480,112,106908,1,0,0:0:0:0:
352,160,107028,1,0,0:0:0:0:
480,176,107148,1,0,0:0:0:0:
368,96,107268,1,0,0:0:0:0:
480,240,107388,1,0,0:0:0:0:
352,160,107508,1,0,0:0:0:0:
480,304,107628,1,0,0:0:0:0:
80,320,107748,6,0,P|128:288|144:144,1,182.250000695229,8|0,0:0|0:0,0:0:0:0:
64,176,107988,2,0,P|80:96|128:80,1,121.500000463486
432,320,108228,2,0,P|384:288|368:144,1,182.250000695229,8|0,0:0|0:0,0:0:0:0:
448,176,108468,2,0,P|432:96|384:80,1,121.500000463486
192,80,108708,2,0,L|272:192,1,121.500000463486,4|0,0:0|0:0,0:0:0:0:
192,80,108948,2,0,L|320:80,1,121.500000463486
416,144,109188,2,0,L|416:304,1,121.500000463486,4|0,0:0|0:0,0:0:0:0:
96,144,109428,2,0,L|96:304,1,121.500000463486
416,272,109668,6,0,L|368:160,1,121.500000463486,4|0,0:0|0:0,0:0:0:0:
240,176,109908,2,0,P|272:64|368:48,1,182.250000695229
80,144,110148,2,0,L|144:16,1,121.500000463486
272,80,110388,2,0,B|240:160|240:160|304:192,1,121.500000463486
384,176,110628,6,0,L|496:256,1,121.500000463486,4|0,0:0|0:0,0:0:0:0:
240,192,110868,2,0,L|336:288,1,121.500000463486
112,208,111108,2,0,L|192:320,1,121.500000463486
448,320,111348,2,0,P|480:256|480:128,1,182.250000695229
160,160,111588,6,0,L|32:160,3,121.500000463486,8|0|0|0,0:0|0:0|0:0|0:0,0:0:0:0:
176,96,112068,2,0,L|48:96,1,121.500000463486,8|0,0:0|0:0,0:0:0:0:
192,32,112308,2,0,L|48:32,1,121.500000463486
416,64,112548,6,0,L|400:208,1,121.500000463486,4|0,0:0|0:0,0:0:0:0:
288,176,112788,2,0,L|304:304,1,121.500000463486
48,288,113028,2,0,B|96:224|96:224|48:224|48:224|48:160,1,182.250000695229
336,288,113268,2,0,B|384:224|384:224|336:224|336:224|336:160,1,182.250000695229
144,96,113508,6,0,B|64:112|64:112|32:176,1,121.500000463486,4|0,0:0|0:0,0:0:0:0:
288,176,113748,2,0,B|270:211|270:211|190:227,1,121.500000463486
416,320,113988,2,0,P|464:256|480:128,1,182.250000695229
208,128,114228,2,0,L|80:128,1,121.500000463486
368,160,114468,6,0,L|496:160,1,121.500000463486,4|0,0:0|0:0,0:0:0:0:
400,96,114708,2,0,L|496:0,1,121.500000463486
208,224,114948,2,0,L|304:320,1,121.500000463486
176,336,115188,1,0,0:0:0:0:
64,336,115308,1,0,0:0:0:0:
320,272,115428,6,0,P|384:288|416:192,1,182.250000695229,4|0,0:0|0:0,0:0:0:0:
352,176,115668,2,0,L|480:176,1,121.500000463486
192,272,115908,2,0,P|128:288|96:192,1,182.250000695229,4|0,0:0|0:0,0:0:0:0:
160,176,116148,2,0,L|32:176,1,121.500000463486
320,192,116388,5,8,0:0:0:0:
432,160,116508,1,0,0:0:0:0:
352,96,116628,1,0,0:0:0:0:
464,64,116748,1,0,0:0:0:0:
160,208,116868,1,8,0:0:0:0:
256,160,116988,1,0,0:0:0:0:
384,128,117108,2,0,L|438:155,1,60.7500002317429
496,176,117228,2,0,L|437:190,1,60.7500002317429
112,208,117348,6,0,L|64:336,1,121.500000463486,4|0,0:0|0:0,0:0:0:0:
192,320,117588,2,0,L|240:192,1,121.500000463486
480,240,117828,2,0,L|336:224,1,121.500000463486,4|0,0:0|0:0,0:0:0:0:
64,160,118068,1,0,0:0:0:0:
448,128,118188,1,0,0:0:0:0:
160,96,118308,6,0,L|32:96,3,121.500000463486,4|0|0|0,0:0|0:0|0:0|0:0,0:0:0:0:
320,128,118788,2,0,P|400:128|480:240,1,182.250000695229,8|0,0:0|0:0,0:0:0:0:
208,256,119028,2,0,L|128:256,1,60.7500002317429,8|0,0:0|0:0,0:0:0:0:
80,208,119148,2,0,L|160:208,1,60.7500002317429
400,208,119268,6,0,L|480:192,1,60.7500002317429,4|0,0:0|0:0,0:0:0:0:
384,192,119388,2,0,L|304:176,1,60.7500002317429
368,160,119508,2,0,L|448:144,1,60.7500002317429
256,128,119628,2,0,L|176:112,1,60.7500002317429
320,112,119748,6,0,L|400:96,1,60.7500002317429,4|0,0:0|0:0,0:0:0:0:
448,64,119868,2,0,L|368:48,1,60.7500002317429
208,48,119988,2,0,L|128:48,1,60.7500002317429
80,112,120108,2,0,L|140:112,1,60.7500002317429
415,211,120228,6,0,L|464:192,1,51.7500009870529,4|0,0:0|0:0,0:0:0:0:
272,272,120348,2,0,L|208:288,1,51.7500009870529
96,304,120468,2,0,L|32:288,1,51.7500009870529,4|0,0:0|0:0,0:0:0:0:
352,224,120588,2,0,L|416:208,1,51.7500009870529
128,160,120708,2,0,L|80:112,3,51.7500009870529,4|0|0|0,0:0|0:0|0:0|0:0,0:0:0:0:
144,96,120948,2,8,L|128:32,1,51.7500009870529
192,48,121068,2,8,L|240:0,1,51.7500009870529
256,192,121188,12,0,122628,0:0:0:0:
