osu file format v14

[General]
AudioFilename: Invasion of stray cats.mp3
AudioLeadIn: 0
PreviewTime: 55208
Countdown: 1
SampleSet: None
StackLeniency: 0.7
Mode: 2
LetterboxInBreaks: 1
WidescreenStoryboard: 1

[Editor]
Bookmarks: 29048,40802,71288,90488,105368,121208
DistanceSpacing: 1
BeatDivisor: 4
GridSize: 4
TimelineZoom: 4.099999

[Metadata]
Title:Invasion of stray cats
TitleUnicode:Invasion of stray cats
Artist:FujuniseikouyuuP
ArtistUnicode:FujuniseikouyuuP
Creator:224dj
Version:224STEP
Source:
Tags:CWC Korean team warmup map 충격과 공포다 그지깽깽이들아!
BeatmapID:694896
BeatmapSetID:311029

[Difficulty]
HPDrainRate:4
CircleSize:4
OverallDifficulty:9.4
ApproachRate:9.4
SliderMultiplier:1.8
SliderTickRate:1

[Events]
//Background and Video events
0,0,"1234545.png",0,0
//Break Periods
//Storyboard Layer 0 (Background)
//Storyboard Layer 1 (Fail)
//Storyboard Layer 2 (Pass)
//Storyboard Layer 3 (Foreground)
//Storyboard Sound Samples

[TimingPoints]
248,240,4,3,0,80,1,0
55448,-100,4,3,0,5,0,0
55928,-100,4,3,0,80,0,0
105368,-100,4,3,0,5,0,0
105848,-100,4,3,0,80,0,0

[Colours]
Combo1 : 151,21,2
Combo2 : 64,128,128
Combo3 : 0,128,64

[HitObjects]
240,288,1208,5,8,0:0:0:0:
232,136,1328,2,0,L|272:108,2,45
100,120,1508,2,0,L|44:76,1,45,2|0,0:0|0:0,0:0:0:0:
300,80,1688,1,2,0:0:0:0:
96,72,1808,1,2,0:0:0:0:
424,72,1928,1,2,0:0:0:0:
212,68,2048,1,2,0:0:0:0:
440,204,2168,6,0,L|484:108,1,90,8|0,0:0|0:0,0:0:0:0:
144,208,2408,2,0,L|32:208,1,90
272,160,2648,2,0,L|160:120,1,90,8|0,0:0|0:0,0:0:0:0:
396,276,2888,2,0,L|472:200,2,90,0|0|8,0:0|0:0|0:0,0:0:0:0:
48,224,3248,2,0,L|164:224,1,90
464,224,3488,2,0,L|348:224,1,90,0|8,0:0|0:0,0:0:0:0:
48,224,3728,2,0,L|164:224,1,90
464,224,3968,2,0,L|352:224,1,90,0|8,0:0|0:0,0:0:0:0:
144,136,4208,6,0,L|52:116,3,90,0|0|0|8,0:0|0:0|0:0|0:0,0:0:0:0:
455,116,4688,2,0,L|368:136,1,90
144,136,4928,2,0,L|56:116,1,90,0|8,0:0|0:0,0:0:0:0:
384,188,5168,2,0,L|272:156,1,90
424,128,5408,2,0,L|484:48,1,90,0|8,0:0|0:0,0:0:0:0:
128,188,5648,2,0,L|240:156,1,90,0|8,0:0|0:0,0:0:0:0:
88,128,5888,2,0,L|28:48,1,90,0|12,0:0|0:0,0:0:0:0:
424,240,6128,6,0,L|528:212,1,90
320,168,6368,2,0,L|392:80,1,90,0|8,0:0|0:0,0:0:0:0:
108,240,6608,2,0,L|4:212,1,90
208,168,6848,2,0,L|136:80,1,90,0|8,0:0|0:0,0:0:0:0:
360,164,7088,2,0,L|296:84,1,90
152,164,7328,2,0,L|216:84,1,90,0|8,0:0|0:0,0:0:0:0:
460,164,7568,2,0,L|396:84,1,90
52,164,7808,2,0,L|116:84,1,90,0|8,0:0|0:0,0:0:0:0:
312,88,8048,6,0,L|196:88,1,90
408,196,8288,2,0,L|516:196,1,90,0|8,0:0|0:0,0:0:0:0:
104,196,8528,2,0,L|-4:196,1,90
328,176,8768,1,0,0:0:0:0:
368,156,8828,1,0,0:0:0:0:
393,119,8888,1,8,0:0:0:0:
396,75,8948,1,0,0:0:0:0:
376,35,9008,1,0,0:0:0:0:
339,10,9068,1,0,0:0:0:0:
295,7,9128,1,0,0:0:0:0:
104,112,9188,2,0,L|56:68,1,45
312,96,9308,2,0,L|372:84,1,45,0|12,0:0|0:0,0:0:0:0:
136,232,9428,2,0,L|-20:232,2,135,8|0|0,0:0|0:0|0:0,0:0:0:0:
368,216,9848,6,0,L|472:176,1,90,14|0,0:0|0:0,0:0:0:0:
172,152,10088,2,0,L|136:56,1,90
32,68,10328,2,0,L|148:64,1,90,8|0,0:0|0:0,0:0:0:0:
340,152,10568,2,0,L|376:56,1,90
480,68,10808,2,0,L|364:64,1,90,8|0,0:0|0:0,0:0:0:0:
152,268,11048,2,0,L|252:248,1,90
152,208,11288,2,0,L|88:112,1,90,8|0,0:0|0:0,0:0:0:0:
384,176,11528,2,0,L|296:152,1,90
424,124,11768,6,0,L|484:48,1,90,8|0,0:0|0:0,0:0:0:0:
84,128,12008,2,0,L|36:40,1,90
296,120,12248,2,0,L|344:32,1,90,8|0,0:0|0:0,0:0:0:0:
216,120,12488,2,0,L|168:32,1,90
339,199,12728,2,0,L|291:111,1,90,8|0,0:0|0:0,0:0:0:0:
173,199,12968,2,0,L|221:111,1,90
456,200,13208,2,0,L|352:164,1,90,8|0,0:0|0:0,0:0:0:0:
48,200,13448,2,0,L|176:188,1,90
412,152,13688,6,0,L|484:88,3,90,12|0|0|0,0:0|0:0|0:0|0:0,0:0:0:0:
92,152,14168,2,0,L|92:60,1,90,8|0,0:0|0:0,0:0:0:0:
200,148,14408,2,0,L|200:48,1,90
316,156,14648,2,0,L|316:56,1,90,8|0,0:0|0:0,0:0:0:0:
440,160,14888,1,0,0:0:0:0:
200,240,15008,1,0,0:0:0:0:
292,276,15128,1,8,0:0:0:0:
44,208,15248,1,0,0:0:0:0:
292,276,15368,1,0,0:0:0:0:
200,240,15488,1,0,0:0:0:0:
440,160,15608,1,12,0:0:0:0:
108,196,15728,6,0,L|108:80,1,90
432,204,15968,2,0,L|432:80,1,90,0|8,0:0|0:0,0:0:0:0:
128,128,16208,2,0,L|28:100,1,90
384,132,16448,2,0,L|488:120,1,90,0|8,0:0|0:0,0:0:0:0:
200,204,16688,2,0,L|196:104,1,90
312,208,16928,2,0,L|308:100,1,90,0|8,0:0|0:0,0:0:0:0:
220,132,17168,2,0,L|104:128,2,90
452,224,17528,6,0,L|492:108,1,90,8|0,0:0|0:0,0:0:0:0:
60,224,17768,2,0,L|20:108,1,90
340,144,18008,2,0,L|240:104,1,90,8|0,0:0|0:0,0:0:0:0:
136,100,18248,2,0,L|240:56,1,90
448,72,18488,5,8,0:0:0:0:
60,68,18728,1,0,0:0:0:0:
420,192,18968,1,8,0:0:0:0:
164,252,19088,2,0,L|252:160,2,90
416,224,19448,1,12,0:0:0:0:
48,164,19688,1,0,0:0:0:0:
420,156,19928,1,8,0:0:0:0:
48,116,20168,1,0,0:0:0:0:
424,100,20408,1,8,0:0:0:0:
226,186,20648,2,0,P|210:134|238:130,1,90
304,124,20888,2,0,L|328:108,1,22.5,10|0,0:0|0:0,0:0:0:0:
168,88,21008,2,0,L|136:80,1,22.5,2|0,0:0|0:0,0:0:0:0:
356,72,21128,2,0,L|388:64,1,22.5,2|0,0:0|0:0,0:0:0:0:
128,44,21248,2,0,L|104:24,1,22.5,2|0,0:0|0:0,0:0:0:0:
368,264,21368,6,0,L|472:224,1,90,4|0,0:0|0:0,0:0:0:0:
196,236,21608,2,0,L|304:204,1,90
152,184,21848,2,0,L|252:152,1,90,8|0,0:0|0:0,0:0:0:0:
448,132,22088,6,0,L|448:20,1,90
68,152,22328,2,0,L|68:40,1,90,8|0,0:0|0:0,0:0:0:0:
292,152,22568,2,0,L|192:76,1,90
448,132,22808,2,0,L|448:20,1,90,8|0,0:0|0:0,0:0:0:0:
220,152,23048,2,0,L|320:76,1,90
68,152,23288,2,0,L|68:40,1,90,8|0,0:0|0:0,0:0:0:0:
320,232,23528,1,0,0:0:0:0:
56,232,23648,6,0,L|128:164,1,90,0|8,0:0|0:0,0:0:0:0:
404,152,23888,1,0,0:0:0:0:
132,148,24008,1,0,0:0:0:0:
456,268,24128,2,0,L|496:144,1,90,0|8,0:0|0:0,0:0:0:0:
132,148,24368,1,0,0:0:0:0:
404,152,24488,1,0,0:0:0:0:
124,248,24608,2,0,L|40:156,2,90,0|8|0,0:0|0:0|0:0,0:0:0:0:
256,192,24968,12,0,28928,0:0:0:0:
64,224,29048,6,0,L|52:128,1,90,12|0,0:0|0:0,0:0:0:0:
448,224,29288,2,0,L|460:128,1,90
212,184,29528,2,0,L|312:148,3,90,8|0|0|0,0:0|0:0|0:0|0:0,0:0:0:0:
168,188,30008,2,0,L|152:96,1,90,8|0,0:0|0:0,0:0:0:0:
344,188,30248,2,0,L|360:96,1,90
92,176,30488,2,0,L|12:120,3,90,8|0|0|0,0:0|0:0|0:0|0:0,0:0:0:0:
484,168,30968,6,0,L|424:68,1,90,12|0,0:0|0:0,0:0:0:0:
184,104,31208,2,0,L|284:52,1,90
48,104,31448,2,0,L|152:40,1,90,8|0,0:0|0:0,0:0:0:0:
344,104,31688,2,0,L|244:52,1,90
512,80,31928,2,0,L|408:16,1,90,8|0,0:0|0:0,0:0:0:0:
32,144,32168,6,0,L|160:144,1,90
244,144,32408,2,0,L|348:144,1,90,8|0,0:0|0:0,0:0:0:0:
452,148,32648,1,0,0:0:0:0:
244,232,32768,1,0,0:0:0:0:
32,232,32888,1,12,0:0:0:0:
368,316,33008,6,0,L|448:248,1,90
128,256,33248,1,0,0:0:0:0:
388,256,33368,1,8,0:0:0:0:
192,208,33488,2,0,L|304:160,3,90,0|0|0|8,0:0|0:0|0:0|0:0,0:0:0:0:
108,168,33968,2,0,L|28:124,1,90
296,120,34208,1,0,0:0:0:0:
512,120,34328,1,8,0:0:0:0:
108,168,34448,2,0,L|28:124,1,90
296,120,34688,1,0,0:0:0:0:
512,120,34808,1,8,0:0:0:0:
256,252,34928,6,0,L|156:208,1,90
264,180,35168,2,0,L|380:176,1,90,0|8,0:0|0:0,0:0:0:0:
88,156,35408,2,0,L|192:112,1,90
288,108,35648,1,0,0:0:0:0:
52,124,35768,2,0,L|144:68,1,90,8|0,0:0|0:0,0:0:0:0:
336,52,36008,1,0,0:0:0:0:
140,208,36128,2,0,L|236:140,1,90,0|8,0:0|0:0,0:0:0:0:
420,120,36368,1,0,0:0:0:0:
256,192,36488,12,0,40328,0:0:0:0:
120,208,40568,6,0,L|236:172,1,90,12|0,0:0|0:0,0:0:0:0:
320,152,40808,2,0,L|424:112,1,90,8|0,0:0|0:0,0:0:0:0:
256,192,41048,2,0,L|256:-4,1,180,8|0,0:0|0:0,0:0:0:0:
32,288,41528,6,0,L|152:252,1,90,12|0,0:0|0:0,0:0:0:0:
408,212,41768,2,0,L|520:180,1,90,8|0,0:0|0:0,0:0:0:0:
256,208,42008,2,0,L|256:12,1,180,8|0,0:0|0:0,0:0:0:0:
108,272,42488,6,0,L|0:248,3,90,12|0|8|0,0:0|0:0|0:0|0:0,0:0:0:0:
256,232,42968,2,0,L|256:32,1,180,8|0,0:0|0:0,0:0:0:0:
404,300,43448,6,0,L|520:272,3,90,12|0|8|0,0:0|0:0|0:0|0:0,0:0:0:0:
256,260,43928,2,0,L|256:60,1,180,8|0,0:0|0:0,0:0:0:0:
176,168,44408,6,0,L|56:168,3,90,12|0|0|0,0:0|0:0|0:0|0:0,0:0:0:0:
272,124,44888,2,0,L|160:68,2,90,8|0|0,0:0|0:0|0:0,0:0:0:0:
228,56,45248,2,0,L|344:24,1,90,0|12,0:0|0:0,0:0:0:0:
384,140,45488,2,0,L|324:60,2,90
168,64,45848,2,0,L|112:160,1,90,8|0,0:0|0:0,0:0:0:0:
392,52,46088,2,0,L|448:152,1,90
80,92,46328,6,0,L|284:124,2,180,12|0|8,0:0|0:0|0:0,0:0:0:0:
20,52,46928,1,0,0:0:0:0:
216,176,47048,2,0,L|100:144,1,90
376,128,47288,2,0,L|256:92,2,90,12|0|0,0:0|0:0|0:0,0:0:0:0:
472,152,47648,1,0,0:0:0:0:
164,248,47768,2,0,L|44:212,2,90,8|0|0,0:0|0:0|0:0,0:0:0:0:
260,272,48128,1,0,0:0:0:0:
112,200,48248,6,0,L|76:20,1,180,8|0,0:0|0:0,0:0:0:0:
400,200,48728,2,0,L|436:20,1,180,8|0,0:0|0:0,0:0:0:0:
48,104,49208,1,14,0:0:0:0:
256,100,49448,1,10,0:0:0:0:
464,104,49688,1,10,0:0:0:0:
296,252,50168,6,0,P|436:224|500:192,1,180,8|0,0:0|0:0,0:0:0:0:
216,252,50648,2,0,P|76:224|12:200,1,180,8|0,0:0|0:0,0:0:0:0:
464,104,51128,1,14,0:0:0:0:
256,100,51368,1,10,0:0:0:0:
48,104,51608,1,10,0:0:0:0:
60,220,52088,5,6,0:0:0:0:
456,232,52328,1,2,0:0:0:0:
220,144,52568,1,2,0:0:0:0:
324,148,52808,1,2,0:0:0:0:
180,84,53048,2,0,L|396:84,2,180
44,360,53768,6,0,L|148:84,1,270,4|8,0:0|0:0,0:0:0:0:
352,108,54248,1,8,0:0:0:0:
104,108,54368,1,8,0:0:0:0:
440,108,54488,1,8,0:0:0:0:
256,112,54608,1,8,0:0:0:0:
56,88,54728,1,8,0:0:0:0:
456,88,54848,1,8,0:0:0:0:
256,96,54968,1,14,0:0:0:0:
256,192,55448,12,0,55688,0:0:0:0:
136,176,55928,6,0,L|28:156,1,90,12|0,0:0|0:0,0:0:0:0:
376,172,56168,2,0,L|496:168,1,90,8|0,0:0|0:0,0:0:0:0:
176,108,56408,2,0,L|288:60,3,90,8|0|8|0,0:0|0:0|0:0|0:0,0:0:0:0:
376,72,56888,1,8,0:0:0:0:
44,124,57008,2,0,L|16:16,1,90
436,116,57248,2,0,L|492:16,1,90,0|8,0:0|0:0,0:0:0:0:
256,240,57488,2,2,L|148:232,2,90
256,192,57848,2,2,L|48:176,2,180,10|2|10,0:0|0:0|0:0,0:0:0:0:
144,128,58568,6,0,L|104:28,1,90
352,136,58808,2,0,L|448:108,2,90,8|0|0,0:0|0:0|0:0,0:0:0:0:
72,136,59168,1,0,0:0:0:0:
152,72,59288,2,0,L|264:68,1,90,8|0,0:0|0:0,0:0:0:0:
52,212,59528,2,0,L|148:212,1,90
368,72,59768,6,2,L|256:68,1,90,10|2,0:0|0:0,0:0:0:0:
460,212,60008,2,2,L|364:212,2,90,2|2|10,0:0|0:0|0:0,0:0:0:0:
144,72,60488,6,2,L|256:68,1,90
52,212,60728,2,2,L|148:212,2,90,10|2|2,0:0|0:0|0:0,0:0:0:0:
360,184,61208,5,10,0:0:0:0:
148,192,61328,1,2,0:0:0:0:
360,184,61448,1,2,0:0:0:0:
148,192,61568,1,2,0:0:0:0:
472,168,61688,2,2,L|304:56,1,180,10|0,0:0|0:0,0:0:0:0:
68,80,62048,2,0,L|180:64,1,90,0|8,0:0|0:0,0:0:0:0:
468,80,62288,2,0,L|372:72,1,90
112,148,62528,2,0,L|212:136,1,90,0|8,0:0|0:0,0:0:0:0:
116,96,62768,2,0,L|12:76,2,90,0|4|0,0:0|0:0|0:0,0:0:0:0:
304,112,63128,6,0,L|488:112,2,180,8|0|8,0:0|0:0|0:0,0:0:0:0:
88,260,63728,2,0,L|-16:260,1,90
196,200,63968,2,0,L|84:144,1,90,0|8,0:0|0:0,0:0:0:0:
308,176,64208,2,0,L|240:88,1,90
456,176,64448,2,0,L|460:60,1,90,0|8,0:0|0:0,0:0:0:0:
56,176,64688,2,0,L|52:60,1,90
304,172,64928,2,0,L|308:56,1,90,0|8,0:0|0:0,0:0:0:0:
208,172,65168,2,0,L|136:72,2,90
392,252,65528,6,0,L|500:212,1,90,8|0,0:0|0:0,0:0:0:0:
64,252,65768,2,0,L|160:200,1,90
480,148,66008,2,0,L|376:104,1,90,8|0,0:0|0:0,0:0:0:0:
124,104,66248,2,0,L|20:76,1,90
284,248,66488,2,0,P|356:196|364:96,3,180,8|0|8|0,0:0|0:0|0:0|0:0,0:0:0:0:
108,172,67448,6,0,L|-8:128,1,90,12|0,0:0|0:0,0:0:0:0:
456,172,67688,2,0,L|356:132,1,90
108,132,67928,2,0,L|4:92,1,90,8|0,0:0|0:0,0:0:0:0:
228,120,68168,2,0,L|116:80,1,90
424,168,68408,6,0,L|540:124,1,90,8|0,0:0|0:0,0:0:0:0:
56,172,68648,2,0,L|156:132,1,90
408,92,68888,2,0,L|512:52,1,90,8|0,0:0|0:0,0:0:0:0:
284,72,69128,2,0,L|396:32,1,90
120,216,69368,2,0,L|16:208,1,90,8|0,0:0|0:0,0:0:0:0:
392,216,69608,2,0,L|496:208,1,90
64,204,69848,2,0,L|24:108,1,90,8|0,0:0|0:0,0:0:0:0:
448,204,70088,2,0,L|488:108,1,90
16,120,70328,2,0,L|112:72,1,90,8|0,0:0|0:0,0:0:0:0:
500,104,70568,2,0,L|400:76,1,90
136,88,70808,1,14,0:0:0:0:
256,192,70868,12,0,71288,0:0:0:0:
444,280,71408,6,0,L|404:200,1,90
308,160,71648,2,0,L|416:120,1,90,0|8,0:0|0:0,0:0:0:0:
68,280,71888,2,0,L|108:200,1,90
204,160,72128,2,0,L|96:120,1,90,0|8,0:0|0:0,0:0:0:0:
404,108,72368,6,0,L|296:84,1,90
440,48,72608,2,0,L|340:32,1,90,0|8,0:0|0:0,0:0:0:0:
108,108,72848,2,0,L|216:84,1,90
72,48,73088,2,0,L|172:32,1,90,0|8,0:0|0:0,0:0:0:0:
456,228,73328,6,0,L|352:272,1,90
168,272,73568,2,0,L|128:188,1,90,0|8,0:0|0:0,0:0:0:0:
20,176,73808,2,0,L|68:88,1,90
300,180,74048,2,0,L|192:136,2,90,0|8|0,0:0|0:0|0:0,0:0:0:0:
492,112,74408,2,0,L|384:72,1,90
132,144,74648,2,0,L|20:96,2,90,8|0|0,0:0|0:0|0:0,0:0:0:0:
312,148,75008,1,0,0:0:0:0:
504,144,75128,1,12,0:0:0:0:
180,240,75248,6,0,L|136:148,1,90
332,240,75488,2,0,L|376:148,1,90,0|8,0:0|0:0,0:0:0:0:
92,244,75728,2,0,L|48:152,1,90
420,244,75968,2,0,L|464:152,1,90,0|8,0:0|0:0,0:0:0:0:
204,184,76208,2,0,L|292:112,1,90
64,48,76448,2,0,L|164:32,1,90,0|8,0:0|0:0,0:0:0:0:
359,33,76688,6,0,L|448:48,1,90
238,127,76928,2,0,L|308:184,1,90,0|8,0:0|0:0,0:0:0:0:
53,162,77169,2,0,L|92:244,1,90
459,162,77408,2,0,L|420:244,1,90,0|8,0:0|0:0,0:0:0:0:
140,164,77648,2,0,L|179:246,1,90
376,160,77888,2,0,L|337:242,3,90,0|8|0|0,0:0|0:0|0:0|0:0,0:0:0:0:
400,264,78368,1,0,0:0:0:0:
288,288,78488,1,8,0:0:0:0:
496,332,78608,1,0,0:0:0:0:
176,328,78728,2,4,P|116:280|92:172,1,180,4|12,0:0|0:0,0:0:0:0:
352,188,79088,6,0,L|460:184,1,90
116,116,79328,2,0,L|24:112,1,90,0|8,0:0|0:0,0:0:0:0:
256,116,79568,1,0,0:0:0:0:
472,104,79688,2,0,L|360:104,1,90
32,52,79928,2,0,L|144:52,1,90,8|0,0:0|0:0,0:0:0:0:
344,96,80168,6,0,L|448:56,3,90,0|0|8|0,0:0|0:0|0:0|0:0,0:0:0:0:
168,96,80648,2,0,L|64:56,2,90,0|0|12,0:0|0:0|0:0,0:0:0:0:
352,220,81008,2,0,L|480:212,1,90
244,272,81248,2,0,L|368:296,1,90,0|8,0:0|0:0,0:0:0:0:
100,216,81488,2,0,L|4:216,1,90
196,152,81728,2,0,L|96:144,1,90,0|8,0:0|0:0,0:0:0:0:
304,152,81968,2,8,L|400:152,1,90,0|0,0:0|0:0,0:0:0:0:
256,104,82208,1,2,0:0:0:0:
64,104,82328,1,10,0:0:0:0:
256,84,82448,1,2,0:0:0:0:
476,96,82568,1,2,0:0:0:0:
256,56,82688,1,2,0:0:0:0:
64,48,82808,6,0,L|64:152,1,90,8|0,0:0|0:0,0:0:0:0:
436,56,83048,2,0,L|436:176,1,90
140,220,83288,2,0,L|32:272,1,90,8|0,0:0|0:0,0:0:0:0:
188,288,83528,2,0,L|312:296,1,90
456,268,83768,2,0,L|344:208,2,90,8|0|0,0:0|0:0|0:0,0:0:0:0:
320,228,84128,2,0,L|416:172,2,90,0|8|0,0:0|0:0|0:0,0:0:0:0:
56,208,84488,1,0,0:0:0:0:
376,225,84608,2,0,L|492:225,2,90,0|8|0,0:0|0:0|0:0,0:0:0:0:
172,160,84968,6,0,L|60:148,1,90
200,112,85208,2,0,L|136:44,1,90,8|0,0:0|0:0,0:0:0:0:
184,236,85448,2,0,L|88:200,3,90,0|0|8|0,0:0|0:0|0:0|0:0,0:0:0:0:
376,225,85928,2,0,L|472:189,3,90,0|0|8|0,0:0|0:0|0:0|0:0,0:0:0:0:
256,192,86408,12,0,90248,0:0:0:0:
384,228,90488,6,0,L|268:192,1,90,12|0,0:0|0:0,0:0:0:0:
200,176,90728,2,0,L|96:136,1,90,8|0,0:0|0:0,0:0:0:0:
256,192,90968,2,0,L|256:-4,1,180,8|0,0:0|0:0,0:0:0:0:
480,288,91448,6,0,L|360:252,1,90,12|0,0:0|0:0,0:0:0:0:
104,212,91688,2,0,L|-8:180,1,90,8|0,0:0|0:0,0:0:0:0:
256,208,91928,2,0,L|256:12,1,180,8|0,0:0|0:0,0:0:0:0:
412,312,92408,6,0,L|448:216,1,90,12|0,0:0|0:0,0:0:0:0:
100,312,92648,2,0,L|64:216,1,90,8|0,0:0|0:0,0:0:0:0:
256,232,92888,2,0,L|256:32,1,180,8|0,0:0|0:0,0:0:0:0:
384,294,93368,6,0,L|452:218,1,90,12|0,0:0|0:0,0:0:0:0:
56,236,93608,2,0,L|156:240,1,90,8|0,0:0|0:0,0:0:0:0:
256,260,93848,2,0,L|256:60,1,180,8|0,0:0|0:0,0:0:0:0:
228,212,94328,6,0,L|320:156,1,90,12|0,0:0|0:0,0:0:0:0:
212,136,94568,2,0,L|88:132,1,90
340,180,94808,2,0,L|432:124,1,90,8|0,0:0|0:0,0:0:0:0:
324,104,95048,2,0,L|200:100,1,90
48,124,95288,2,0,L|160:100,3,90,12|0|0|0,0:0|0:0|0:0|0:0,0:0:0:0:
208,158,95768,2,0,L|115:84,3,90,8|0|0|0,0:0|0:0|0:0|0:0,0:0:0:0:
208,158,96248,2,0,L|264:72,3,90,12|0|0|0,0:0|0:0|0:0|0:0,0:0:0:0:
404,96,96728,2,0,L|236:72,2,135,8|0|0,0:0|0:0|0:0,0:0:0:0:
464,144,97208,5,12,0:0:0:0:
48,144,97448,1,0,0:0:0:0:
464,144,97688,1,8,0:0:0:0:
48,144,97928,1,0,0:0:0:0:
36,204,98168,6,0,L|120:44,1,180,8|0,0:0|0:0,0:0:0:0:
484,204,98648,2,0,L|412:32,1,180,8|0,0:0|0:0,0:0:0:0:
48,104,99128,1,14,0:0:0:0:
256,100,99368,1,10,0:0:0:0:
464,104,99608,1,10,0:0:0:0:
400,280,100088,6,0,L|216:200,1,180,12|0,0:0|0:0,0:0:0:0:
112,280,100568,2,0,L|296:200,1,180,8|0,0:0|0:0,0:0:0:0:
464,104,101048,1,14,0:0:0:0:
256,100,101288,1,10,0:0:0:0:
48,104,101528,1,10,0:0:0:0:
132,216,102008,5,6,0:0:0:0:
372,224,102248,1,2,0:0:0:0:
12,144,102488,1,2,0:0:0:0:
496,152,102728,1,2,0:0:0:0:
180,84,102968,2,0,L|396:84,2,180
44,360,103688,6,0,L|148:84,1,270,0|10,0:0|0:0,0:0:0:0:
368,112,104168,1,10,0:0:0:0:
256,112,104288,1,10,0:0:0:0:
152,116,104408,1,10,0:0:0:0:
464,168,104528,1,2,0:0:0:0:
256,168,104648,1,2,0:0:0:0:
60,164,104768,1,2,0:0:0:0:
256,232,104888,1,14,0:0:0:0:
256,192,105368,12,0,105608,0:0:0:0:
144,236,105848,6,0,L|24:224,1,90,12|0,0:0|0:0,0:0:0:0:
376,232,106088,2,0,L|488:232,1,90
192,168,106328,1,8,0:0:0:0:
376,160,106448,1,0,0:0:0:0:
136,104,106568,2,0,L|252:96,1,90
40,116,106808,2,0,L|40:24,1,90,8|0,0:0|0:0,0:0:0:0:
356,116,107048,2,0,L|356:24,1,90
156,116,107288,2,0,L|156:24,1,90,8|0,0:0|0:0,0:0:0:0:
472,116,107528,2,0,L|472:24,1,90
216,268,107768,2,2,L|48:172,3,180,10|2|10|2,0:0|0:0|0:0|0:0,0:0:0:0:
284,192,108728,6,0,L|352:92,2,90,8|0|0,0:0|0:0|0:0,0:0:0:0:
100,148,109088,1,0,0:0:0:0:
340,272,109208,2,0,L|444:244,2,90,8|0|0,0:0|0:0|0:0,0:0:0:0:
48,248,109568,1,0,0:0:0:0:
136,240,109688,6,0,L|240:208,2,90,12|0|0,0:0|0:0|0:0,0:0:0:0:
404,124,110048,2,0,L|288:76,2,90,0|8|0,0:0|0:0|0:0,0:0:0:0:
152,80,110408,2,0,L|52:132,1,90
400,88,110648,2,0,L|280:136,1,90,8|0,0:0|0:0,0:0:0:0:
440,92,110888,2,0,L|440:204,1,90
188,256,111128,1,8,0:0:0:0:
456,260,111248,1,0,0:0:0:0:
236,200,111368,6,0,L|152:140,1,90
236,88,111608,2,0,L|124:76,1,90,8|0,0:0|0:0,0:0:0:0:
392,112,111848,2,0,L|512:112,1,90
336,152,112088,2,0,L|264:220,1,90,8|0,0:0|0:0,0:0:0:0:
64,268,112328,2,0,L|168:192,1,90
56,216,112568,2,0,L|0:132,1,90,8|0,0:0|0:0,0:0:0:0:
448,268,112808,2,0,L|344:192,1,90,4|0,0:0|0:0,0:0:0:0:
88,132,113048,2,0,L|200:136,1,90,8|0,0:0|0:0,0:0:0:0:
304,136,113288,2,0,L|416:140,1,90
56,96,113528,5,14,0:0:0:0:
340,88,113648,1,0,0:0:0:0:
144,208,113768,2,0,L|240:240,3,90,0|0|8|0,0:0|0:0|0:0|0:0,0:0:0:0:
457,192,114248,2,0,L|365:208,1,90
124,224,114488,2,0,L|32:240,1,90,8|0,0:0|0:0,0:0:0:0:
457,192,114728,2,0,L|365:208,1,90
124,224,114968,2,0,L|32:240,2,90,8|0|0,0:0|0:0|0:0,0:0:0:0:
324,168,115328,6,0,L|424:92,1,90,0|14,0:0|0:0,0:0:0:0:
160,116,115568,2,0,L|64:52,1,90
348,112,115808,2,0,L|436:52,1,90,0|14,0:0|0:0,0:0:0:0:
352,244,116048,2,0,L|472:240,1,90
35,239,116288,2,0,L|99:151,1,90,0|14,0:0|0:0,0:0:0:0:
304,244,116528,2,0,L|368:156,1,90,0|14,0:0|0:0,0:0:0:0:
168,248,116768,2,0,L|232:160,1,90,0|14,0:0|0:0,0:0:0:0:
448,248,117008,2,0,L|512:160,1,90
224,160,117248,6,0,L|336:160,1,90,0|12,0:0|0:0,0:0:0:0:
56,164,117488,1,0,0:0:0:0:
324,164,117608,2,0,L|216:164,1,90
480,160,117848,1,8,0:0:0:0:
208,160,117968,2,0,L|328:160,1,90
48,124,118208,2,0,L|132:76,3,90,0|8|0|0,0:0|0:0|0:0|0:0,0:0:0:0:
336,88,118688,2,0,L|444:88,1,90,0|8,0:0|0:0,0:0:0:0:
152,192,118928,2,0,L|276:200,1,90
340,212,119168,2,0,L|444:196,1,90,0|8,0:0|0:0,0:0:0:0:
120,128,119408,2,0,L|244:136,1,90
308,148,119648,2,0,L|412:132,1,90,0|8,0:0|0:0,0:0:0:0:
126,101,119888,6,0,L|40:128,1,90
274,143,120128,2,0,L|196:188,1,90,0|8,0:0|0:0,0:0:0:0:
395,195,120368,2,0,L|328:256,2,90
164,208,120728,2,0,L|80:148,1,90,8|14,0:0|0:0,0:0:0:0:
