osu file format v12

[General]
AudioFilename: freedman.mp3
AudioLeadIn: 0
PreviewTime: 80580
Countdown: 0
SampleSet: Normal
StackLeniency: 0.7
Mode: 0
LetterboxInBreaks: 0
EpilepsyWarning: 1
WidescreenStoryboard: 1

[Editor]
Bookmarks: 76200,130825,139388
DistanceSpacing: 1
BeatDivisor: 4
GridSize: 4

[Metadata]
Title:FREEDMAN
TitleUnicode:FREEDMAN
Artist:FujuniseikouyuuP
ArtistUnicode:不純異性交遊P
Creator:val0108
Version:Easy
Source:
Tags:HujuniseikouyuuP Vocaloid Megpoid GUMI Nanahoshi Kangengakudan Seven Stars Orchestra W_h_i_t_e Raose iyasine nouk qoot8123
BeatmapID:291432
BeatmapSetID:108529

[Difficulty]
HPDrainRate:2
CircleSize:2
OverallDifficulty:2
ApproachRate:2
SliderMultiplier:0.6
SliderTickRate:1

[Events]
//Background and Video events
0,0,"freedman.png",0,0
//Break Periods
2,101088,107078
//Storyboard Layer 0 (Background)
//Storyboard Layer 1 (Fail)
//Storyboard Layer 2 (Pass)
//Storyboard Layer 3 (Foreground)
//Storyboard Sound Samples
//Background Colour Transformations
3,100,163,162,255

[TimingPoints]
638,250,4,1,1,70,1,0
23013,-100,4,1,2,70,0,0
23263,-100,4,1,1,70,0,0
65013,-100,4,1,2,70,0,0
65263,-100,4,1,1,70,0,0
67013,-100,4,1,2,70,0,0
67263,-100,4,1,1,70,0,0
80638,-100,4,1,1,70,0,1
100888,-100,4,1,1,70,0,0
108638,-100,4,2,1,50,0,0
120638,-100,4,1,1,70,0,0
125013,-100,4,1,2,70,0,0
125263,-100,4,1,1,70,0,0
127013,-100,4,1,2,70,0,0
127263,-100,4,1,1,70,0,0
140638,-100,4,1,1,70,0,1
160638,-100,4,1,1,70,0,0
164575,-100,4,2,1,5,0,0

[Colours]
Combo1 : 255,0,128
Combo2 : 192,192,192
Combo3 : 0,255,0
Combo4 : 255,255,255

[HitObjects]
36,128,12138,6,2,P|96:92|148:84,1,120
256,128,13138,5,8,0:0:0:0:
174,215,13638,2,0,P|214:275|256:296,1,120,0|8,0:0|0:0,0:0:0:0:
337,215,14638,2,0,P|297:275|256:296,1,120,0|8,0:0|0:0,0:0:0:0:
256,176,15638,2,0,B|260:128|260:128|248:112|248:112|256:52,1,120,0|8,0:0|0:0,0:0:0:0:
140,16,16638,5,4,0:0:0:0:
48,92,17138,1,8,0:0:0:0:
144,164,17638,2,0,B|144:220|144:220|172:296,1,120,0|8,0:0|0:0,0:0:0:0:
280,312,18638,5,4,0:0:0:0:
360,224,19138,1,8,0:0:0:0:
256,168,19638,2,0,B|256:96|256:96|296:44,1,120,0|8,0:0|0:0,0:0:0:0:
364,148,20638,6,0,P|392:204|400:292,1,120,4|8,0:0|0:0,0:0:0:0:
332,360,21638,2,0,P|304:304|296:216,1,120,0|8,0:0|0:0,0:0:0:0:
403,260,22638,6,0,P|303:284|184:216,1,240,4|0,0:0|0:0,0:0:0:0:
232,108,24138,1,8,0:0:0:0:
336,52,24638,5,4,0:0:0:0:
404,152,25138,1,8,0:0:0:0:
396,272,25638,1,0,0:0:0:0:
284,316,26138,1,8,0:0:0:0:
172,276,26638,5,4,0:0:0:0:
128,164,27138,1,8,0:0:0:0:
176,52,27638,1,0,0:0:0:0:
296,36,28138,1,8,0:0:0:0:
376,124,28638,6,0,P|328:156|264:152,1,120,4|8,0:0|0:0,0:0:0:0:
148,160,29638,2,0,B|136:208|136:208|144:220|144:220|124:296,1,120,0|8,0:0|0:0,0:0:0:0:
228,348,30638,1,8,0:0:0:0:
64,100,32638,6,0,L|208:100,1,120,4|0,0:0|0:0,0:0:0:0:
304,100,33638,1,0,0:0:0:0:
396,176,34138,1,8,0:0:0:0:
340,284,34638,5,0,0:0:0:0:
224,256,35138,1,8,0:0:0:0:
192,140,35638,2,2,L|308:100,1,120,2|8,0:0|0:0,0:0:0:0:
412,160,36638,5,4,0:0:0:0:
444,276,37138,1,8,0:0:0:0:
348,344,37638,2,0,L|280:368,2,60,0|0|8,0:0|0:0|0:0,0:0:0:0:
256,264,38638,5,0,0:0:0:0:
256,144,39138,1,8,0:0:0:0:
148,96,39638,1,0,0:0:0:0:
256,44,40138,1,8,0:0:0:0:
364,96,40638,6,0,P|344:152|268:224,1,120,4|8,0:0|0:0,0:0:0:0:
196,244,41638,1,0,0:0:0:0:
276,332,42138,1,8,0:0:0:0:
380,272,42638,6,0,P|420:232|424:160,1,120,0|8,0:0|0:0,0:0:0:0:
372,64,43638,2,0,P|332:104|328:176,1,120,0|8,0:0|0:0,0:0:0:0:
248,256,44638,5,4,0:0:0:0:
128,276,45138,1,8,0:0:0:0:
48,188,45638,1,0,0:0:0:0:
84,72,46138,1,8,0:0:0:0:
180,144,46638,6,0,P|240:148|308:120,1,120,4|8,0:0|0:0,0:0:0:0:
400,64,47638,2,0,L|484:64,2,60,0|0|8,0:0|0:0|0:0,0:0:0:0:
284,28,48638,6,0,L|152:28,1,120,4|8,0:0|0:0,0:0:0:0:
72,104,49638,1,0,0:0:0:0:
108,216,50138,1,8,0:0:0:0:
164,324,50638,6,0,P|216:344|296:316,1,120,0|8,0:0|0:0,0:0:0:0:
221,222,51638,2,0,P|169:202|89:230,1,120,0|8,0:0|0:0,0:0:0:0:
64,328,52638,5,4,0:0:0:0:
172,352,53138,1,8,0:0:0:0:
288,344,53638,1,0,0:0:0:0:
392,280,54138,1,8,0:0:0:0:
308,192,54638,5,0,0:0:0:0:
268,80,55138,1,8,0:0:0:0:
384,52,55638,1,0,0:0:0:0:
424,164,56138,1,8,0:0:0:0:
308,192,56638,6,0,L|172:224,1,120,4|8,0:0|0:0,0:0:0:0:
104,136,57638,2,0,L|240:104,1,120,0|8,0:0|0:0,0:0:0:0:
340,96,58638,2,0,P|396:144|408:208,1,120,0|8,0:0|0:0,0:0:0:0:
288,200,59638,2,0,P|232:152|220:88,1,120,0|8,0:0|0:0,0:0:0:0:
120,44,60638,5,4,0:0:0:0:
56,144,61138,1,8,0:0:0:0:
84,260,61638,1,0,0:0:0:0:
184,324,62138,1,8,0:0:0:0:
304,312,62638,6,0,L|368:340,2,60,4|0|8,0:0|0:0|0:0,0:0:0:0:
232,216,63638,2,0,P|304:192|384:216,1,120,0|8,0:0|0:0,0:0:0:0:
416,296,64638,6,0,P|436:172|356:68,1,240,4|0,0:0|0:0,0:0:0:0:
256,100,66138,1,8,0:0:0:0:
135,81,66638,2,0,P|76:172|96:296,1,240,4|0,0:0|0:0,0:0:0:0:
200,356,68138,1,8,0:0:0:0:
256,256,68638,6,0,L|312:316,2,60,4|0|8,0:0|0:0|0:0,0:0:0:0:
256,128,69638,2,0,L|200:68,2,60,0|0|8,0:0|0:0|0:0,0:0:0:0:
364,192,70638,5,0,0:0:0:0:
256,256,71138,1,8,0:0:0:0:
148,192,71638,1,0,0:0:0:0:
256,128,72138,1,8,0:0:0:0:
364,192,72638,6,0,P|372:236|360:312,1,120,4|8,0:0|0:0,0:0:0:0:
256,372,73638,1,0,0:0:0:0:
256,252,74138,1,8,0:0:0:0:
148,192,74638,6,0,P|140:148|152:72,1,120,4|8,0:0|0:0,0:0:0:0:
268,52,75638,2,0,L|336:8,2,60,0|0|8,0:0|0:0|0:0,0:0:0:0:
200,152,76638,5,4,0:0:0:0:
140,256,77138,1,8,0:0:0:0:
260,244,77638,1,0,0:0:0:0:
312,136,78138,1,8,0:0:0:0:
396,48,78638,6,0,L|452:176,1,120,4|8,0:0|0:0,0:0:0:0:
356,172,79513,2,0,B|309:69|309:69|280:48|236:52,1,180,4|8,0:0|0:0,0:0:0:0:
196,124,80638,6,0,P|144:144|68:136,1,120,4|8,0:0|0:0,0:0:0:0:
40,220,81513,2,0,P|32:312|68:380,1,150,4|8,0:0|0:0,0:0:0:0:
176,368,82638,5,4,0:0:0:0:
280,308,83138,1,8,0:0:0:0:
324,196,83638,1,0,0:0:0:0:
292,80,84138,1,8,0:0:0:0:
172,76,84638,6,0,P|192:140|244:180,1,120,4|8,0:0|0:0,0:0:0:0:
324,196,85513,2,0,P|356:236|360:352,1,150,4|8,0:0|0:0,0:0:0:0:
248,352,86638,5,4,0:0:0:0:
128,352,87138,1,8,0:0:0:0:
128,232,87638,1,0,0:0:0:0:
248,232,88138,1,8,0:0:0:0:
352,292,88638,6,0,P|412:264|444:208,1,120,4|8,0:0|0:0,0:0:0:0:
432,132,89513,2,0,P|384:100|276:92,1,150,4|8,0:0|0:0,0:0:0:0:
176,100,90638,5,4,0:0:0:0:
100,192,91138,1,8,0:0:0:0:
124,308,91638,1,0,0:0:0:0:
228,364,92138,1,8,0:0:0:0:
340,324,92638,6,0,P|392:284|400:216,1,120,4|8,0:0|0:0,0:0:0:0:
312,236,93513,2,0,L|156:168,1,150,4|8,0:0|0:0,0:0:0:0:
108,76,94638,6,0,L|208:44,2,90,4|8|8,0:0|0:0|0:0,0:0:0:0:
64,116,95638,2,0,P|60:176|64:216,2,90,4|8|8,0:0|0:0|0:0,0:0:0:0:
124,104,96638,6,0,L|264:68,1,120,4|8,0:0|0:0,0:0:0:0:
276,188,97638,2,0,L|416:152,1,120,0|8,0:0|0:0,0:0:0:0:
256,192,98638,12,4,100888,0:0:0:0:
228,356,108638,6,0,L|360:356,1,120,4|8,0:0|0:0,0:0:0:0:
440,280,109638,1,0,0:0:0:0:
404,168,110138,1,2,0:0:0:0:
348,60,110638,6,0,P|296:40|216:68,1,120,4|2,0:0|0:0,0:0:0:0:
291,162,111638,2,0,P|343:182|423:154,1,120,0|2,0:0|0:0,0:0:0:0:
448,56,112638,5,0,0:0:0:0:
340,32,113138,1,2,0:0:0:0:
224,40,113638,1,0,0:0:0:0:
120,104,114138,1,2,0:0:0:0:
204,192,114638,5,4,0:0:0:0:
244,304,115138,1,2,0:0:0:0:
128,332,115638,1,0,0:0:0:0:
88,220,116138,1,2,0:0:0:0:
204,192,116638,6,0,L|340:160,1,120,4|2,0:0|0:0,0:0:0:0:
408,248,117638,2,0,L|272:280,1,120,0|2,0:0|0:0,0:0:0:0:
172,288,118638,2,0,P|116:240|104:176,1,120,0|2,0:0|0:0,0:0:0:0:
224,184,119638,2,0,P|280:232|292:296,1,120,0|2,0:0|0:0,0:0:0:0:
392,340,120638,5,4,0:0:0:0:
456,240,121138,1,8,0:0:0:0:
428,124,121638,1,0,0:0:0:0:
328,60,122138,1,8,0:0:0:0:
208,72,122638,6,0,L|144:44,2,60,4|0|8,0:0|0:0|0:0,0:0:0:0:
280,168,123638,2,0,P|208:192|128:168,1,120,4|8,0:0|0:0,0:0:0:0:
104,84,124638,6,0,B|56:156|56:156|68:256|152:288,1,240,4|0,0:0|0:0,0:0:0:0:
256,284,126138,1,8,0:0:0:0:
377,280,126638,2,0,B|444:256|456:156|456:156|408:84,1,240,4|0,0:0|0:0,0:0:0:0:
308,20,128138,1,8,0:0:0:0:
256,128,128638,6,0,P|224:96|184:80,2,60,4|0|8,0:0|0:0|0:0,0:0:0:0:
256,256,129638,2,0,P|272:284|312:316,2,60,0|0|8,0:0|0:0|0:0,0:0:0:0:
148,192,130638,5,4,0:0:0:0:
256,128,131138,1,8,0:0:0:0:
364,192,131638,1,0,0:0:0:0:
256,256,132138,1,8,0:0:0:0:
148,192,132638,6,0,B|136:124|136:124|152:72,1,120,4|8,0:0|0:0,0:0:0:0:
256,12,133638,1,0,0:0:0:0:
256,132,134138,1,8,0:0:0:0:
364,192,134638,6,0,B|376:256|376:256|360:312,1,120,4|8,0:0|0:0,0:0:0:0:
244,332,135638,2,0,L|176:376,2,60,4|0|8,0:0|0:0|0:0,0:0:0:0:
312,232,136638,5,4,0:0:0:0:
372,128,137138,1,8,0:0:0:0:
252,140,137638,1,0,0:0:0:0:
200,248,138138,1,8,0:0:0:0:
116,336,138638,6,0,P|72:280|60:208,1,120,4|8,0:0|0:0,0:0:0:0:
123,170,139513,2,0,B|120:80|120:80|39:6,1,180,4|8,0:0|0:0,0:0:0:0:
4,96,140638,6,0,L|136:96,1,120,4|8,0:0|0:0,0:0:0:0:
208,124,141513,2,0,P|224:204|200:284,1,150,4|8,0:0|0:0,0:0:0:0:
108,340,142638,5,4,0:0:0:0:
60,228,143138,1,8,0:0:0:0:
164,284,143638,1,0,0:0:0:0:
284,300,144138,1,8,0:0:0:0:
404,284,144638,6,0,P|464:224|480:184,1,120,4|8,0:0|0:0,0:0:0:0:
448,108,145513,2,0,P|376:80|316:16,1,150,4|8,0:0|0:0,0:0:0:0:
204,36,146638,5,4,0:0:0:0:
172,152,147138,1,8,0:0:0:0:
136,268,147638,1,4,0:0:0:0:
100,380,148138,1,8,0:0:0:0:
28,284,148638,6,0,P|0:224|20:164,1,120,4|8,0:0|0:0,0:0:0:0:
56,96,149513,2,0,P|104:48|200:28,1,150,4|8,0:0|0:0,0:0:0:0:
244,128,150638,5,4,0:0:0:0:
180,228,151138,1,8,0:0:0:0:
252,324,151638,1,0,0:0:0:0:
364,284,152138,1,8,0:0:0:0:
360,164,152638,6,0,P|360:88|344:48,1,120,4|8,0:0|0:0,0:0:0:0:
256,28,153513,2,0,P|212:68|112:84,1,150,4|8,0:0|0:0,0:0:0:0:
120,208,154638,6,0,P|164:252|173:294,2,90,4|8|8,0:0|0:0|0:0,0:0:0:0:
62,218,155638,2,0,P|17:173|8:131,2,90,4|8|8,0:0|0:0|0:0,0:0:0:0:
112,252,156638,6,0,P|180:252|232:232,1,120,4|8,0:0|0:0,0:0:0:0:
316,316,157638,2,0,P|361:265|381:213,1,120,4|8,0:0|0:0,0:0:0:0:
256,192,158638,12,4,160638,0:0:0:0:
