osu file format v10

[General]
AudioFilename: Daydream Syndrome (TV Size).mp3
AudioLeadIn: 1000
PreviewTime: 55337
Countdown: 0
SampleSet: Normal
StackLeniency: 0.7
Mode: 0
LetterboxInBreaks: 0

[Editor]
DistanceSpacing: 1
BeatDivisor: 4
GridSize: 4

[Metadata]
Title:Daydream Syndrome (TV Size)
TitleUnicode:Daydream Syndrome (TV Size)
Artist:Fujiwara Marina
ArtistUnicode:Fujiwara Marina
Creator:Mythol
Version:Insane
Source:Yumekui Merry
Tags:dream eater opening Laurier Melophobia Frostmourne
BeatmapID:159335
BeatmapSetID:52059

[Difficulty]
HPDrainRate:7
CircleSize:4
OverallDifficulty:7
ApproachRate:9
SliderMultiplier:1.8
SliderTickRate:2

[Events]
//Background and Video events
0,0,"daydream.jpg"
Video,-167,"Merry.avi"
//Break Periods
//Storyboard Layer 0 (Background)
//Storyboard Layer 1 (Fail)
//Storyboard Layer 2 (Pass)
//Storyboard Layer 3 (Foreground)
//Storyboard Sound Samples
//Background Colour Transformations
3,100,0,0,0

[TimingPoints]
-2,291.26213592233,4,2,0,10,1,0
2328,-100,4,1,1,50,0,0
15289,-100,4,2,1,50,0,0
16308,-125,4,2,1,50,0,0
25629,-100,4,1,1,40,0,0
32036,-100,4,1,1,50,0,0
34949,-125,4,2,1,35,0,0
39464,-100,4,1,1,40,0,1
39536,-100,4,1,1,40,0,0
43978,-125,4,2,1,35,0,0
48784,-100,4,1,1,40,0,1
48857,-100,4,1,1,40,0,0
55337,-100,4,2,1,40,0,0
55774,-100,4,1,1,50,0,1
65022,-100,4,1,1,50,0,0
65095,-100,4,1,1,50,0,1
74269,-100,4,1,1,40,0,0
78638,-100,4,1,1,20,0,0
79221,-100,4,1,1,50,0,0

[Colours]
Combo1 : 255,104,104
Combo2 : 255,128,192
Combo3 : 165,255,74
Combo4 : 234,0,234

[HitObjects]
256,192,871,12,0,2036,0:0:0
200,136,2328,6,0,B|152:120|104:144,1,90,4|0,0:0|0:0,0:0:0
312,248,2619,2,0,B|360:264|408:240,1,90,0|0,0:0|0:0,0:0:0
200,248,3201,6,0,B|152:264|104:240,1,90,0|0,0:0|0:0,0:0:0
312,136,3493,2,0,B|360:120|408:144,1,90,0|0,0:0|0:0,0:0:0
210,172,4075,1,0,0:0:0
205,163,4221,1,0,0:0:0
202,154,4366,1,0,0:0:0
201,145,4512,1,0,0:0:0
200,136,4658,6,0,B|184:88|208:40,1,90,4|0,0:0|0:0,0:0:0
312,248,4949,2,0,B|328:296|304:344,1,90,0|0,0:0|0:0,0:0:0
312,136,5531,6,0,B|328:88|304:40,1,90,0|0,0:0|0:0,0:0:0
200,248,5823,2,0,B|184:296|208:344,1,90,0|0,0:0|0:0,0:0:0
397,58,6405,1,0,0:0:0
397,58,6551,2,0,B|312:0|225:59,1,180,0|0,0:0|0:0,0:0:0
256,144,6988,6,0,B|276:196|248:256,1,90,4|0,0:0|0:0,0:0:0
196,300,7279,1,8,0:0:0
152,200,7425,1,0,0:0:0
88,284,7570,2,0,B|36:308|-12:284,1,90,0|0,0:0|0:0,0:0:0
45,189,7862,1,8,0:0:0
152,200,8007,6,0,B|240:260|348:192,1,180,0|0,0:0|0:0,0:0:0
396,128,8444,2,0,B|360:88|304:104,1,90,8|0,0:0|0:0,0:0:0
413,207,8735,2,0,B|465:195|479:139,1,90,0|0,0:0|0:0,0:0:0
335,184,9027,2,0,B|318:235|360:275,1,90,8|0,0:0|0:0,0:0:0
439,299,9318,5,4,0:0:0
367,353,9464,1,0,0:0:0
278,344,9609,1,8,0:0:0
202,294,9755,1,0,0:0:0
280,252,9900,5,0,0:0:0
212,380,10046,1,0,0:0:0
132,260,10192,1,8,0:0:0
212,220,10337,2,0,B|260:180|260:84|196:48,1,180,0|0,0:0|0:0,0:0:0
68,52,10774,1,8,0:0:0
132,140,10920,1,0,0:0:0
44,200,11065,2,0,B|32:245|55:298,1,90
152,332,11357,2,0,B|188:292|256:304,1,90,8|0,0:0|0:0,0:0:0
152,332,11648,6,0,B|96:240|140:152,1,180,4|8,0:0|0:0,0:0:0
228,100,12085,1,0,0:0:0
320,156,12231,2,0,B|372:164|404:136,2,90,0|0|8,0:0|0:0|0:0,0:0:0
225,206,12667,2,0,B|249:258|317:262|317:262|341:334,1,180,0|0,0:0|0:0,0:0:0
248,335,13104,1,8,0:0:0
300,180,13250,1,0,0:0:0
212,116,13396,5,0,0:0:0
191,116,13468,1,0,0:0:0
170,116,13541,1,0,0:0:0
149,116,13614,1,0,0:0:0
128,116,13687,1,8,0:0:0
107,116,13760,1,0,0:0:0
86,116,13832,1,0,0:0:0
65,116,13905,1,0,0:0:0
44,116,13978,5,0,0:0:0
100,220,14124,1,0,0:0:0
468,116,14415,1,0,0:0:0
412,220,14561,1,0,0:0:0
256,24,14852,1,0,0:0:0
256,140,14997,2,0,B|256:340,1,180,0|0,0:0|0:0,0:0:0
256,320,15434,5,2,0:0:0
384,192,15726,1,2,0:0:0
128,192,16017,1,2,0:0:0
380,304,16308,5,6,0:0:0
447,84,16599,5,0,0:0:0
365,111,16745,2,0,B|296:148|214:110,1,144,0|0,0:0|0:0,0:0:0
150,71,17182,1,0,0:0:0
86,129,17328,2,0,B|46:199|92:276,1,144,0|0,0:0|0:0,0:0:0
164,228,17764,1,0,0:0:0
297,226,18056,5,0,0:0:0
236,288,18201,1,8,0:0:0
164,228,18347,1,0,0:0:0
236,288,18493,1,8,0:0:0
231,173,18638,1,8,0:0:0
371,71,18930,5,0,0:0:0
419,142,19075,2,0,B|453:219|418:293,2,144,0|0|0,0:0|0:0|0:0,0:0:0
280,246,19949,1,0,0:0:0
208,316,20095,1,0,0:0:0
140,244,20240,1,0,0:0:0
284,320,20386,5,0,0:0:0
136,320,20531,1,8,0:0:0
284,320,20677,1,0,0:0:0
136,320,20823,1,8,0:0:0
284,320,20968,6,0,B|336:332|384:280|362:217,1,144,8|0,0:0|0:0,0:0:0
280,246,21405,2,0,B|228:258|180:206|202:143,1,144,0|0,0:0|0:0,0:0:0
192,72,21842,1,0,0:0:0
276,92,21988,2,0,B|349:48|428:104,1,144,0|0,0:0|0:0,0:0:0
339,189,22425,2,0,B|266:233|185:182,1,144,0|0,0:0|0:0,0:0:0
224,108,22862,1,8,0:0:0
256,280,23007,2,0,B|268:325|253:365,1,72,0|8,0:0|0:0,0:0:0
178,319,23298,6,0,B|129:256,1,72,0|0,0:0|0:0,0:0:0
378,262,23590,2,0,B|334:319,1,72,0|0,0:0|0:0,0:0:0
209,176,23881,2,0,B|195:103,1,72,0|0,0:0|0:0,0:0:0
316,105,24172,2,0,B|303:176,1,72,0|0,0:0|0:0,0:0:0
256,248,24464,6,0,B|188:292|112:248,1,144,0|0,0:0|0:0,0:0:0
188,168,24900,1,0,0:0:0
256,248,25046,2,0,B|324:292|400:248,1,144,8|0,0:0|0:0,0:0:0
324,168,25483,1,8,0:0:0
188,168,25629,5,12,0:0:0
256,248,25774,1,0,0:0:0
324,168,25920,1,8,0:0:0
407,236,26065,2,0,B|432:284|404:348,2,90,0|0|0,0:0|0:0|0:0,0:0:0
330,283,26502,1,8,0:0:0
257,336,26648,2,0,B|167:390|59:328,1,180,0|0,0:0|0:0,0:0:0
48,258,27085,1,8,0:0:0
133,99,27376,5,0,0:0:0
48,258,27522,1,0,0:0:0
220,161,27667,1,8,0:0:0
38,151,27813,1,0,0:0:0
127,196,27959,2,0,B|138:255|206:271,1,90,4|0,0:0|0:0,0:0:0
220,161,28250,5,8,0:0:0
271,343,28396,2,0,B|179:384|103:318,1,180,0|0,0:0|0:0,0:0:0
84,184,28832,1,8,0:0:0
220,161,28978,2,0,B|328:160,2,90
147,90,29415,1,8,0:0:0
147,90,29706,5,0,0:0:0
242,39,29852,1,0,0:0:0
266,180,29997,1,8,0:0:0
361,129,30143,1,0,0:0:0
355,237,30289,2,0,B|374:289|354:334,1,90,4|0,0:0|0:0,0:0:0
275,286,30580,5,8,0:0:0
200,336,30726,2,0,B|114:384|15:332,1,180,0|0,0:0|0:0,0:0:0
112,222,31163,1,8,0:0:0
112,222,31308,2,0,B|198:174|297:226,1,180,0|0,0:0|0:0,0:0:0
356,274,31745,1,8,0:0:0
458,126,32036,5,0,0:0:0
381,36,32182,1,0,0:0:0
308,128,32328,1,8,0:0:0
308,128,32400,1,0,0:0:0
308,128,32473,1,0,0:0:0
384,176,32619,6,0,B|404:224|464:232,1,90,4|0,0:0|0:0,0:0:0
296,214,32910,1,8,0:0:0
296,214,32983,1,0,0:0:0
296,214,33056,1,0,0:0:0
206,214,33201,6,0,B|158:194|152:146,1,90,4|0,0:0|0:0,0:0:0
168,302,33493,1,8,0:0:0
168,302,33565,1,0,0:0:0
168,302,33638,1,0,0:0:0
256,318,33784,6,0,B|304:338|310:386,2,90,0|0|8,0:0|0:0|0:0,0:0:0
206,214,34221,1,0,0:0:0
280,124,34366,2,0,B|324:107|375:125,1,90
296,214,34658,1,8,0:0:0
206,214,34803,1,0,0:0:0
122,227,34949,6,0,B|71:168|87:79,1,144,0|0,0:0|0:0,0:0:0
150,35,35386,1,0,0:0:0
201,103,35531,2,0,B|276:141|364:94,1,144,0|0,0:0|0:0,0:0:0
270,32,35968,1,0,0:0:0
195,191,36114,6,0,B|153:259|204:354,1,144,0|0,0:0|0:0,0:0:0
256,260,36551,1,0,0:0:0
319,329,36697,2,0,B|359:259|317:191,1,144,0|0,0:0|0:0,0:0:0
200,103,37133,5,0,0:0:0
135,71,37279,2,0,B|107:147|160:209|250:204|301:156|298:77|257:28|194:31,1,360,0|0,0:0|0:0,0:0:0
65,22,38153,1,0,0:0:0
65,22,38298,2,0,B|4:129|93:227,1,216,0|0,0:0|0:0,0:0:0
184,216,38881,1,0,0:0:0
274,242,39027,2,0,B|302:328,1,72,0|0,0:0|0:0,0:0:0
379,335,39318,1,0,0:0:0
210,302,39464,6,0,B|181:208,1,90,4|0,0:0|0:0,0:0:0
224,136,39755,1,0,0:0:0
310,160,39900,2,0,B|356:174|405:148,1,90,8|0,0:0|0:0,0:0:0
366,47,40192,2,0,B|407:24|453:38,2,90,0|0|8,0:0|0:0|0:0,0:0:0
276,32,40629,2,0,B|224:63|186:40|148:15|98:48,1,180,4|0,0:0|0:0,0:0:0
149,124,41065,2,0,B|168:174|146:232,1,90,8|0,0:0|0:0,0:0:0
22,172,41357,2,0,B|3:122|25:64,1,90,0|0,0:0|0:0,0:0:0
102,46,41648,1,8,0:0:0
152,212,41794,6,0,B|212:248|280:200|268:128,1,180,4|0,0:0|0:0,0:0:0
324,40,42231,1,8,0:0:0
428,68,42376,1,0,0:0:0
426,176,42522,2,0,B|392:219|410:289,1,90,0|0,0:0|0:0,0:0:0
337,345,42813,1,8,0:0:0
236,303,42959,1,0,0:0:0
273,202,43104,2,0,B|307:159|289:89,1,90,0|0,0:0|0:0,0:0:0
214,42,43396,2,0,B|180:85|198:155,1,90,8|0,0:0|0:0,0:0:0
100,184,43687,2,0,B|52:196|10:170,1,90,0|0,0:0|0:0,0:0:0
68,87,43978,5,0,0:0:0
100,183,44124,1,0,0:0:0
56,273,44269,2,0,B|57:360|142:387,1,144,0|0,0:0|0:0,0:0:0
281,296,44852,2,0,B|346:244|418:285,1,144,0|0,0:0|0:0,0:0:0
392,114,45434,6,0,B|240:114,1,144,0|0,0:0|0:0,0:0:0
120,270,46017,2,0,B|272:270,1,144,0|0,0:0|0:0,0:0:0
392,114,46599,6,0,B|388:139|388:139|401:139|401:139|388:158|388:158|400:158|400:158|388:178|388:178|400:178|400:178|388:200|388:200|400:200|400:200|388:220|388:220|401:220|401:220|387:243|387:243|401:243|401:243|387:265|387:265|400:265|400:265|394:274|394:274|394:298,1,288,0|0,0:0|0:0,0:0:0
256,183,47473,1,0,0:0:0
256,183,47619,2,0,B|256:34,2,144,0|0|0,0:0|0:0|0:0,0:0:0
199,249,48347,2,0,B|178:289|201:343,1,72,0|0,0:0|0:0,0:0:0
276,292,48638,5,0,0:0:0
276,292,48711,1,0,0:0:0
276,292,48784,2,0,B|368:336|456:288,1,180,4|0,0:0|0:0,0:0:0
504,200,49221,2,0,B|460:172|396:204,1,90,8|0,0:0|0:0,0:0:0
332,164,49512,1,0,0:0:0
332,164,49658,2,0,B|291:129|296:76,1,90,0|8,0:0|0:0,0:0:0
213,121,49949,6,0,B|126:162|37:119,1,180,4|0,0:0|0:0,0:0:0
245,35,50386,2,0,B|290:59|304:109,1,90,8|0,0:0|0:0,0:0:0
216,196,50677,1,0,0:0:0
108,128,50823,1,0,0:0:0
176,20,50968,1,8,0:0:0
301,102,51114,6,0,B|328:146|301:202,1,90,4|0,0:0|0:0,0:0:0
213,244,51405,1,0,0:0:0
272,336,51551,2,0,B|319:356|375:332,1,90,8|0,0:0|0:0,0:0:0
396,236,51842,2,0,B|445:225|478:173,1,90,0|0,0:0|0:0,0:0:0
440,84,52133,2,0,B|474:46|471:-14,1,90,8|0,0:0|0:0,0:0:0
240,48,52425,6,0,B|193:28|137:52,1,90,8|0,0:0|0:0,0:0:0
116,148,52716,2,0,B|67:159|34:211,1,90,0|0,0:0|0:0,0:0:0
72,300,53007,2,0,B|38:338|41:398,1,90,8|0,0:0|0:0,0:0:0
196,336,53298,2,0,B|230:298|227:238,1,90,8|0,0:0|0:0,0:0:0
256,48,53590,5,0,0:0:0
16,192,53881,1,0,0:0:0
256,336,54172,1,0,0:0:0
496,192,54464,1,0,0:0:0
256,192,54755,5,0,0:0:0
256,192,54900,1,0,0:0:0
256,192,55046,1,0,0:0:0
32,72,55337,6,0,B|78:52|120:73,1,90,0|0,0:0|0:0,0:0:0
74,151,55629,1,0,0:0:0
74,151,55701,1,0,0:0:0
74,151,55774,6,0,B|36:248|80:326,1,180,6|2,0:0|0:0,0:0:0
180,280,56211,2,0,B|280:280,1,90,10|0,0:0|0:0,0:0:0
344,360,56502,2,0,B|244:360,1,90,2|0,0:0|0:0,0:0:0
300,212,56794,5,8,0:0:0
384,276,56939,2,0,B|460:288|496:216|484:152,1,180,2|0,0:0|0:0,0:0:0
408,84,57376,2,0,B|380:124|388:180,1,90,10|0,0:0|0:0,0:0:0
384,276,57667,1,2,0:0:0
300,212,57813,1,2,0:0:0
224,292,57959,2,0,B|184:324|112:304,1,90,8|0,0:0|0:0,0:0:0
100,288,58177,1,0,0:0:0
64,260,58250,6,0,B|12:172|56:72,1,180,6|8,0:0|0:0,0:0:0
140,28,58687,1,2,0:0:0
208,112,58832,2,0,B|164:144|112:120,1,90,2|2,0:0|0:0,0:0:0
176,28,59124,5,8,0:0:0
284,32,59269,2,0,B|336:56|352:132|296:184,1,180,2|0,0:0|0:0,0:0:0
208,246,59706,2,0,B|116:246,1,90,10|0,0:0|0:0,0:0:0
172,340,59997,2,0,B|264:340,1,90,0|0,0:0|0:0,0:0:0
343,267,60289,1,8,0:0:0
343,267,60362,1,0,0:0:0
343,267,60434,6,0,B|399:179|355:71,1,180,6|0,0:0|0:0,0:0:0
276,28,60871,1,10,0:0:0
188,92,61017,1,0,0:0:0
96,36,61163,2,0,B|44:24|0:64,1,90,2|0,0:0|0:0,0:0:0
47,194,61454,5,8,0:0:0
176,256,61599,2,0,B|228:260|252:212|276:160|344:168,1,180,2|0,0:0|0:0,0:0:0
420,224,62036,2,0,B|436:272|416:324,1,90,10|0,0:0|0:0,0:0:0
325,168,62328,2,0,B|309:120|329:68,1,90,2|0,0:0|0:0,0:0:0
344,252,62619,2,0,B|296:272|248:248,1,90,8|0,0:0|0:0,0:0:0
180,176,62910,6,0,B|132:156|80:184,2,90,2|0|8,0:0|0:0|0:0,0:0:0
280,304,63347,2,0,B|324:356|408:340|424:268,1,180,2|0,0:0|0:0,0:0:0
433,166,63784,1,8,0:0:0
325,168,63930,2,0,B|281:220|197:204|181:132,1,180,2|0,0:0|0:0,0:0:0
265,104,64366,1,10,0:0:0
265,104,64658,5,0,0:0:0
191,247,64803,1,0,0:0:0
353,246,64949,1,0,0:0:0
353,246,65022,1,0,0:0:0
353,246,65095,6,0,B|429:238|474:302|450:383,1,180,6|0,0:0|0:0,0:0:0
348,347,65531,1,10,0:0:0
256,288,65677,1,0,0:0:0
164,347,65823,2,0,B|112:371|64:332,1,90,2|0,0:0|0:0,0:0:0
28,216,66114,5,8,0:0:0
109,107,66260,2,0,B|199:56|293:116,1,180,2|2,0:0|0:0,0:0:0
389,185,66697,1,10,0:0:0
254,187,66842,1,0,0:0:0
362,105,66988,1,2,0:0:0
322,234,67133,1,2,0:0:0
280,108,67279,1,8,0:0:0
194,41,67425,1,0,0:0:0
194,41,67497,1,0,0:0:0
194,41,67570,6,0,B|106:-7|14:45,1,180,6|8,0:0|0:0,0:0:0
4,148,68007,1,2,0:0:0
88,216,68153,2,0,B|132:236|184:212,1,90,2|0,0:0|0:0,0:0:0
132,136,68444,5,8,0:0:0
45,284,68590,2,0,B|135:328|238:271,1,180,2|0,0:0|0:0,0:0:0
310,224,69027,1,10,0:0:0
406,272,69172,1,0,0:0:0
488,132,69318,6,0,B|445:83|352:100|341:179,1,180,2|8,0:0|0:0,0:0:0
406,230,69755,2,0,B|363:279|270:262|259:183,1,180,6|2,0:0|0:0,0:0:0
207,103,70192,1,10,0:0:0
284,28,70337,1,0,0:0:0
364,99,70483,2,0,B|416:116|466:77,1,90,2|0,0:0|0:0,0:0:0
284,28,70774,5,8,0:0:0
284,28,70920,2,0,B|204:106|284:207,1,180,2|0,0:0|0:0,0:0:0
264,300,71357,2,0,B|321:304|344:267,1,90,10|0,0:0|0:0,0:0:0
440,216,71648,2,0,B|415:164|371:162,1,90,2|0,0:0|0:0,0:0:0
280,112,71939,2,0,B|247:159|276:222,1,90,10|0,0:0|0:0,0:0:0
334,333,72231,6,0,B|294:385|210:385|176:327,1,180,2|8,0:0|0:0,0:0:0
120,241,72667,2,0,B|165:152|114:51,1,180,2|0,0:0|0:0,0:0:0
35,132,73104,1,8,0:0:0
35,132,73177,1,0,0:0:0
35,132,73250,6,0,B|112:195|225:137,1,180,2|0,0:0|0:0,0:0:0
290,80,73687,2,0,B|397:80,1,90,10|0,0:0|0:0,0:0:0
466,184,73978,2,0,B|359:184,1,90,2|0,0:0|0:0,0:0:0
298,259,74269,5,0,0:0:0
209,320,74415,1,0,0:0:0
308,363,74561,1,8,0:0:0
398,107,74997,1,0,0:0:0
145,22,75434,1,8,0:0:0
49,269,75871,1,0,0:0:0
320,249,76308,2,0,B|417:205|398:61,1,180,0|0,0:0|0:0,0:0:0
240,16,76891,5,8,0:0:0
32,188,77328,1,0,0:0:0
302,168,77764,1,8,0:0:0
72,25,78201,1,0,0:0:0
173,276,78638,6,0,B|200:288|200:288|200:312|200:312|224:320|224:320|232:344|232:344|256:344|256:344|268:368|268:368|292:368,1,180,0|0,0:0|0:0,0:0:0
364,204,79221,5,0,0:0:0
412,108,79366,1,0,0:0:0
364,204,79512,1,0,0:0:0
412,108,79658,1,0,0:0:0
148,180,80095,5,0,0:0:0
100,276,80240,1,0,0:0:0
148,180,80386,1,0,0:0:0
100,276,80531,1,0,0:0:0
304,96,80968,6,0,B|356:92|384:136,1,90,0|0,0:0|0:0,0:0:0
208,96,81260,2,0,B|156:92|128:136,1,90,0|0,0:0|0:0,0:0:0
408,212,81551,6,0,B|455:189|457:137,1,90,0|0,0:0|0:0,0:0:0
104,212,81842,2,0,B|56:189|54:137,1,90,0|0,0:0|0:0,0:0:0
352,276,82425,6,0,B|316:240|328:180,1,90,8|0,0:0|0:0,0:0:0
160,276,82716,2,0,B|196:240|186:193,1,90,0|0,0:0|0:0,0:0:0
371,23,83298,5,0,0:0:0
273,69,83444,1,0,0:0:0
372,110,83590,1,0,0:0:0
279,164,83735,1,0,0:0:0
348,248,83881,6,0,B|396:264|444:240,1,90,0|0,0:0|0:0,0:0:0
164,136,84172,2,0,B|116:120|68:144,1,90,0|0,0:0|0:0,0:0:0
348,136,84755,6,0,B|396:120|435:140,1,90,0|0,0:0|0:0,0:0:0
164,248,85046,2,0,B|116:264|76:243,1,90,0|0,0:0|0:0,0:0:0
328,212,85629,1,0,0:0:0
333,221,85774,1,0,0:0:0
336,230,85920,1,0,0:0:0
337,239,86065,1,0,0:0:0
338,248,86211,6,0,B|354:296|330:344,1,90,0|0,0:0|0:0,0:0:0
174,136,86502,2,0,B|158:88|182:40,1,90,0|0,0:0|0:0,0:0:0
174,248,87085,6,0,B|158:296|182:344,1,90,0|0,0:0|0:0,0:0:0
338,136,87376,2,0,B|354:88|330:40,1,90,0|0,0:0|0:0,0:0:0
256,192,87959,5,0,0:0:0
256,192,88104,1,4,0:0:0
