osu file format v12

[General]
AudioFilename: Daydream Syndrome (TV Sizes).mp3
AudioLeadIn: 1000
PreviewTime: 55504
Countdown: 0
SampleSet: Normal
StackLeniency: 0.7
Mode: 0
LetterboxInBreaks: 0
WidescreenStoryboard: 0

[Editor]
Bookmarks: 7155,16475,39631,44436,49097,49825,61184
DistanceSpacing: 0.9
BeatDivisor: 4
GridSize: 4
TimelineZoom: 1

[Metadata]
Title:Daydream Syndrome (TV Size)
TitleUnicode:Daydream Syndrome (TV Size)
Artist:Fujiwara Marina
ArtistUnicode:藤原鞠菜
Creator:AsprikaQ
Version:Normal
Source:Yumekui Merry
Tags:Dream Eater IOSYS void OP opening
BeatmapID:252766
BeatmapSetID:93619

[Difficulty]
HPDrainRate:4
CircleSize:3
OverallDifficulty:4
ApproachRate:5
SliderMultiplier:1.1
SliderTickRate:1

[Events]
//Background and Video events
0,0,"BG.jpg",0,0
Video,-5,"video.avi"
//Break Periods
//Storyboard Layer 0 (Background)
//Storyboard Layer 1 (Fail)
//Storyboard Layer 2 (Pass)
//Storyboard Layer 3 (Foreground)
//Storyboard Sound Samples
//Background Colour Transformations
3,100,255,255,255

[TimingPoints]
165,291.26213592233,4,1,1,50,1,0
15601,-100,4,2,1,80,0,0
16184,-100,4,2,1,80,0,0
16475,-133.333333333333,4,1,1,50,0,0
32786,-100,4,1,1,50,0,0
35116,-133.333333333333,4,2,1,30,0,0
39631,-100,4,1,1,50,0,0
44436,-133.333333333333,4,2,1,30,0,0
48660,-100,4,2,1,30,0,0
48951,-100,4,1,1,50,0,0
55941,-100,4,1,1,50,0,1
73563,-100,4,1,1,50,0,0
78805,-100,4,2,1,20,0,0
79388,-100,4,1,1,50,0,0

[Colours]
Combo1 : 175,175,216
Combo2 : 184,111,227
Combo3 : 26,173,230
Combo4 : 179,244,218

[HitObjects]
256,192,747,12,4,2495,0:0:0:0:
96,304,3368,6,0,L|96:194,1,110,0|0,0:0|0:0,0:0:0:0:
256,76,4242,2,0,L|256:186,2,110,0|0|4,0:0|0:0|0:0,0:0:0:0:
504,236,5698,2,0,L|504:348,1,110,0|4,0:0|0:0,0:0:0:0:
316,284,6572,1,0,0:0:0:0:
264,296,6718,6,0,P|196:260|180:168,1,165,4|4,0:0|0:0,0:0:0:0:
276,196,7446,1,8,0:0:0:0:
375,212,7737,2,0,P|358:134|288:96,2,165,0|4|8,0:0|0:0|0:0,0:0:0:0:
316,292,8902,2,0,L|200:292,1,110,0|8,0:0|0:0,0:0:0:0:
108,292,9485,5,4,0:0:0:0:
20,340,9776,2,0,P|8:284|24:228,1,110,8|0,0:0|0:0,0:0:0:0:
100,172,10359,1,8,0:0:0:0:
148,172,10504,2,0,L|332:172,1,165,4|8,0:0|0:0,0:0:0:0:
348,80,11232,2,0,L|460:80,1,110,0|8,0:0|0:0,0:0:0:0:
464,180,11815,6,0,P|476:232|456:284,1,110,4|8,0:0|0:0,0:0:0:0:
372,232,12398,1,0,0:0:0:0:
228,268,12834,2,0,P|152:244|124:168,1,165,4|8,0:0|0:0,0:0:0:0:
152,72,13563,6,0,P|256:40|368:80,1,220,0|4,0:0|0:0,0:0:0:0:
388,112,14291,1,0,0:0:0:0:
388,212,14582,1,0,0:0:0:0:
388,212,14728,1,0,0:0:0:0:
316,280,15019,2,0,L|316:348,1,55
176,288,15601,2,0,L|60:288,2,110,0|0|0,0:0|0:0|0:0,2:0:0:0:
176,212,16475,6,0,P|152:136|180:52,2,165.000006294251,4|8|0,0:0|0:0|0:0,0:0:0:0:
324,180,18223,1,8,0:0:0:0:
304,328,18805,2,0,L|472:328,2,165.000006294251,4|8|0,0:0|0:0|0:0,0:0:0:0:
156,336,20553,2,0,L|156:240,1,82.5000031471254,8|0,0:0|0:0,0:0:0:0:
156,180,21135,6,0,B|200:164|240:180|240:180|276:192|328:176,2,165.000006294251,4|8|0,0:0|0:0|0:0,0:0:0:0:
276,92,22883,1,8,0:0:0:0:
348,68,23174,1,0,0:0:0:0:
416,96,23465,6,0,B|440:132|432:176|432:176|412:224|428:264,1,165.000006294251,4|8,0:0|0:0,0:0:0:0:
276,256,24631,2,0,B|240:280|196:272|196:272|148:252|108:268,1,165.000006294251,0|8,0:0|0:0,0:0:0:0:
216,156,25796,6,0,L|36:156,1,165.000006294251,4|8,0:0|0:0,0:0:0:0:
124,288,26961,2,0,L|292:288,1,165.000006294251,0|8,0:0|0:0,0:0:0:0:
364,284,27834,1,0,0:0:0:0:
428,248,28126,6,0,P|456:160|424:92,2,165.000006294251,4|8|0,0:0|0:0|0:0,0:0:0:0:
292,192,29873,1,8,0:0:0:0:
228,156,30164,1,0,0:0:0:0:
192,224,30456,2,0,B|151:244|111:216|111:216|71:200|23:216,2,165.000006294251,4|8|0,0:0|0:0|0:0,0:0:0:0:
256,356,32203,2,0,L|160:356,1,82.5000031471254,8|0,0:0|0:0,0:0:0:0:
76,352,32786,6,0,B|40:292|40:292|76:132,2,220,4|8|4,0:0|0:0|0:0,0:0:0:0:
256,268,34533,1,0,0:0:0:0:
308,352,34825,1,8,0:0:0:0:
396,312,35116,5,4,0:0:0:0:
336,176,35698,2,0,P|256:156|176:176,2,165.000006294251,2|2|2,0:0|0:0|0:0,0:0:0:0:
256,192,37446,12,2,39194,0:0:0:0:
80,192,39631,6,0,B|152:192|152:192|164:244|216:260,1,165,4|8,0:0|0:0,0:0:0:0:
252,168,40359,2,0,L|364:168,1,110,0|8,0:0|0:0,0:0:0:0:
412,168,40796,2,0,P|436:244|416:328,1,165,4|8,0:0|0:0,0:0:0:0:
320,340,41524,2,0,L|240:340,1,55,0|0,0:0|0:0,0:0:0:0:
168,324,41961,6,0,P|149:244|173:166,1,165,4|8,0:0|0:0,0:0:0:0:
256,112,42689,2,0,L|256:-4,2,110,0|8|4,0:0|0:0|0:0,0:0:0:0:
256,312,43854,1,0,0:0:0:0:
256,164,44436,5,4,0:0:0:0:
124,92,45019,1,0,0:0:0:0:
268,64,45601,2,0,B|296:124|252:180|252:180|264:232,1,165.000006294251,2|2,0:0|0:0,0:0:0:0:
256,192,46766,12,2,48660,0:0:0:0:
180,40,48951,6,0,P|196:104|180:148,1,110,4|0,0:0|0:0,0:0:0:0:
148,180,49388,2,0,P|132:228|148:288,1,110,8|0,0:0|0:0,0:0:0:0:
184,316,49825,1,0,0:0:0:0:
284,320,50116,6,0,P|340:332|388:312,1,110,4|0,0:0|0:0,0:0:0:0:
412,272,50553,2,0,L|420:160,1,110,8|0,0:0|0:0,0:0:0:0:
416,112,50990,2,0,P|360:96|308:108,1,110,0|4,0:0|0:0,0:0:0:0:
80,192,52009,5,8,0:0:0:0:
256,92,52592,1,4,0:0:0:0:
428,192,53174,1,8,0:0:0:0:
256,292,53757,6,0,L|376:292,2,110,4|8|0,0:0|0:0|0:0,0:0:0:0:
256,192,54631,1,8,0:0:0:0:
256,92,54922,2,0,L|188:92,1,55,4|0,0:0|0:0,0:0:0:0:
152,92,55213,2,0,P|132:136|148:196,1,110,8|8,0:0|0:0,0:0:0:0:
148,244,55650,1,2,0:0:0:0:
212,320,55941,6,0,L|392:320,1,165,6|10,0:0|0:0,0:0:0:0:
456,260,56669,2,0,P|472:208|448:148,1,110,2|10,0:0|0:0,0:0:0:0:
420,120,57106,2,0,L|252:120,1,165,6|10,0:0|0:0,0:0:0:0:
208,208,57834,1,2,0:0:0:0:
108,208,58126,1,10,0:0:0:0:
60,124,58417,6,0,B|16:144|-4:204|24:264|24:264|24:336,1,220,6|2,0:0|0:0,0:0:0:0:
124,336,59291,1,10,0:0:0:0:
172,348,59436,2,0,L|352:348,1,165,6|8,0:0|0:0,0:0:0:0:
432,316,60164,2,0,P|460:240|424:160,2,165,2|6|10,0:0|0:0|0:0,0:0:0:0:
360,244,61330,6,0,L|192:244,2,165,2|6|10,0:0|0:0|0:0,0:0:0:0:
360,152,62495,2,0,P|376:96|360:44,2,110,2|10|6,0:0|0:0|0:0,0:0:0:0:
216,124,63514,2,0,L|88:124,1,110,2|2,0:0|0:0,0:0:0:0:
76,164,63951,1,8,0:0:0:0:
56,208,64097,6,0,P|40:256|56:312,1,110,6|2,0:0|0:0,0:0:0:0:
104,320,64533,2,0,L|224:320,1,110,10|2,0:0|0:0,0:0:0:0:
264,320,64970,1,0,0:0:0:0:
324,240,65262,6,0,P|356:172|332:88,1,165,6|10,0:0|0:0,0:0:0:0:
260,156,65990,1,2,0:0:0:0:
168,196,66281,1,10,0:0:0:0:
120,196,66427,2,0,P|88:128|112:44,1,165,6|10,0:0|0:0,0:0:0:0:
212,40,67155,1,2,0:0:0:0:
312,40,67446,2,0,L|376:40,1,55,10|0,0:0|0:0,0:0:0:0:
416,40,67737,6,0,P|432:92|420:148,1,110,6|10,0:0|0:0,0:0:0:0:
328,184,68320,1,2,0:0:0:0:
312,280,68611,1,10,0:0:0:0:
272,308,68757,2,0,L|100:308,1,165,6|10,0:0|0:0,0:0:0:0:
76,212,69485,6,0,L|248:212,1,165,2|6,0:0|0:0,0:0:0:0:
256,64,70359,2,0,L|372:64,1,110,10|2,0:0|0:0,0:0:0:0:
456,108,70941,1,10,0:0:0:0:
456,156,71087,2,0,L|456:328,1,165,6|10,0:0|0:0,0:0:0:0:
360,300,71815,1,2,0:0:0:0:
264,316,72106,2,0,P|208:328|152:316,1,110,10|6,0:0|0:0,0:0:0:0:
20,264,72834,6,0,P|-24:152|20:68,1,220,2|6,0:0|0:0,0:0:0:0:
152,136,73854,1,10,0:0:0:0:
248,108,74145,1,2,0:0:0:0:
340,140,74436,1,10,0:0:0:0:
364,184,74582,1,0,0:0:0:0:
360,232,74728,5,4,0:0:0:0:
256,336,75164,2,0,L|424:336,2,165,4|4|4,0:0|0:0|0:0,0:0:0:0:
108,336,76475,2,0,P|96:280|112:232,1,110,8|8,0:0|0:0,0:0:0:0:
204,196,77058,6,0,P|280:224|360:196,2,165,4|4|4,0:0|0:0|0:0,0:0:0:0:
280,68,78368,1,4,0:0:0:0:
72,184,79388,6,0,P|44:256|72:340,1,165,4|0,0:0|0:0,0:0:0:0:
200,264,80262,2,0,P|276:289|352:261,1,165,4|0,0:0|0:0,0:0:0:0:
456,156,81135,2,0,P|472:108|456:52,1,110,4|0,0:0|0:0,0:0:0:0:
372,104,81718,6,0,P|296:76|220:104,1,165,4|0,0:0|0:0,0:0:0:0:
72,96,82592,2,0,L|72:272,1,165,4|0,0:0|0:0,0:0:0:0:
212,312,83465,2,0,L|212:192,1,110
140,132,84048,2,0,P|212:96|288:136,1,165,4|0,0:0|0:0,0:0:0:0:
432,148,84922,2,0,L|432:328,1,165,4|0,0:0|0:0,0:0:0:0:
308,232,85796,1,0,0:0:0:0:
336,325,86087,6,0,P|282:328|236:300,1,110,0|4,0:0|0:0,0:0:0:0:
240,152,86815,1,0,0:0:0:0:
92,152,87252,2,0,L|92:324,1,165,4|4,0:0|0:0,0:0:0:0:
236,272,88126,2,0,L|236:340,1,55,0|4,0:0|0:0,0:0:0:0:
