osu file format v12

[General]
AudioFilename: Daydream Syndrome (TV Sizes).mp3
AudioLeadIn: 1000
PreviewTime: 55504
Countdown: 0
SampleSet: Normal
StackLeniency: 0.7
Mode: 0
LetterboxInBreaks: 0
WidescreenStoryboard: 0

[Editor]
Bookmarks: 7155,16475,39631,44436,49097
DistanceSpacing: 1
BeatDivisor: 4
GridSize: 4
TimelineZoom: 1.5

[Metadata]
Title:Daydream Syndrome (TV Size)
TitleUnicode:Daydream Syndrome (TV Size)
Artist:Fujiwara Marina
ArtistUnicode:藤原鞠菜
Creator:AsprikaQ
Version:Insane
Source:Yumekui Merry
Tags:Dream Eater IOSYS void OP opening
BeatmapID:252416
BeatmapSetID:93619

[Difficulty]
HPDrainRate:7
CircleSize:4
OverallDifficulty:8
ApproachRate:9
SliderMultiplier:1.9
SliderTickRate:1

[Events]
//Background and Video events
0,0,"BG.jpg",0,0
Video,-5,"video.avi"
//Break Periods
//Storyboard Layer 0 (Background)
//Storyboard Layer 1 (Fail)
//Storyboard Layer 2 (Pass)
//Storyboard Layer 3 (Foreground)
//Storyboard Sound Samples
//Background Colour Transformations
3,100,255,255,255

[TimingPoints]
165,291.26213592233,4,1,1,40,1,0
2203,-100,4,1,1,5,0,0
2495,-100,4,1,1,40,0,0
16475,-133.333333333333,4,1,1,40,0,0
16475,-133.333333333333,4,1,1,30,0,0
27762,-133.333333333333,4,1,1,30,0,0
27980,-133.333333333333,4,1,1,30,0,0
28053,-133.333333333333,4,1,1,40,0,0
32786,-100,4,1,1,40,0,0
35116,-200,4,2,1,25,0,0
39339,-100,4,2,1,30,0,0
39631,-100,4,1,1,40,0,0
44436,-200,4,2,1,25,0,0
48660,-100,4,2,1,30,0,0
48951,-100,4,1,1,40,0,0
55941,-100,4,1,1,40,0,1
73563,-100,4,1,1,40,0,0
78660,-100,4,1,1,5,0,0
78805,-100,4,2,1,5,0,0
79388,-100,4,1,1,40,0,0

[Colours]
Combo1 : 175,175,216
Combo2 : 184,111,227
Combo3 : 26,173,230
Combo4 : 179,244,218

[HitObjects]
256,192,747,12,0,2203,0:0:0:0:
388,144,2495,6,0,P|428:120|476:124,1,95,4|0,0:0|0:0,0:0:0:0:
448,216,2786,1,0,0:0:0:0:
356,228,2931,1,0,0:0:0:0:
356,228,3368,6,0,P|348:276|368:324,1,95
460,336,3660,1,0,0:0:0:0:
460,336,3805,1,0,0:0:0:0:
328,84,4242,5,0,0:0:0:0:
408,32,4388,2,0,P|420:76|408:128,1,95
264,220,4679,1,0,0:0:0:0:
172,248,4825,5,4,0:0:0:0:
264,220,4970,2,0,L|248:320,1,95
248,313,5262,1,0,0:0:0:0:
468,132,5698,2,0,P|428:152|376:144,1,95
408,56,5990,1,0,0:0:0:0:
316,80,6135,1,0,0:0:0:0:
60,208,6572,1,0,0:0:0:0:
12,292,6718,6,0,P|108:288|152:208,1,190,4|0,0:0|0:0,0:0:0:0:
212,140,7155,1,4,0:0:0:0:
276,68,7300,1,0,0:0:0:0:
372,60,7446,1,8,0:0:0:0:
456,104,7592,1,0,0:0:0:0:
456,104,7737,2,0,B|404:152|404:152|268:140,1,190,0|8,0:0|0:0,0:0:0:0:
248,284,8174,6,0,B|300:236|300:236|420:248,1,190,4|0,0:0|0:0,0:0:0:0:
496,300,8611,2,0,P|516:256|508:212,1,95,8|0,0:0|0:0,0:0:0:0:
416,180,8902,2,0,B|380:144|332:160|332:160|312:112|344:60,1,190,0|0,0:0|0:0,0:0:0:0:
360,236,9339,1,0,0:0:0:0:
200,284,9485,6,0,P|188:236|200:192,1,95,4|0,0:0|0:0,0:0:0:0:
172,100,9776,1,8,0:0:0:0:
232,28,9922,1,0,0:0:0:0:
324,56,10067,2,0,B|416:56|416:56|464:84|472:132,1,190,0|8,0:0|0:0,0:0:0:0:
404,292,10504,6,0,B|312:292|312:292|264:264|256:216,1,190,4|0,0:0|0:0,0:0:0:0:
100,276,10941,1,8,0:0:0:0:
56,132,11087,1,0,0:0:0:0:
196,76,11232,1,0,0:0:0:0:
320,164,11378,2,0,P|368:168|416:148,1,95,0|8,0:0|0:0,0:0:0:0:
348,80,11669,1,0,0:0:0:0:
348,80,11742,1,0,0:0:0:0:
348,80,11815,6,0,P|300:76|252:96,1,95,4|0,0:0|0:0,0:0:0:0:
280,232,12106,1,8,0:0:0:0:
176,332,12252,1,0,0:0:0:0:
176,332,12398,2,0,B|168:248|168:248|112:232|104:168,1,190,0|8,0:0|0:0,0:0:0:0:
260,320,12834,6,0,L|452:324,1,190,4|0,0:0|0:0,0:0:0:0:
400,192,13271,1,8,0:0:0:0:
456,60,13417,1,0,0:0:0:0:
316,92,13563,2,0,P|224:112|132:80,1,190,0|8,0:0|0:0,0:0:0:0:
76,232,13999,1,0,0:0:0:0:
208,324,14145,5,4,0:0:0:0:
324,212,14291,2,0,P|244:188|152:236,1,190,0|0,0:0|0:0,0:0:0:0:
68,96,14728,2,0,P|148:120|240:72,1,190,0|0,0:0|0:0,0:0:0:0:
400,88,15164,1,4,0:0:0:0:
256,192,15310,12,0,16184,2:0:0:0:
136,96,16475,6,0,P|204:120|268:80,1,142.500005435944,4|0,0:0|0:0,0:0:0:0:
412,140,16912,1,0,0:0:0:0:
396,224,17058,1,8,0:0:0:0:
396,224,17203,2,0,P|400:260|396:300,1,71.2500027179719,0|0,0:0|0:0,0:0:0:0:
312,304,17495,1,0,0:0:0:0:
228,316,17640,6,0,P|192:320|156:304,1,71.2500027179719
204,232,17931,2,0,P|188:160|216:96,1,142.500005435944,0|8,0:0|0:0,0:0:0:0:
312,304,18368,1,8,3:0:0:0:
312,304,18514,1,4,3:0:0:0:
392,344,18660,1,0,0:0:0:0:
392,344,18805,6,0,P|408:276|388:204,1,142.500005435944,4|0,0:0|0:0,0:0:0:0:
300,120,19242,2,0,P|288:80|300:44,1,71.2500027179719,0|8,0:0|0:0,0:0:0:0:
212,32,19533,1,0,0:0:0:0:
128,36,19679,2,0,P|92:32|52:44,1,71.2500027179719
100,116,19970,6,0,P|92:152|96:188,1,71.2500027179719
80,272,20262,1,0,0:0:0:0:
112,352,20407,2,0,P|148:356|188:352,1,71.2500027179719,0|8,0:0|0:0,0:0:0:0:
252,300,20698,1,8,3:0:0:0:
392,332,20844,1,0,0:0:0:0:
252,300,20990,1,4,3:0:0:0:
392,332,21135,6,0,P|408:256|384:184,1,142.500005435944,4|0,0:0|0:0,0:0:0:0:
308,168,21572,2,0,L|208:172,1,71.2500027179719,0|8,0:0|0:0,0:0:0:0:
184,240,21864,2,0,L|80:244,1,71.2500027179719
64,172,22155,6,0,P|44:96|88:44,1,142.500005435944,0|0,0:0|0:0,0:0:0:0:
164,60,22592,2,0,P|236:72|296:28,1,142.500005435944,0|8,0:0|0:0,0:0:0:0:
376,48,23029,2,0,L|448:60,1,71.2500027179719,8|0,3:0|0:0,0:0:0:0:
456,232,23320,6,0,L|384:220,1,71.2500027179719,4|4,3:0|0:0,0:0:0:0:
300,220,23611,1,0,0:0:0:0:
236,276,23757,2,0,P|264:296|320:300,2,71.2500027179719,0|0|8,0:0|0:0|0:0,0:0:0:0:
224,192,24194,1,0,0:0:0:0:
284,132,24339,6,0,P|256:112|200:108,2,71.2500027179719
364,168,24776,1,0,0:0:0:0:
388,252,24922,2,0,P|428:260|472:240,1,71.2500027179719
308,280,25213,2,0,P|330:313|375:330,2,71.2500027179719,8|8|0,0:0|3:0|0:0,0:0:0:0:
228,252,25650,1,4,3:0:0:0:
228,252,25796,6,0,P|200:184|232:120,1,142.500005435944,4|0,0:0|0:0,0:0:0:0:
304,88,26232,1,0,0:0:0:0:
304,88,26378,2,0,L|388:96,1,71.2500027179719,8|0,0:0|0:0,0:0:0:0:
440,152,26669,2,0,P|444:188|432:232,1,71.2500027179719
396,296,26961,6,0,L|316:312,1,71.2500027179719
240,296,27252,1,0,0:0:0:0:
140,292,27398,2,0,P|132:260|140:216,1,71.2500027179719,0|8,0:0|0:0,0:0:0:0:
196,160,27689,1,8,3:0:0:0:
80,56,27834,1,0,0:0:0:0:
196,160,27980,1,4,3:0:0:0:
272,36,28126,5,4,0:0:0:0:
340,100,28271,1,0,0:0:0:0:
392,24,28417,1,0,0:0:0:0:
460,76,28563,2,0,P|464:112|456:148,1,71.2500027179719,0|8,0:0|0:0,0:0:0:0:
352,324,28854,2,0,P|348:288|356:252,2,71.2500027179719
252,328,29291,6,0,P|212:336|172:328,1,71.2500027179719
216,232,29582,1,0,0:0:0:0:
120,260,29728,1,0,0:0:0:0:
216,232,29873,2,0,P|208:192|216:160,1,71.2500027179719,8|8,0:0|3:0,0:0:0:0:
252,76,30164,2,0,L|332:80,1,71.2500027179719,0|4,0:0|3:0,0:0:0:0:
416,84,30456,6,0,P|432:152|412:220,1,142.500005435944,4|0,0:0|0:0,0:0:0:0:
364,300,30893,1,0,0:0:0:0:
276,320,31038,2,0,L|196:320,1,71.2500027179719,8|0,0:0|0:0,0:0:0:0:
124,288,31330,1,0,0:0:0:0:
40,268,31475,6,0,P|36:304|48:344,2,71.2500027179719
84,176,31912,1,0,0:0:0:0:
24,116,32058,2,0,P|16:76|24:48,1,71.2500027179719,0|12,0:0|0:0,0:0:0:0:
100,84,32349,2,0,L|180:84,1,71.2500027179719
200,104,32567,1,0,0:0:0:0:
200,104,32640,1,0,0:0:0:0:
340,124,32786,6,0,L|448:112,2,95,4|0|8,0:0|0:0|0:0,0:0:0:0:
340,220,33223,2,0,P|260:264|164:240,1,190,4|0,0:0|0:0,0:0:0:0:
144,92,33660,6,0,P|224:48|320:72,1,190,12|0,0:0|0:0,0:0:0:0:
404,104,34097,1,4,0:0:0:0:
368,192,34242,1,8,0:0:0:0:
444,252,34388,2,0,L|452:360,1,95
336,324,34679,1,0,0:0:0:0:
308,320,34752,1,0,0:0:0:0:
280,316,34825,1,8,0:0:0:0:
252,312,34898,1,0,0:0:0:0:
224,308,34970,1,0,0:0:0:0:
200,304,35043,1,0,0:0:0:0:
176,300,35116,5,4,0:0:0:0:
60,60,35698,1,0,0:0:0:0:
324,76,36281,1,2,0:0:0:0:
84,192,36864,1,0,0:0:0:0:
320,308,37300,1,0,0:0:0:0:
320,308,37446,6,0,B|380:260|340:172|340:172|380:96|316:44,1,285,2|0,0:0|0:0,0:0:0:0:
272,120,38465,2,0,P|160:80|52:120,1,237.5,2|2,0:0|0:0,0:0:0:0:
28,200,39339,6,0,P|80:204|112:180,1,95,2|0,0:0|0:0,0:0:0:0:
208,180,39631,2,0,P|292:204|356:132,1,190,4|0,0:0|0:0,0:0:0:0:
432,352,40067,2,0,P|344:308|264:344,1,190,8|0,0:0|0:0,0:0:0:0:
172,332,40504,2,0,L|60:320,1,95,0|8,0:0|0:0,0:0:0:0:
44,232,40796,2,0,P|16:144|64:60,1,190,4|0,0:0|0:0,0:0:0:0:
112,140,41232,2,0,B|152:112|152:56|152:56|244:60,1,190,8|0,0:0|0:0,0:0:0:0:
332,20,41669,2,0,P|340:72|316:120,1,95,0|8,0:0|0:0,0:0:0:0:
404,164,41961,6,0,B|380:208|332:216|332:216|344:320,1,190,4|0,0:0|0:0,0:0:0:0:
168,313,42398,2,0,B|180:216|180:216|132:208|108:164,1,190,8|0,0:0|0:0,0:0:0:0:
128,72,42834,1,0,0:0:0:0:
220,52,42980,2,0,P|268:48|312:72,1,95,8|0,0:0|0:0,0:0:0:0:
408,196,43271,6,0,P|360:200|316:176,1,95,4|0,0:0|0:0,0:0:0:0:
156,172,43563,2,0,P|204:168|248:192,1,95,8|0,0:0|0:0,0:0:0:0:
340,320,43854,2,0,P|292:324|248:300,1,95,4|0,0:0|0:0,0:0:0:0:
236,208,44145,1,8,0:0:0:0:
233,185,44218,1,0,0:0:0:0:
231,161,44291,1,0,0:0:0:0:
229,137,44364,1,0,0:0:0:0:
227,113,44436,5,4,0:0:0:0:
76,332,45019,1,0,0:0:0:0:
256,136,45601,2,0,L|256:332,1,190,2|0,0:0|0:0,0:0:0:0:
420,116,46766,6,0,B|280:84|280:84|164:172,1,285,2|0,0:0|0:0,0:0:0:0:
168,256,47786,2,0,P|264:316|356:248,1,237.5,2|2,0:0|0:0,0:0:0:0:
356,168,48660,6,0,L|356:68,1,95,2|0,0:0|0:0,0:0:0:0:
260,88,48951,2,0,P|164:104|84:60,1,190,4|0,0:0|0:0,0:0:0:0:
48,264,49388,2,0,P|144:248|224:292,1,190,8|0,0:0|0:0,0:0:0:0:
300,344,49825,2,0,P|313:298|305:252,1,95,0|8,0:0|0:0,0:0:0:0:
228,196,50116,6,0,P|196:108|232:20,1,190,4|0,0:0|0:0,0:0:0:0:
400,64,50553,2,0,P|432:152|396:240,1,190,8|0,0:0|0:0,0:0:0:0:
304,220,50990,1,0,0:0:0:0:
220,172,51135,2,0,P|208:220|224:272,1,95,8|4,0:0|0:0,0:0:0:0:
304,120,51427,6,0,P|316:72|300:20,1,95,4|0,0:0|0:0,0:0:0:0:
120,176,51718,2,0,P|108:224|124:276,1,95,8|0,0:0|0:0,0:0:0:0:
304,220,52009,2,0,P|352:232|404:216,1,95,8|0,0:0|0:0,0:0:0:0:
248,36,52300,2,0,P|200:24|148:40,1,95,8|0,0:0|0:0,0:0:0:0:
128,128,52592,6,0,P|116:180|140:224,1,95,8|0,0:0|0:0,0:0:0:0:
376,312,52883,2,0,P|388:260|364:216,1,95,0|0,0:0|0:0,0:0:0:0:
204,256,53174,1,8,0:0:0:0:
224,232,53247,1,0,0:0:0:0:
248,208,53320,1,0,0:0:0:0:
268,184,53393,1,0,0:0:0:0:
292,160,53465,1,8,0:0:0:0:
312,136,53538,1,0,0:0:0:0:
336,112,53611,1,0,0:0:0:0:
360,88,53684,1,0,0:0:0:0:
380,64,53757,5,4,0:0:0:0:
104,192,54048,1,8,0:0:0:0:
256,336,54339,1,0,0:0:0:0:
408,192,54631,1,8,0:0:0:0:
256,48,54922,5,4,0:0:0:0:
196,224,55067,1,0,0:0:0:0:
336,100,55213,1,8,0:0:0:0:
336,100,55504,5,8,0:0:0:0:
152,96,55650,1,2,0:0:0:0:
152,96,55941,6,0,P|120:180|168:260,1,190,6|2,0:0|0:0,0:0:0:0:
248,208,56378,1,10,0:0:0:0:
404,168,56524,1,0,0:0:0:0:
252,120,56669,1,2,0:0:0:0:
340,240,56815,1,0,0:0:0:0:
336,100,56961,1,10,0:0:0:0:
280,316,57106,6,0,L|176:320,1,95,6|0,0:0|0:0,0:0:0:0:
100,368,57398,2,0,P|88:316|100:276,1,95,2|10,0:0|0:0,0:0:0:0:
100,80,57689,2,0,P|112:132|100:172,1,95,0|2,0:0|0:0,0:0:0:0:
196,188,57980,2,0,L|304:184,1,95,0|10,0:0|0:0,0:0:0:0:
404,344,58271,1,2,0:0:0:0:
404,344,58417,6,0,L|512:340,1,95,6|0,0:0|0:0,0:0:0:0:
308,336,58708,2,0,P|304:284|324:244,1,95,10|0,0:0|0:0,0:0:0:0:
284,160,58999,1,2,0:0:0:0:
464,240,59145,1,0,0:0:0:0:
308,336,59291,1,10,0:0:0:0:
284,160,59436,6,0,L|80:168,1,190,6|2,0:0|0:0,0:0:0:0:
16,116,59873,2,0,P|0:164|16:216,1,95,10|0,0:0|0:0,0:0:0:0:
200,68,60164,1,2,0:0:0:0:
224,76,60237,1,0,0:0:0:0:
248,84,60310,1,0,0:0:0:0:
272,92,60383,1,0,0:0:0:0:
296,100,60456,1,10,0:0:0:0:
320,108,60529,1,0,0:0:0:0:
344,116,60601,6,0,B|380:140|388:208|356:244|356:244|356:292,1,190,6|2,0:0|0:0,0:0:0:0:
260,296,61038,1,10,0:0:0:0:
260,296,61184,2,0,L|136:300,1,95,0|2,0:0|0:0,0:0:0:0:
72,280,61475,2,0,P|56:232|72:188,1,95,0|8,0:0|0:0,0:0:0:0:
156,152,61766,6,0,P|248:180|340:156,1,190,6|2,0:0|0:0,0:0:0:0:
432,168,62203,1,10,0:0:0:0:
480,248,62349,1,0,0:0:0:0:
396,296,62495,2,0,P|432:332|480:340,1,95,2|0,0:0|0:0,0:0:0:0:
256,192,62786,2,0,P|269:142|252:97,1,95,10|0,0:0|0:0,0:0:0:0:
116,296,63077,6,0,P|66:309|35:346,1,95,6|0,0:0|0:0,0:0:0:0:
200,332,63368,1,10,0:0:0:0:
200,332,63441,1,0,0:0:0:0:
200,332,63514,1,2,0:0:0:0:
120,136,63660,2,0,L|120:68,2,47.5,2|0|0,0:0|0:0|0:0,0:0:0:0:
256,272,63951,1,10,0:0:0:0:
200,104,64097,6,0,B|280:80|280:80|372:136,1,190,6|2,0:0|0:0,0:0:0:0:
440,68,64533,2,0,B|476:124|476:124|444:248,1,190,10|10,0:0|0:0,0:0:0:0:
445,243,64970,1,8,0:0:0:0:
148,320,65262,6,0,P|124:232|152:132,1,190,6|2,0:0|0:0,0:0:0:0:
240,120,65698,1,8,0:0:0:0:
336,116,65844,2,0,L|440:120,1,95,0|2,0:0|0:0,0:0:0:0:
488,336,66135,2,0,L|384:332,1,95,0|10,0:0|0:0,0:0:0:0:
296,324,66427,6,0,P|212:348|136:284,1,190,6|2,0:0|0:0,0:0:0:0:
64,232,66864,2,0,P|52:184|68:136,1,95,10|0,0:0|0:0,0:0:0:0:
152,104,67155,1,2,0:0:0:0:
244,92,67300,2,0,P|259:47|251:1,1,95,0|10,0:0|0:0,0:0:0:0:
152,104,67592,1,0,0:0:0:0:
204,164,67737,6,0,L|204:260,1,95,6|0,0:0|0:0,0:0:0:0:
108,272,68029,1,10,0:0:0:0:
108,300,68101,1,0,0:0:0:0:
108,328,68174,1,0,0:0:0:0:
36,208,68320,2,0,P|28:160|48:112,1,95,2|0,0:0|0:0,0:0:0:0:
180,60,68611,1,10,0:0:0:0:
308,128,68757,6,0,L|308:324,1,190,6|2,0:0|0:0,0:0:0:0:
400,300,69194,1,10,0:0:0:0:
400,276,69266,1,0,0:0:0:0:
400,252,69339,1,0,0:0:0:0:
400,228,69412,1,0,0:0:0:0:
400,204,69485,1,2,0:0:0:0:
400,180,69558,1,0,0:0:0:0:
400,156,69631,2,0,L|400:108,3,47.5,0|0|10|0,0:0|0:0|0:0|0:0,0:0:0:0:
332,52,69922,6,0,P|240:32|144:48,1,190,6|2,0:0|0:0,0:0:0:0:
72,108,70359,2,0,P|60:152|72:200,1,95,10|0,0:0|0:0,0:0:0:0:
164,228,70650,1,2,0:0:0:0:
252,268,70796,2,0,P|264:224|252:176,1,95,0|8,0:0|0:0,0:0:0:0:
0,344,71087,6,0,L|200:320,1,190,6|2,0:0|0:0,0:0:0:0:
264,260,71524,1,10,0:0:0:0:
268,240,71597,1,0,0:0:0:0:
272,220,71669,1,0,0:0:0:0:
236,132,71815,1,2,0:0:0:0:
392,96,71961,1,0,0:0:0:0:
416,248,72106,1,10,0:0:0:0:
260,276,72252,1,0,0:0:0:0:
156,152,72398,5,6,0:0:0:0:
128,312,72543,2,0,L|12:316,1,95,0|10,0:0|0:0,0:0:0:0:
4,156,72834,2,0,L|120:152,1,95,0|2,0:0|0:0,0:0:0:0:
244,224,73126,2,0,L|149:227,1,95,0|10,0:0|0:0,0:0:0:0:
176,68,73417,1,2,0:0:0:0:
272,56,73563,5,4,0:0:0:0:
289,60,73635,1,0,0:0:0:0:
306,64,73708,1,2,0:0:0:0:
324,68,73781,1,0,0:0:0:0:
341,72,73854,5,10,0:0:0:0:
364,101,73927,1,0,0:0:0:0:
394,121,73999,1,0,0:0:0:0:
432,132,74072,1,0,0:0:0:0:
462,152,74145,5,2,0:0:0:0:
452,176,74218,1,0,0:0:0:0:
443,199,74291,1,0,0:0:0:0:
434,223,74364,1,0,0:0:0:0:
415,239,74436,5,10,0:0:0:0:
397,255,74509,1,0,0:0:0:0:
378,270,74582,1,2,0:0:0:0:
360,286,74655,1,0,0:0:0:0:
341,302,74728,6,0,B|316:250|254:249|218:292|218:292|210:233,1,190,4|8,0:0|0:0,0:0:0:0:
171,82,75164,2,0,B|195:133|257:134|293:91|293:91|301:150,1,190,0|0,0:0|0:0,0:0:0:0:
120,264,75601,2,0,B|64:296|64:296|20:240|64:172,1,190,12|4,0:0|0:0,0:0:0:0:
392,120,76038,2,0,B|448:88|448:88|492:144|448:212,1,190,0|0,0:0|0:0,0:0:0:0:
364,244,76475,5,8,0:0:0:0:
228,308,76621,1,0,0:0:0:0:
248,168,76766,1,8,0:0:0:0:
364,244,76912,1,0,0:0:0:0:
412,160,77058,6,0,B|452:176|464:220|464:220|464:332,1,190,4|8,0:0|0:0,0:0:0:0:
100,224,77495,2,0,B|60:208|48:164|48:164|48:52,1,190,0|0,0:0|0:0,0:0:0:0:
296,32,77931,2,0,P|327:119|296:207,1,190,4|4,0:0|0:0,0:0:0:0:
216,352,78368,2,0,P|184:264|215:176,1,190
216,80,78805,2,0,L|312:80,2,95,2|2|2,0:0|0:0|0:0,0:0:0:0:
40,156,79388,5,4,0:0:0:0:
60,248,79533,1,0,0:0:0:0:
144,292,79679,2,0,P|192:300|236:280,1,95
392,44,80262,2,0,P|436:32|484:44,1,95,4|0,0:0|0:0,0:0:0:0:
436,128,80553,5,4,0:0:0:0:
436,128,80698,1,0,0:0:0:0:
256,348,81135,1,0,0:0:0:0:
256,348,81281,1,0,0:0:0:0:
168,312,81427,2,0,P|156:264|172:220,1,95
160,128,81718,6,0,L|60:108,2,95,4|0|0,0:0|0:0|0:0,0:0:0:0:
256,116,82155,1,0,0:0:0:0:
472,304,82592,1,4,0:0:0:0:
376,304,82737,1,0,0:0:0:0:
340,216,82884,6,0,P|386:208|431:225,1,95,0|4,0:0|0:0,0:0:0:0:
168,116,83465,2,0,P|152:160|164:208,1,95
256,232,83757,1,0,0:0:0:0:
176,284,83902,6,0,P|176:330|203:371,1,95,0|4,0:0|0:0,0:0:0:0:
296,356,84194,2,0,L|408:364,2,95
336,72,84922,2,0,L|448:64,2,95,4|0|4,0:0|0:0|0:0,0:0:0:0:
304,160,85359,1,0,0:0:0:0:
44,40,85796,2,0,P|32:88|48:136,1,95
100,208,86087,1,0,0:0:0:0:
148,292,86232,1,0,0:0:0:0:
148,292,86378,5,4,0:0:0:0:
240,308,86524,2,0,P|288:316|332:300,1,95
392,228,86815,1,0,0:0:0:0:
160,60,87252,2,0,P|112:52|64:72,1,95,4|0,0:0|0:0,0:0:0:0:
60,164,87543,1,4,0:0:0:0:
144,208,87689,1,0,0:0:0:0:
428,192,88126,5,4,0:0:0:0:
296,296,88271,1,4,0:0:0:0:
