osu file format v12

[General]
AudioFilename: Daydream Syndrome (TV Sizes).mp3
AudioLeadIn: 1000
PreviewTime: 55504
Countdown: 0
SampleSet: Normal
StackLeniency: 0.7
Mode: 0
LetterboxInBreaks: 0
WidescreenStoryboard: 0

[Editor]
Bookmarks: 7155,16475,39631,44436,49097,49825,61184
DistanceSpacing: 1
BeatDivisor: 4
GridSize: 4
TimelineZoom: 1

[Metadata]
Title:Daydream Syndrome (TV Size)
TitleUnicode:Daydream Syndrome (TV Size)
Artist:Fujiwara Marina
ArtistUnicode:藤原鞠菜
Creator:AsprikaQ
Version:Hard
Source:Yumekui Merry
Tags:Dream Eater IOSYS void OP opening
BeatmapID:252706
BeatmapSetID:93619

[Difficulty]
HPDrainRate:6
CircleSize:4
OverallDifficulty:6
ApproachRate:8
SliderMultiplier:1.6
SliderTickRate:1

[Events]
//Background and Video events
0,0,"BG.jpg",0,0
Video,-5,"video.avi"
//Break Periods
//Storyboard Layer 0 (Background)
//Storyboard Layer 1 (Fail)
//Storyboard Layer 2 (Pass)
//Storyboard Layer 3 (Foreground)
//Storyboard Sound Samples
//Background Colour Transformations
3,100,255,255,255

[TimingPoints]
165,291.26213592233,4,1,1,40,1,0
2203,-100,4,1,1,5,0,0
2495,-100,4,1,1,40,0,0
15310,-100,4,2,1,40,0,0
16475,-133.333333333333,4,1,1,40,0,0
16475,-133.333333333333,4,1,1,40,0,0
16766,-133.333333333333,4,1,1,30,0,0
28053,-133.333333333333,4,1,1,40,0,0
32786,-100,4,1,1,40,0,0
35116,-200,4,2,1,30,0,0
39194,-100,4,2,1,30,0,0
39631,-100,4,1,1,40,0,0
44436,-200,4,2,1,30,0,0
48951,-100,4,1,1,40,0,0
55941,-100,4,1,1,40,0,1
73563,-100,4,1,1,40,0,0
78660,-100,4,1,1,5,0,0
78805,-100,4,2,1,5,0,0
79388,-100,4,1,1,40,0,0

[Colours]
Combo1 : 175,175,216
Combo2 : 184,111,227
Combo3 : 26,173,230
Combo4 : 179,244,218

[HitObjects]
256,192,747,12,4,2203,0:0:0:0:
236,104,2495,6,0,L|140:88,1,80,4|0,0:0|0:0,0:0:0:0:
116,160,2786,2,0,L|216:176,1,80
400,312,3368,2,0,L|396:232,2,80
316,344,3805,1,0,0:0:0:0:
64,272,4242,2,0,P|56:232|72:184,1,80
144,240,4533,2,0,P|152:280|136:328,1,80
284,236,4825,5,4,0:0:0:0:
232,308,4970,1,0,0:0:0:0:
284,236,5116,2,0,L|292:144,1,80
416,116,5698,1,0,0:0:0:0:
468,44,5844,1,0,0:0:0:0:
416,116,5990,2,0,L|408:208,1,80,4|0,0:0|0:0,0:0:0:0:
160,112,6572,1,0,0:0:0:0:
160,112,6718,6,0,P|136:188|160:264,1,160,4|0,0:0|0:0,0:0:0:0:
224,320,7155,2,0,L|328:328,1,80,0|0,0:0|0:0,0:0:0:0:
388,296,7446,1,8,0:0:0:0:
388,296,7592,1,0,0:0:0:0:
468,332,7737,2,0,P|492:256|460:180,1,160,0|8,0:0|0:0,0:0:0:0:
392,132,8174,6,0,P|312:144|236:112,1,160,4|0,0:0|0:0,0:0:0:0:
160,76,8611,2,0,L|72:88,1,80,8|0,0:0|0:0,0:0:0:0:
64,172,8902,2,0,B|40:228|40:228|84:344,1,160,0|8,0:0|0:0,0:0:0:0:
156,284,9339,1,0,0:0:0:0:
156,284,9485,6,0,P|192:304|236:300,1,80,4|0,0:0|0:0,0:0:0:0:
316,284,9776,2,0,L|400:280,1,80,8|0,0:0|0:0,0:0:0:0:
400,192,10067,2,0,L|224:200,1,160,0|8,0:0|0:0,0:0:0:0:
256,120,10504,2,0,L|432:112,2,160,4|0|0,0:0|0:0|0:0,0:0:0:0:
168,192,11232,2,0,P|144:284|180:344,1,160,0|8,0:0|0:0,0:0:0:0:
256,264,11669,1,0,0:0:0:0:
339,337,11815,6,0,P|370:265|344:192,1,160,4|8,0:0|0:0,0:0:0:0:
348,112,12252,1,0,0:0:0:0:
404,56,12398,2,0,P|320:40|272:96,1,160,0|8,0:0|0:0,0:0:0:0:
240,160,12834,6,0,L|76:152,1,160,4|0,0:0|0:0,0:0:0:0:
0,152,13271,2,0,P|9:190|36:219,1,80,8|0,0:0|0:0,0:0:0:0:
44,300,13563,2,0,P|119:333|204:312,1,160,0|8,0:0|0:0,0:0:0:0:
272,320,13999,1,0,0:0:0:0:
292,244,14145,5,4,0:0:0:0:
360,200,14291,1,0,0:0:0:0:
252,76,14582,1,0,0:0:0:0:
252,76,14728,2,0,L|88:80,1,160,0|0,0:0|0:0,0:0:0:0:
68,156,15164,1,0,0:0:0:0:
256,192,15310,12,4,16475,0:0:0:0:
108,210,16766,6,0,P|108:180|115:152,2,60.0000022888184,0|0|8,0:0|0:0|0:0,0:0:0:0:
152,284,17203,2,0,P|208:300|268:284,1,120.000004577637
348,264,17640,1,0,0:0:0:0:
348,264,17931,2,0,P|368:208|344:144,1,120.000004577637,0|8,0:0|0:0,0:0:0:0:
308,80,18368,2,0,L|396:68,2,60.0000022888184,8|0|4,3:0|0:0|3:0,0:0:0:0:
228,100,18805,6,0,P|168:80|112:100,1,120.000004577637,4|0,0:0|0:0,0:0:0:0:
76,172,19242,1,0,0:0:0:0:
116,248,19388,2,0,L|0:288,2,120.000004577637,8|0|0,0:0|0:0|0:0,0:0:0:0:
256,340,20262,2,0,P|276:284|256:228,1,120.000004577637,0|8,0:0|0:0,0:0:0:0:
284,152,20698,2,0,L|360:148,1,60.0000022888184,8|0,3:0|0:0,0:0:0:0:
400,212,20990,2,0,L|476:208,1,60.0000022888184,4|4,3:0|0:0,0:0:0:0:
296,248,21427,5,0,0:0:0:0:
212,252,21572,2,0,P|180:256|144:252,1,60.0000022888184,0|8,0:0|0:0,0:0:0:0:
88,308,21864,2,0,P|72:244|112:180,1,120.000004577637,0|0,0:0|0:0,0:0:0:0:
152,136,22300,2,0,P|216:132|260:88,1,120.000004577637
388,160,22737,2,0,L|380:224,1,60.0000022888184,0|8,0:0|0:0,0:0:0:0:
304,188,23029,2,0,L|296:252,1,60.0000022888184,8|0,3:0|0:0,0:0:0:0:
236,304,23320,1,4,3:0:0:0:
236,304,23465,6,0,P|184:316|124:284,1,120.000004577637,4|0,0:0|0:0,0:0:0:0:
192,232,23902,1,0,0:0:0:0:
148,160,24048,2,0,P|200:148|260:180,1,120.000004577637,8|0,0:0|0:0,0:0:0:0:
328,132,24485,1,0,0:0:0:0:
328,132,24631,2,0,L|456:132,2,120.000004577637,4|0|8,0:0|0:0|0:0,0:0:0:0:
340,216,25359,2,0,L|404:216,1,60.0000022888184,8|0,0:0|0:0,0:0:0:0:
472,256,25650,1,4,3:0:0:0:
424,324,25796,5,4,0:0:0:0:
200,348,26087,2,0,L|192:264,1,60.0000022888184,0|0,0:0|0:0,0:0:0:0:
144,220,26378,2,0,L|140:160,1,60.0000022888184,8|0,0:0|0:0,0:0:0:0:
80,100,26669,2,0,P|108:80|148:72,1,60.0000022888184,0|0,0:0|0:0,0:0:0:0:
216,72,26961,2,0,L|292:76,1,60.0000022888184
360,92,27252,1,0,0:0:0:0:
356,180,27398,2,0,L|432:184,2,60.0000022888184,0|8|8,0:0|0:0|3:0,0:0:0:0:
328,260,27834,2,0,L|252:256,1,60.0000022888184,0|4,0:0|3:0,0:0:0:0:
232,332,28126,5,4,0:0:0:0:
100,228,28417,2,0,L|96:160,1,60.0000022888184,0|0,0:0|0:0,0:0:0:0:
144,96,28708,1,8,0:0:0:0:
180,180,28854,2,0,L|184:252,1,60.0000022888184,0|0,0:0|0:0,0:0:0:0:
180,324,29145,2,0,P|236:344|296:324,1,120.000004577637
240,264,29582,2,0,P|300:248|352:272,1,120.000004577637,0|8,0:0|0:0,0:0:0:0:
388,188,30019,1,8,3:0:0:0:
436,260,30164,1,0,0:0:0:0:
388,188,30310,6,0,L|304:172,1,60.0000022888184,4|4,3:0|0:0,0:0:0:0:
164,116,30747,1,0,0:0:0:0:
108,56,30893,2,0,L|32:60,2,60.0000022888184,0|8|0,0:0|0:0|0:0,0:0:0:0:
192,36,31330,2,0,P|224:56|240:80,1,60.0000022888184
236,160,31621,5,0,0:0:0:0:
164,116,31766,2,0,P|144:172|168:240,1,120.000004577637,0|0,0:0|0:0,0:0:0:0:
180,312,32203,1,8,0:0:0:0:
264,312,32349,1,0,0:0:0:0:
304,212,32495,1,0,0:0:0:0:
288,96,32640,1,0,0:0:0:0:
288,96,32786,6,0,P|368:116|440:72,1,160,4|8,0:0|0:0,0:0:0:0:
488,144,33223,1,0,0:0:0:0:
424,192,33368,2,0,P|459:256|439:336,1,160,4|8,0:0|0:0,0:0:0:0:
360,320,33805,1,0,0:0:0:0:
288,280,33951,2,0,P|280:324|292:368,2,80,4|0|8,0:0|0:0|0:0,0:0:0:0:
224,228,34388,2,0,L|124:248,1,80
120,168,34679,2,0,L|220:148,1,80,0|8,0:0|0:0,0:0:0:0:
260,104,34970,1,0,0:0:0:0:
332,128,35116,6,0,B|368:172|368:172|344:288,2,160,4|0|2,0:0|0:0|0:0,0:0:0:0:
256,292,36864,1,0,0:0:0:0:
128,256,37300,1,0,0:0:0:0:
128,256,37446,6,0,B|96:192|140:144|140:144|212:144|240:88,1,240,2|0,0:0|0:0,0:0:0:0:
320,100,38465,2,0,P|384:72|468:104,1,160,2|0,0:0|0:0,0:0:0:0:
468,184,39194,6,0,L|468:272,1,80,0|2,0:0|0:0,0:0:0:0:
316,308,39631,2,0,P|232:324|164:280,1,160,4|0,0:0|0:0,0:0:0:0:
112,344,40067,2,0,P|94:266|144:208,1,160,8|0,0:0|0:0,0:0:0:0:
176,136,40504,2,0,P|216:144|264:128,1,80,0|8,0:0|0:0,0:0:0:0:
212,64,40796,2,0,L|220:236,1,160,4|0,0:0|0:0,0:0:0:0:
308,208,41232,1,8,0:0:0:0:
360,136,41378,2,0,P|324:120|272:128,2,80,0|0|0,0:0|0:0|0:0,0:0:0:0:
396,216,41815,1,8,0:0:0:0:
448,144,41961,6,0,P|480:192|440:292,1,160,4|0,0:0|0:0,0:0:0:0:
256,356,42398,2,0,B|220:292|268:240|268:240|248:208,1,160,8|0,0:0|0:0,0:0:0:0:
168,176,42834,2,0,L|72:176,1,80,0|8,0:0|0:0,0:0:0:0:
136,100,43126,6,0,P|176:96|220:112,1,80,0|4,0:0|0:0,0:0:0:0:
288,140,43417,1,0,0:0:0:0:
348,192,43563,2,0,P|364:160|360:114,1,80,8|0,0:0|0:0,0:0:0:0:
356,36,43854,2,0,L|196:36,1,160,0|8,0:0|0:0,0:0:0:0:
136,100,44291,1,0,0:0:0:0:
156,180,44436,6,0,B|160:220|140:244|140:244|168:276|156:332,2,160,4|0|2,0:0|0:0|0:0,0:0:0:0:
280,280,46184,1,0,0:0:0:0:
396,168,46766,2,0,B|412:100|412:100|352:100|336:44|256:116,1,240,2|0,0:0|0:0,0:0:0:0:
272,196,47786,2,0,P|280:288|188:324,1,200,2|0,0:0|0:0,0:0:0:0:
212,248,48660,1,2,0:0:0:0:
188,88,48951,6,0,P|112:71|53:121,1,160,4|0,0:0|0:0,0:0:0:0:
132,144,49388,2,0,P|95:211|132:279,1,160,8|0,0:0|0:0,0:0:0:0:
176,212,49825,2,0,L|352:212,2,160,0|4|0,0:0|0:0|0:0,0:0:0:0:
204,288,50553,2,0,L|368:288,1,160,8|0,0:0|0:0,0:0:0:0:
428,336,50990,2,0,P|440:304|432:248,1,80,0|8,0:0|0:0,0:0:0:0:
436,180,51281,6,0,P|364:148|284:160,1,160,4|0,0:0|0:0,0:0:0:0:
204,160,51718,2,0,P|188:124|196:80,1,80,8|0,0:0|0:0,0:0:0:0:
260,40,52009,2,0,P|172:12|120:64,2,160,0|8|0,0:0|0:0|0:0,0:0:0:0:
256,192,52737,12,0,53756,0:0:0:0:
392,108,54048,5,8,0:0:0:0:
256,192,54339,1,0,0:0:0:0:
120,108,54631,1,8,0:0:0:0:
84,252,54922,2,0,L|0:260,2,80,4|0|8,0:0|0:0|0:0,0:0:0:0:
256,236,55504,2,0,L|256:336,1,80,8|2,0:0|0:0,0:0:0:0:
416,340,55941,6,0,P|452:271|420:196,1,160,6|2,0:0|0:0,0:0:0:0:
356,156,56378,2,0,P|284:128|208:168,1,160,10|2,0:0|0:0,0:0:0:0:
256,236,56815,1,0,0:0:0:0:
176,228,56961,1,10,0:0:0:0:
124,288,57106,6,0,P|96:216|144:156,1,160,6|2,0:0|0:0,0:0:0:0:
196,96,57543,2,0,L|292:76,1,80,10|0,0:0|0:0,0:0:0:0:
352,72,57834,1,2,0:0:0:0:
392,144,57980,2,0,P|440:144|476:132,2,80,0|10|0,0:0|0:0|0:0,0:0:0:0:
400,232,58417,6,0,B|408:276|400:312|400:312|376:348|332:356,2,160,6|10|2,0:0|0:0|0:0,0:0:0:0:
320,232,59145,2,0,L|224:228,1,80,0|10,0:0|0:0,0:0:0:0:
160,224,59436,2,0,B|128:140|128:140|124:92|156:48,1,160,6|2,0:0|0:0,0:0:0:0:
220,64,59873,2,0,P|300:80|372:48,1,160,10|2,0:0|0:0,0:0:0:0:
452,48,60310,1,0,0:0:0:0:
444,128,60456,1,10,0:0:0:0:
440,208,60601,6,0,P|440:296|376:332,1,160,6|2,0:0|0:0,0:0:0:0:
316,300,61038,2,0,P|254:341|180:312,1,160,10|2,0:0|0:0,0:0:0:0:
112,268,61475,1,0,0:0:0:0:
140,192,61621,1,10,0:0:0:0:
140,192,61766,6,0,P|128:108|144:28,1,160,6|2,0:0|0:0,0:0:0:0:
220,56,62203,2,0,P|296:40|372:72,1,160,10|2,0:0|0:0,0:0:0:0:
324,136,62640,1,0,0:0:0:0:
324,136,62786,1,10,0:0:0:0:
384,188,62931,1,0,0:0:0:0:
384,188,63077,6,0,P|396:272|380:352,1,160,6|10,0:0|0:0,0:0:0:0:
304,336,63514,2,0,P|224:336|180:272,1,160,2|2,0:0|0:0,0:0:0:0:
192,196,63951,1,8,0:0:0:0:
112,204,64097,2,0,P|92:124|128:48,1,160,6|2,0:0|0:0,0:0:0:0:
208,44,64533,1,10,0:0:0:0:
348,148,64825,5,10,0:0:0:0:
348,148,64970,2,0,B|440:128|440:128|468:104|472:60,2,160,8|6|2,0:0|0:0|0:0,0:0:0:0:
288,212,65698,1,10,0:0:0:0:
364,256,65844,2,0,P|368:300|360:340,2,80,0|2|0,0:0|0:0|0:0,0:0:0:0:
292,292,66281,1,10,0:0:0:0:
216,316,66427,6,0,P|136:316|64:280,1,160,6|2,0:0|0:0,0:0:0:0:
96,132,66864,2,0,P|176:132|248:168,1,160,10|2,0:0|0:0,0:0:0:0:
308,116,67300,1,0,0:0:0:0:
380,80,67446,2,0,P|420:72|460:80,1,80,10|2,0:0|0:0,0:0:0:0:
420,152,67737,6,0,L|428:316,2,160,6|10|2,0:0|0:0|0:0,0:0:0:0:
344,168,68465,2,0,L|348:260,1,80,0|10,0:0|0:0,0:0:0:0:
268,252,68757,6,0,P|196:264|116:236,1,160,6|2,0:0|0:0,0:0:0:0:
120,156,69194,2,0,P|200:140|272:172,1,160,10|2,0:0|0:0,0:0:0:0:
396,256,69631,1,0,0:0:0:0:
364,336,69776,1,10,0:0:0:0:
280,340,69922,6,0,L|112:340,1,160,6|2,0:0|0:0,0:0:0:0:
72,276,70359,2,0,P|48:196|76:124,2,160,10|2|10,0:0|0:0|0:0,0:0:0:0:
144,236,71087,2,0,B|204:208|204:208|296:224,1,160,6|2,0:0|0:0,0:0:0:0:
368,188,71524,2,0,P|392:112|372:36,2,160,10|2|10,0:0|0:0|0:0,0:0:0:0:
292,160,72252,1,2,0:0:0:0:
216,168,72398,6,0,L|220:264,1,80,4|2,0:0|0:0,0:0:0:0:
396,332,72689,2,0,L|392:236,1,80,10|0,0:0|0:0,0:0:0:0:
324,200,72980,2,0,P|356:172|404:168,2,80,2|0|10,0:0|0:0|0:0,0:0:0:0:
288,272,73417,6,0,P|223:329|144:332,1,160,6|2,0:0|0:0,0:0:0:0:
80,304,73854,2,0,P|64:264|72:220,1,80,10|0,0:0|0:0,0:0:0:0:
140,192,74145,1,2,0:0:0:0:
212,232,74291,1,0,0:0:0:0:
216,152,74436,1,10,0:0:0:0:
168,80,74582,6,0,P|204:68|248:72,1,80,0|4,0:0|0:0,0:0:0:0:
364,188,75019,1,8,0:0:0:0:
364,188,75164,1,0,0:0:0:0:
252,72,75456,1,0,0:0:0:0:
252,72,75601,1,4,0:0:0:0:
252,232,75893,1,0,0:0:0:0:
252,232,76038,2,0,P|220:156|252:88,1,160,0|0,0:0|0:0,0:0:0:0:
304,160,76475,6,0,L|140:160,2,160,4|8|4,0:0|0:0|0:0,0:0:0:0:
256,312,77349,1,8,0:0:0:0:
312,372,77495,2,0,P|332:284|288:236,1,160,0|0,0:0|0:0,0:0:0:0:
212,232,77931,2,0,P|173:180|196:92,1,160,8|0,0:0|0:0,0:0:0:0:
252,156,78368,2,0,L|420:156,1,160,0|0,0:0|0:0,0:0:0:0:
428,236,78805,2,0,L|332:236,2,80
336,104,79388,6,0,P|296:112|256:104,1,80,4|0,0:0|0:0,0:0:0:0:
180,124,79679,1,0,0:0:0:0:
116,180,79825,1,0,0:0:0:0:
296,340,80262,1,0,0:0:0:0:
372,296,80407,1,0,0:0:0:0:
372,296,80553,6,0,L|344:200,1,80
496,28,81135,2,0,L|400:32,1,80
372,108,81427,1,0,0:0:0:0:
372,108,81572,1,0,0:0:0:0:
288,132,81718,6,0,P|284:88|304:40,2,80,4|0|0,0:0|0:0|0:0,0:0:0:0:
352,196,82155,1,0,0:0:0:0:
148,68,82592,1,0,0:0:0:0:
160,140,82737,1,0,0:0:0:0:
80,120,82884,6,0,P|83:159|101:195,1,80
284,348,83465,1,0,0:0:0:0:
284,348,83611,1,0,0:0:0:0:
332,284,83757,1,0,0:0:0:0:
332,284,83902,1,0,0:0:0:0:
284,220,84048,5,4,0:0:0:0:
284,220,84194,2,0,L|292:120,2,80,0|0|0,0:0|0:0|0:0,0:0:0:0:
116,48,84922,2,0,P|76:40|32:48,1,80
76,124,85213,6,0,L|76:204,1,80
256,44,85796,1,0,0:0:0:0:
212,120,85941,1,0,0:0:0:0:
300,116,86087,2,0,P|308:156|300:196,1,80
252,268,86378,6,0,L|164:260,1,80,4|0,0:0|0:0,0:0:0:0:
196,344,86669,2,0,L|284:352,1,80
396,144,87252,6,0,L|480:144,2,80,0|0|4,0:0|0:0|0:0,0:0:0:0:
436,40,87689,1,0,0:0:0:0:
256,200,88126,1,4,0:0:0:0:
296,276,88271,1,4,0:0:0:0:
