osu file format v12

[General]
AudioFilename: Daydream Syndrome (TV Sizes).mp3
AudioLeadIn: 1000
PreviewTime: 55504
Countdown: 0
SampleSet: Normal
StackLeniency: 0.7
Mode: 0
LetterboxInBreaks: 0
WidescreenStoryboard: 0

[Editor]
Bookmarks: 7155,16475,39631,44436,49097,49825,61184
DistanceSpacing: 0.9
BeatDivisor: 4
GridSize: 4
TimelineZoom: 1

[Metadata]
Title:Daydream Syndrome (TV Size)
TitleUnicode:Daydream Syndrome (TV Size)
Artist:Fujiwara Marina
ArtistUnicode:藤原鞠菜
Creator:AsprikaQ
Version:Easy
Source:Yumekui Merry
Tags:Dream Eater IOSYS void OP opening
BeatmapID:252798
BeatmapSetID:93619

[Difficulty]
HPDrainRate:2
CircleSize:3
OverallDifficulty:2
ApproachRate:3
SliderMultiplier:0.9
SliderTickRate:1

[Events]
//Background and Video events
0,0,"BG.jpg",0,0
Video,-5,"video.avi"
//Break Periods
//Storyboard Layer 0 (Background)
//Storyboard Layer 1 (Fail)
//Storyboard Layer 2 (Pass)
//Storyboard Layer 3 (Foreground)
//Storyboard Sound Samples
//Background Colour Transformations
3,100,255,255,255

[TimingPoints]
165,291.26213592233,4,1,1,40,1,0
15164,-100,4,2,1,40,0,0
16475,-100,4,1,1,40,0,0
32786,-100,4,1,1,40,0,0
35116,-100,4,2,1,30,0,0
39631,-100,4,1,1,40,0,0
44436,-100,4,2,1,30,0,0
48660,-100,4,2,1,30,0,0
48951,-100,4,1,1,40,0,0
55941,-100,4,1,1,40,0,1
73563,-100,4,1,1,40,0,0
78805,-100,4,2,1,20,0,0
79388,-100,4,1,1,40,0,0

[Colours]
Combo1 : 175,175,216
Combo2 : 184,111,227
Combo3 : 26,173,230
Combo4 : 179,244,218

[HitObjects]
256,192,747,12,4,2495,0:0:0:0:
100,192,3368,5,0,0:0:0:0:
332,260,4242,1,0,0:0:0:0:
384,324,4533,2,0,P|412:288|408:232,1,90,0|4,0:0|0:0,0:0:0:0:
256,180,5698,1,0,0:0:0:0:
332,212,5990,2,0,P|260:264|172:184,1,225,0|4,0:0|0:0,0:0:0:0:
52,192,7155,6,0,P|40:148|52:104,1,90,4|8,0:0|0:0,0:0:0:0:
132,80,7737,2,0,L|276:80,2,135,0|4|8,0:0|0:0|0:0,0:0:0:0:
128,160,8902,1,0,0:0:0:0:
188,216,9194,2,0,L|284:216,1,90,8|4,0:0|0:0,0:0:0:0:
360,212,9776,2,0,P|372:168|360:124,1,90,8|0,0:0|0:0,0:0:0:0:
256,64,10504,6,0,P|188:64|140:108,1,135,4|8,0:0|0:0,0:0:0:0:
136,188,11232,1,0,0:0:0:0:
216,196,11524,1,8,0:0:0:0:
256,268,11815,6,0,B|296:288|344:268|344:268|384:248|432:268,1,180,4|0,0:0|0:0,0:0:0:0:
436,144,12834,2,0,L|296:144,1,135,4|8,0:0|0:0,0:0:0:0:
232,188,13563,2,0,P|220:148|232:100,1,90,0|8,0:0|0:0,0:0:0:0:
156,72,14145,6,0,P|92:44|24:56,1,135
256,192,15164,12,4,16475,0:0:0:0:
432,336,17058,6,0,P|459:252|428:169,1,180,8|0,0:0|0:0,0:0:0:0:
268,140,18223,1,8,0:0:0:0:
124,212,18805,2,0,B|68:124|128:32,2,180,4|8|0,0:0|0:0|0:0,0:0:0:0:
256,308,20553,1,8,0:0:0:0:
416,300,21135,6,0,B|404:220|340:188|340:188|356:140,2,180,4|8|0,0:0|0:0|0:0,0:0:0:0:
256,280,22883,2,0,P|268:324|256:372,1,90,8|0,0:0|0:0,0:0:0:0:
188,328,23465,6,0,L|4:328,1,180,4|0,0:0|0:0,0:0:0:0:
32,168,24631,2,0,L|216:168,1,180
352,248,25796,6,8,L|172:248,2,180,4|8|0,0:0|0:0|0:0,0:0:0:0:
300,96,27543,2,0,L|200:96,2,90,0|0|4,0:0|0:0|0:0,0:0:0:0:
168,192,28708,6,0,L|352:192,2,180,8|0|8,0:0|0:0|0:0,0:0:0:0:
256,328,30456,2,0,L|64:328,2,180,4|8|0,0:0|0:0|0:0,0:0:0:0:
412,288,32203,2,0,P|424:240|412:196,1,90,8|0,0:0|0:0,0:0:0:0:
344,240,32786,6,0,P|260:268|172:244,1,180
32,324,33951,2,0,P|-8:252|20:164,1,180
180,132,35116,6,0,P|316:36|460:136,1,360,4|2,0:0|0:0,0:0:0:0:
308,192,36864,1,2,0:0:0:0:
456,260,37446,6,0,P|316:356|177:260,1,360,2|2,0:0|0:0,0:0:0:0:
8,36,39631,6,0,P|-16:96|4:164,1,135,4|8,0:0|0:0,0:0:0:0:
32,236,40359,2,0,P|100:256|152:224,1,135,0|4,0:0|0:0,0:0:0:0:
268,256,41232,1,8,0:0:0:0:
348,256,41524,1,0,0:0:0:0:
448,188,41961,6,0,P|472:116|452:60,1,135,4|8,0:0|0:0,0:0:0:0:
372,64,42689,1,0,0:0:0:0:
292,64,42980,1,0,0:0:0:0:
212,64,43271,2,0,P|140:112|88:188,1,180,4|8,0:0|0:0,0:0:0:0:
248,192,44436,5,4,0:0:0:0:
356,312,45019,2,0,P|440:276|464:188,1,180,2|0,0:0|0:0,0:0:0:0:
344,88,46184,1,2,0:0:0:0:
192,32,46766,2,0,B|104:84|136:192|136:192|96:280|156:356,1,360,2|2,0:0|0:0,0:0:0:0:
304,288,48514,1,2,0:0:0:0:
404,356,48951,6,0,P|428:296|412:224,1,135,6|8,0:0|0:0,0:0:0:0:
376,156,49679,2,0,P|308:136|248:156,1,135,0|6,0:0|0:0,0:0:0:0:
312,260,50553,1,8,0:0:0:0:
308,340,50844,2,0,P|245:303|236:240,1,135,0|4,0:0|0:0,0:0:0:0:
256,124,51718,1,8,0:0:0:0:
324,80,52009,6,0,B|364:140|364:140|340:256,2,180,8|4|8,0:0|0:0|0:0,0:0:0:0:
256,228,53757,1,4,0:0:0:0:
192,180,54048,2,0,P|176:220|188:268,1,90,8|0,0:0|0:0,0:0:0:0:
256,312,54631,2,0,L|356:312,2,90,8|4|8,0:0|0:0|0:0,0:0:0:0:
160,112,55941,6,0,P|256:72|360:120,1,225,6|2,0:0|0:0,0:0:0:0:
356,240,57106,2,0,P|260:280|156:232,1,225,6|2,0:0|0:0,0:0:0:0:
152,152,58126,1,10,0:0:0:0:
80,192,58417,6,0,P|56:252|76:320,1,135,6|2,0:0|0:0,0:0:0:0:
156,320,59145,1,0,0:0:0:0:
236,320,59436,2,0,L|384:320,1,135,6|10,0:0|0:0,0:0:0:0:
416,252,60164,1,2,0:0:0:0:
324,172,60601,6,0,P|356:116|336:40,1,135,6|10,0:0|0:0,0:0:0:0:
276,100,61330,1,2,0:0:0:0:
172,36,61766,2,0,P|148:96|168:160,1,135,6|10,0:0|0:0,0:0:0:0:
140,236,62495,2,0,P|152:280|140:324,1,90,2|10,0:0|0:0,0:0:0:0:
220,344,63077,6,0,L|360:344,1,135,6|2,0:0|0:0,0:0:0:0:
416,192,64097,2,0,L|276:192,1,135,6|10,0:0|0:0,0:0:0:0:
200,192,64825,1,2,0:0:0:0:
152,80,65262,6,0,L|380:80,1,225,6|2,0:0|0:0,0:0:0:0:
328,192,66427,2,0,L|104:192,1,225,6|2,0:0|0:0,0:0:0:0:
92,272,67446,1,10,0:0:0:0:
84,352,67737,6,0,P|24:316|12:252,1,135,6|2,0:0|0:0,0:0:0:0:
12,176,68465,1,0,0:0:0:0:
16,96,68757,2,0,L|156:96,1,135,6|10,0:0|0:0,0:0:0:0:
232,96,69485,1,2,0:0:0:0:
352,96,69922,6,0,P|401:192|353:289,1,225,6|2,0:0|0:0,0:0:0:0:
252,360,71087,2,0,P|228:292|256:228,1,135,6|10,0:0|0:0,0:0:0:0:
256,156,71815,2,0,L|256:52,2,90,2|10|6,0:0|0:0|0:0,0:0:0:0:
256,192,72834,12,0,74145,0:0:0:0:
156,128,74728,6,0,P|136:192|152:256,2,135,4|0|4,0:0|0:0|0:0,0:0:0:0:
256,60,76038,1,0,0:0:0:0:
256,180,76475,2,0,L|256:276,1,90,0|8,0:0|0:0,0:0:0:0:
336,272,77058,6,0,P|304:340|248:352,2,135,4|0|4,0:0|0:0|0:0,0:0:0:0:
256,180,78368,1,0,0:0:0:0:
48,48,79388,6,0,L|56:144,1,90,4|0,0:0|0:0,0:0:0:0:
76,300,80262,2,0,P|118:311|161:299,1,90
312,236,81135,2,0,P|324:192|308:144,1,90
244,192,81718,5,4,0:0:0:0:
448,60,82592,2,0,L|428:164,1,90
296,56,83465,6,0,L|204:56,2,90,0|0|4,0:0|0:0|0:0,0:0:0:0:
72,148,84922,2,0,L|72:244,1,90
212,320,85796,2,0,L|304:320,1,90
384,320,86378,5,4,0:0:0:0:
428,76,87252,2,0,L|328:76,1,90,0|4,0:0|0:0,0:0:0:0:
224,192,88126,2,0,L|168:192,1,45,0|4,0:0|0:0,0:0:0:0:
