osu file format v9

[General]
AudioFilename: Fujiwara Marina - Daydream Syndrome.mp3
AudioLeadIn: 0
PreviewTime: 55652
Countdown: 0
SampleSet: Normal
StackLeniency: 0.7
Mode: 0
LetterboxInBreaks: 1

[Editor]
Bookmarks: 16841,55798,97885,127739,152715,172084,188904,214317
DistanceSpacing: 1
BeatDivisor: 4
GridSize: 8

[Metadata]
Title:Daydream Syndrome
Artist:Fujiwara Marina
Creator:Nekoo[]
Version:Insane
Source:Yumekui Merry
Tags:

[Difficulty]
HPDrainRate:7
CircleSize:4
OverallDifficulty:7
ApproachRate:9
SliderMultiplier:2
SliderTickRate:1

[Events]
//Background and Video events
0,0,"BGDdS.jpg"
//Break Periods
2,89347,98159
2,152260,170683
//Storyboard Layer 0 (Background)
//Storyboard Layer 1 (Fail)
//Storyboard Layer 2 (Pass)
//Storyboard Layer 3 (Foreground)
//Storyboard Sound Samples
//Background Colour Transformations
3,100,163,162,255

[TimingPoints]
604,291.26213592233,4,1,0,5,1,0
2861,-100,4,1,1,100,0,0
15968,-100,4,2,0,100,0,0
16987,-133.333333333333,4,2,1,100,0,0
26453,-100,4,2,1,100,0,0
32570,-100,4,1,1,100,0,0
35191,-200,4,2,0,100,0,0
39997,-100,4,1,1,100,0,0
44511,-200,4,2,0,100,0,0
49317,-100,4,1,1,100,0,0
55870,-200,4,2,0,100,0,0
56380,-100,4,1,1,100,0,1
64681,-200,4,1,1,100,0,0
65701,-100,4,1,1,100,0,1
75167,-100,4,1,1,100,0,0
79171,-100,4,2,0,100,0,0
79608,-100,4,1,0,100,0,0
89074,-100,4,2,1,100,0,0
104803,-100,4,1,1,100,0,0
107424,-200,4,2,0,100,0,0
112230,-100,4,1,1,100,0,0
116744,-200,4,2,0,100,0,0
121550,-100,4,1,1,100,0,0
128103,-200,4,2,0,100,0,0
128613,-100,4,1,1,100,0,1
136914,-200,4,1,1,100,0,0
137934,-100,4,1,1,100,0,1
147400,-100,4,1,1,100,0,0
151404,-200,4,2,0,100,0,0
179948,-100,4,1,1,100,0,0
184608,-200,4,1,0,100,0,0
189196,-100,4,1,1,100,0,1
197497,-200,4,1,1,100,0,0
198516,-100,4,1,1,100,0,1
207982,-100,4,1,1,100,0,0
211987,-100,4,2,0,100,0,0

[Colours]
Combo1 : 155,21,129
Combo2 : 81,0,81
Combo3 : 221,200,220

[HitObjects]
256,192,1478,12,0,2643
340,268,2934,5,4
472,176,3079,1,0
352,188,3225,5,0
368,88,3370,1,0
172,116,3807,5,4
40,208,3952,1,0
160,196,4098,5,0
144,296,4243,1,0
252,76,4681,6,4,B|252:128|252:128|296:168,1,100,0|4
264,304,4972,2,0,B|264:252|264:252|220:212,1,100
348,216,5264,6,0,B|428:280,2,100,4|0|0
348,216,5701,1,0
164,168,6137,6,0,B|84:104,2,100,4|0|0
164,168,6574,1,0
440,344,7011,5,0
440,344,7157,2,0,B|240:344,1,200
116,272,7594,6,0,B|80:240|80:240|80:180,1,100,4|0
220,88,7885,2,0,B|256:120|256:120|256:180,1,100,8|0
392,272,8176,2,0,B|428:240|428:240|428:140|428:140|392:104,1,200,0|8
352,192,8613,2,0,B|304:240|304:240|240:240|240:240|192:288,1,200
288,312,9050,2,0,B|215:384,1,100,8|0
48,344,9341,2,0,B|120:271,1,100
96,104,9633,2,0,B|23:176,1,100,8|8
176,104,9924,6,0,B|208:80|208:80|272:80,1,100,4|0
400,192,10215,2,0,B|288:192,1,100,8|0
448,272,10506,2,0,B|312:272|312:272|256:312,1,200,0|8
264,208,10943,2,0,B|211:245|211:245|75:245,1,200
224,336,11380,2,0,B|312:272,1,100,8|0
184,168,11671,2,0,B|272:104,1,100
96,72,11963,2,0,B|8:136,1,100,8|8
176,80,12254,6,0,B|264:16,1,100,4|0
408,96,12545,2,0,B|344:96|344:96|312:72,1,100,8|0
464,168,12837,2,0,B|464:248|464:248|440:288|440:288|440:368,1,200,0|8
340,361,13273,2,0,B|340:287|340:287|316:247|316:247|316:167,1,200
240,320,13710,2,0,B|192:232,1,100,8|0
24,192,14002,2,0,B|80:192|80:192|120:160,1,100
264,88,14293,2,0,B|208:88|208:88|168:120,1,100,8|8
72,64,14584,5,8
72,64,14730,1,0
240,320,15021,1,8
240,320,15167,1,0
464,120,15458,1,8
464,120,15603,1,0
48,344,16040,6,0,B|48:240,1,100,2|0
192,200,16332,2,0,B|264:120,1,100,2|0
392,200,16623,2,0,B|512:200,1,100,2|0
492,200,16914,1,4
416,328,17205,5,2
416,328,17351,2,0,B|256:328,1,149.999995529652,2|2
232,256,17788,1,0
232,256,17934,2,0,B|184:296|184:296|88:296,1,149.999995529652,2|0
96,296,18370,1,0
8,176,18662,2,0,B|96:176,1,74.9999977648259,0|8
112,104,18953,2,0,B|184:144,1,74.9999977648259,0|8
248,176,19244,1,12
472,48,19536,5,2
472,48,19681,2,0,B|472:208,1,149.999995529652,2|2
400,168,20118,1,0
400,168,20264,2,0,B|400:328,1,149.999995529652,2|0
400,318,20701,1,0
248,320,20992,1,0
176,344,21137,1,8
128,288,21283,1,0
56,296,21429,1,8
56,296,21574,1,12
56,144,21866,5,2
112,96,22011,2,0,B|149:125|149:125|201:124|201:124|257:169,1,149.999995529652,2|2
272,88,22448,1,0
272,88,22594,2,0,B|392:192,1,149.999995529652,2|0
385,186,23031,1,0
384,344,23322,2,0,B|440:296,1,74.9999977648259,0|8
368,264,23613,2,0,B|272:264,1,74.9999977648259,2|8
280,336,23904,6,0,B|120:336,1,149.999995529652,14|0
130,336,24487,1,2
232,48,25070,6,0,B|392:48,1,149.999995529652,6|0
382,48,25653,1,10
256,160,26089,5,8
256,160,26235,1,12
56,192,26526,5,2
72,288,26671,2,0,B|120:248|120:248|264:248,1,200,10|2
208,336,27108,1,0
208,336,27254,2,0,B|416:336,1,200,10|0
408,336,27691,1,0
464,48,27982,1,0
400,120,28128,1,8
488,168,28273,1,0
432,248,28419,1,8
432,248,28565,1,12
48,48,28856,5,2
88,144,29002,2,0,B|128:216|208:216|248:144,1,200,10|2
168,88,29438,1,0
88,144,29584,2,0,B|88:344,1,200,10|0
88,344,30021,1,0
288,344,30312,2,0,B|392:344,1,100,0|8
376,248,30603,2,0,B|456:176,1,100,0|8
450,181,30895,1,12
256,192,31186,5,2
120,176,31332,2,0,B|280:48,1,200,10|2
256,192,31769,1,0
392,208,31914,2,0,B|232:336,1,200,10|0
235,332,32351,1,0
256,56,32642,5,0
256,56,32788,1,0
176,120,32934,2,2,B|16:248,1,200,10|6
168,320,33370,2,0,B|216:280|216:280|264:280,1,100,0|8
416,344,33662,2,0,B|352:344|352:344|312:320,1,100,0|2
480,272,33953,2,0,B|480:168,1,100,0|8
352,56,34244,1,0
392,224,34390,6,0,B|360:200|360:200|360:136,1,100,10|0
256,280,34681,2,0,B|256:160,1,100,8|0
136,56,34972,2,0,B|136:160,1,100,8|8
136,232,35264,5,2
136,232,35409,1,0
56,280,35555,2,0,B|56:168,1,100,2|0
216,216,36137,2,0,B|288:144,1,100,2|0
424,168,36720,2,0,B|352:240,1,100,2|0
280,360,37303,2,0,B|280:248,1,100,2|0
296,184,37739,1,2
296,184,37885,2,0,B|368:112,1,100,2|0
224,64,38468,2,0,B|152:136,1,100,0|2
112,72,38904,2,0,B|48:136|48:136|48:248,1,200,2|0
120,216,39633,2,0,B|120:272,1,50,2|0
456,336,40070,6,2,B|456:136,1,200,6|0
288,128,40506,2,0,B|320:96|320:96|376:96,1,100,10|0
216,40,40798,2,0,B|184:72|184:72|128:72,1,100,2|0
129,72,41089,1,8
8,192,41235,6,2,B|56:240|56:240|120:240|120:240|168:288,1,200,6|0
336,304,41671,2,0,B|304:336|304:336|248:336,1,100,10|0
400,248,41963,2,0,B|504:248,1,100,2|0
500,248,42254,1,8
472,80,42400,6,2,B|432:152|352:152|312:80,1,200,6|0
313,82,42837,1,8
256,272,43128,1,2
256,32,43419,1,8
80,128,43710,2,2,B|120:56|200:56|240:128,1,200,2|8
256,352,44293,1,10
256,272,44584,6,0,B|256:208,1,50,2|0
328,232,44875,2,0,B|328:184|328:184|368:144,1,100,2|0
504,216,45458,2,0,B|384:216,1,100,2|0
304,64,46040,2,0,B|408:64,1,100,2|0
272,144,46623,2,0,B|152:144,1,100,2|0
32,80,47205,2,0,B|136:80,1,100,2|0
8,160,47788,2,0,B|48:160|48:160|104:200,1,100,0|2
32,240,48225,2,0,B|80:272|80:272|168:272|168:272|216:304,1,200,2|0
152,352,48953,2,0,B|200:384,1,50,2|0
416,256,49390,6,2,B|280:256|280:256|224:216,1,200,6|0
224,48,49827,2,0,B|224:112|224:112|256:136,1,100,10|0
104,208,50118,2,0,B|27:146,1,100,2|0
25,145,50409,1,8
24,312,50555,6,2,B|86:358|86:358|222:358,1,200,6|0
312,224,50992,2,0,B|312:288|312:288|280:312,1,100,10|0
312,144,51283,2,0,B|312:80|312:80|344:56,1,100,2|0
340,58,51574,1,8
456,168,51720,6,2,B|456:368,1,200,6|0
456,368,52157,1,8
56,216,52448,2,2,B|56:16,1,200,2|8
280,376,53031,2,2,B|80:376,1,200,2|8
232,24,53613,2,2,B|432:24,1,200,2|8
89,134,54196,5,8
198,358,54487,1,8
422,249,54778,1,8
313,25,55070,1,8
144,232,55361,5,8
256,312,55506,1,0
368,232,55652,1,8
256,232,55943,5,0
256,160,56089,2,0,B|256:56,1,100,0|6
40,48,56671,5,2
32,216,56817,2,0,B|64:184|64:184|120:184,1,100,10|0
184,344,57108,2,0,B|104:280,1,100,2|0
264,344,57400,1,10
328,272,57545,2,2,B|392:320|392:320|512:320,1,200,6|2
384,208,57982,6,0,B|296:144,1,100,10|0
136,128,58273,2,0,B|224:192,1,100,2|0
256,16,58565,1,8
160,42,58710,2,2,B|320:162,1,200,6|2
488,168,59147,6,0,B|400:104,1,100,10|0
352,272,59438,2,0,B|264:336,1,100,2|0
128,272,59730,1,8
0,280,59875,2,2,B|56:232|56:232|56:96,1,200,6|0
56,105,60312,1,8
296,360,60603,6,2,B|448:224,1,200,2|8
408,56,61040,2,2,B|256:192,1,200,6|0
80,160,61477,2,0,B|232:24,1,200,8|0
48,336,62060,5,10
96,248,62205,2,2,B|144:304|144:304|280:304,1,200,6|0
384,216,62642,1,10
472,72,62788,2,0,B|472:184,1,100,0|2
304,152,63079,2,0,B|272:128|272:128|200:128,1,100,0|10
72,128,63370,1,0
184,40,63516,6,2,B|384:40,1,200,2|8
304,152,63953,2,2,B|104:152,1,200,6|0
32,272,64390,1,10
144,352,64536,1,2
144,352,64681,5,8
192,296,64827,1,0
264,320,64972,1,8
472,192,65264,1,0
400,192,65409,2,0,B|288:192,1,100,0|6
48,48,65992,5,2
80,216,66137,2,0,B|112:184|112:184|168:184,1,100,10|0
272,48,66429,2,0,B|192:120,1,100,2|0
328,160,66720,1,8
440,112,66866,2,2,B|440:240|440:240|376:296,1,200,6|2
224,336,67303,6,0,B|304:264,1,100,10|0
136,232,67594,2,0,B|56:304,1,100,2|0
56,160,67885,1,8
136,72,68031,2,2,B|208:72|208:72|256:48|256:48|336:48,1,200,6|2
472,144,68468,6,0,B|352:144,1,100,10|0
232,240,68759,2,0,B|336:240,1,100,2|0
464,336,69050,1,8
464,336,69196,2,2,B|256:336,1,200,6|0
264,336,69633,1,8
8,224,69924,6,2,B|58:173|58:173|75:122|75:122|132:65,1,200,2|8
128,208,70361,2,2,B|272:64,1,200,6|0
280,192,70798,2,0,B|231:242|231:242|176:268|176:268|129:317,1,200,8|0
488,192,71380,5,10
404,293,71526,2,2,B|404:221|404:221|396:213|396:213|396:173|396:173|404:165|404:165|404:101,1,200,6|0
240,48,71963,2,0,B|272:72|272:72|336:72,1,100,10|0
176,128,72254,2,0,B|144:104|144:104|80:104,1,100,2|0
176,248,72545,2,0,B|176:352,1,100,10|0
296,352,72837,5,10
336,216,72982,1,0
432,112,73128,1,0
320,192,73273,1,2
312,48,73419,1,8
288,184,73565,1,0
184,88,73710,1,8
184,88,73856,2,2,B|128:144|128:144|8:144,1,200,10|0
40,280,74293,2,0,B|96:224|96:224|216:224,1,200,8|0
480,208,74875,5,10
344,248,75021,1,0
256,360,75167,1,14
0,32,75603,1,8
256,360,76040,1,8
512,32,76477,1,8
176,230,76914,5,10
294,271,77060,1,0
335,153,77205,1,10
217,112,77351,1,8
256,192,77497,5,14
256,192,77642,1,0
32,344,77934,1,8
32,344,78079,1,0
256,192,78370,1,8
256,192,78516,1,0
480,344,78808,1,8
480,344,78953,1,0
256,88,79244,5,2
256,120,79536,1,2
456,80,79827,6,0,B|344:80,2,100,4|0|0
456,80,80264,1,0
56,304,80701,6,0,B|168:304,2,100,4|0|0
56,304,81138,1,0
344,208,81574,6,0,B|272:288,1,100
168,176,81866,2,0,B|240:96,1,100
256,192,82157,5,4
352,64,82303,1,0
416,160,82448,5,0
504,120,82594,1,0
256,192,83031,5,4
160,320,83177,1,0
96,224,83322,5,0
8,264,83468,1,0
217,112,83904,5,0
335,153,84050,1,0
294,271,84196,1,0
176,230,84341,1,0
256,192,84487,5,4
408,240,84633,1,0
294,271,84778,5,0
376,336,84924,1,0
256,192,85361,5,4
104,144,85507,1,0
218,113,85652,5,0
136,48,85798,1,0
312,120,86235,6,0,B|416:120,1,100
200,264,86526,2,0,B|96:264,1,100
272,320,86817,6,0,B|376:320,3,100,4|0|0|0
240,64,87691,6,0,B|136:64,3,100,4|0|0|0
256,192,88565,5,0
256,192,88710,1,0
256,192,89147,5,4
88,192,98759,5,2
184,192,98904,2,0,B|208:168|208:168|240:224|240:224|288:192|288:192|352:192,1,200,10|2
331,192,99341,1,0
392,112,99487,2,0,B|464:152|464:232|392:272,1,200,10|0
394,270,99924,1,0
256,128,100215,1,0
184,192,100361,1,8
264,248,100506,1,0
216,336,100652,1,8
216,336,100798,1,12
16,48,101089,5,2
16,48,101235,2,0,B|224:48,1,200,10|2
360,128,101671,1,0
360,128,101817,2,0,B|144:128,1,200,10|0
160,128,102254,1,0
16,272,102545,2,0,B|16:160,1,100,0|8
104,216,102837,2,0,B|104:280|104:280|144:312,1,100,0|8
216,352,103128,1,12
416,352,103419,5,2
320,312,103565,2,0,B|336:272|360:256|408:248|408:248|408:160,1,200,10|2
408,64,104002,1,0
320,112,104147,2,0,B|288:112|288:112|264:88|264:88|192:88|192:88|168:112|168:112|136:112,1,200,10|0
139,112,104584,1,0
48,336,104875,5,0
48,336,105021,1,0
144,304,105167,1,10
112,192,105312,1,0
224,64,105458,2,0,B|224:168,1,100,6|0
376,272,105749,2,0,B|320:240|320:240|320:200,1,100,8|0
384,360,106040,2,2,B|264:288|264:288|264:360,1,200,2|8
264,197,106477,1,0
144,32,106623,2,2,B|264:104|264:104|264:32,1,200,10|8
24,192,107205,2,0,B|128:192,1,100,8|8
128,272,107497,5,2
208,280,107642,1,0
272,328,107788,2,0,B|296:360|336:368|376:352,1,100,2|0
488,264,108370,2,0,B|464:232|424:224|384:240,1,100,2|0
368,80,108953,2,0,B|344:112|304:120|264:104,1,100,2|0
278,108,109536,1,2
56,336,110118,6,0,B|56:216,1,100,2|0
128,96,110701,2,0,B|128:216,1,100,0|2
208,176,111137,2,0,B|264:240|264:240|392:240,1,200,2|0
416,312,111866,2,0,B|472:312,1,50,2|0
464,80,112303,6,2,B|336:80|336:80|272:32,1,200,6|0
352,192,112739,2,0,B|264:128,1,100,10|0
96,120,113031,2,0,B|184:184,1,100,2|0
288,256,113322,1,8
120,264,113468,6,2,B|224:336|224:336|296:336,1,200,6|0
456,280,113904,2,0,B|392:280|392:280|352:304,1,100,10|0
496,192,114196,2,0,B|496:88,1,100,2|0
496,92,114487,1,8
336,48,114633,6,2,B|120:48,1,200,6|0
288,128,115070,2,0,B|152:128|152:128|96:184,1,200,8|2
106,373,115652,1,8
288,304,115943,2,2,B|152:304|152:304|96:248,1,200,2|8
106,258,116526,1,10
200,216,116817,5,2
200,216,116963,2,0,B|256:216,1,50,0|2
408,216,117400,1,0
472,72,117691,2,0,B|352:72,1,100,2|0
232,144,118273,2,0,B|336:144,1,100,2|0
184,80,118856,2,0,B|72:80,1,100,2|0
152,224,119438,2,0,B|264:224,1,100,2|0
384,312,120021,2,0,B|280:312,1,100,0|2
208,344,120458,2,0,B|184:328|184:328|152:320|152:320|136:328|136:328|96:328|96:328|80:320|80:320|48:328|48:328|24:344,1,200,2|0
8,264,121186,2,0,B|32:256|56:240,1,50,2|0
336,56,121623,6,2,B|296:96|296:96|208:96|208:96|168:56,1,200,6|0
216,224,122060,2,0,B|144:152,1,100,10|0
312,200,122351,2,0,B|384:272,1,100,2|0
440,336,122642,1,8
400,168,122788,2,2,B|383:269|383:269|287:269,1,200,6|0
136,344,123225,6,0,B|234:346,1,100,10|0
80,280,123516,2,0,B|178:282,1,100,2|0
179,282,123807,1,8
344,224,123953,6,2,B|144:216,1,200,6|0
144,216,124390,1,8
304,328,124681,2,2,B|504:336,1,200,2|8
496,112,125264,2,2,B|296:104,1,200,2|8
296,104,125846,1,2
296,104,126137,1,8
209,161,126429,6,0,B|121:104,1,100,8|0
299,124,126720,2,0,B|356:37,1,100,8|0
302,222,127011,2,0,B|390:279,1,100,8|0
212,259,127303,2,0,B|155:346,1,100,8|0
328,336,127594,5,8
440,232,127739,1,0
424,80,127885,1,8
304,40,128176,5,0
232,40,128322,2,0,B|128:40,1,100,0|6
8,200,128904,5,2
64,320,129050,2,0,B|96:296|96:296|160:296,1,100,10|0
328,272,129341,2,0,B|296:296|296:296|232:296,1,100,2|0
328,184,129633,1,8
416,104,129778,2,2,B|416:232|416:232|480:280,1,200,6|2
328,184,130215,6,0,B|328:72,1,100,10|0
168,32,130506,2,0,B|168:136,1,100,2|0
168,272,130798,1,8
72,344,130943,2,2,B|72:144,1,200,6|2
168,272,131380,6,0,B|208:280|232:304|240:336,1,100,10|0
400,272,131671,2,0,B|360:280|336:304|328:336,1,100,2|0
284,199,131963,1,8
208,104,132108,2,2,B|168:32|88:32|48:104,1,200,6|0
128,160,132545,1,8
312,72,132837,6,2,B|376:112|376:112|440:112|440:112|496:144,1,200,2|8
408,192,133273,2,6,B|488:240|488:240|488:352,1,200,6|4
400,296,133710,2,0,B|328:248|328:248|216:248,1,200,8|0
40,344,134293,5,10
40,344,134438,2,2,B|40:144,1,200,6|0
152,64,134875,1,10
312,120,135021,2,0,B|280:152|280:152|216:152,1,100,0|2
368,64,135312,2,0,B|400:32|400:32|464:32,1,100,0|10
454,32,135603,1,0
456,200,135749,6,2,B|397:242|397:242|382:302|382:302|324:345,1,200,2|8
189,341,136186,2,2,B|134:303|134:303|118:239|118:239|62:199,1,200,6|0
63,199,136623,1,10
48,64,136769,1,2
184,56,136914,5,8
248,104,137060,1,0
328,88,137205,1,8
456,184,137497,1,0
456,264,137642,2,0,B|456:376,1,100,0|6
456,364,138225,5,2
304,288,138370,2,0,B|216:336,1,100,10|0
56,272,138662,2,0,B|144:224,1,100,2|0
264,152,138953,1,8
288,32,139099,2,2,B|104:128,1,200,6|2
110,124,139536,6,0,B|16:80,1,100,10|0
128,216,139827,2,0,B|33:171,1,100,2|0
152,304,140118,1,8
240,224,140264,2,2,B|296:272|296:272|424:272,1,200,6|2
296,152,140701,6,0,B|336:192|336:192|392:192,1,100,10|0
304,40,140992,2,0,B|384:120,1,100,2|0
232,88,141283,1,8
232,88,141429,2,2,B|32:88,1,200,6|0
32,88,141866,1,8
32,344,142157,6,2,B|56:368|56:368|96:312|96:312|128:344|128:344|184:344,1,200,2|8
112,224,142594,2,2,B|160:272|160:272|304:272,1,200,6|0
200,192,143031,2,0,B|400:192,1,200,8|0
464,48,143613,5,10
464,48,143759,2,2,B|256:48,1,200,6|0
120,136,144196,2,0,B|72:48,1,100,10|0
264,136,144487,2,0,B|168:80,1,100,2|0
440,136,144778,2,0,B|320:112,1,100,10|0
344,240,145070,5,10
240,328,145215,1,0
104,352,145361,1,0
240,312,145506,1,2
344,216,145652,1,8
224,296,145798,1,0
88,336,145943,1,8
16,216,146089,2,2,B|88:144|88:144|16:80,1,200,10|0
112,64,146526,2,0,B|169:113|169:113|313:113,1,200,8|0
152,248,147108,5,10
256,184,147254,1,0
360,248,147400,1,14
32,96,147837,1,8
256,376,148273,1,8
480,96,148710,1,8
140,216,149147,5,10
196,112,149293,1,0
316,112,149438,1,10
372,216,149584,1,8
256,192,149730,5,14
256,192,149875,1,0
16,32,150167,1,8
16,32,150312,1,0
256,192,150603,1,8
256,192,150749,1,0
496,32,151040,1,8
496,32,151186,1,0
256,320,151477,5,2
256,288,151769,1,2
256,88,152060,5,4
104,224,171283,6,0,B|272:344,1,200,2|2
408,160,172448,2,0,B|240:40,2,200,2|2|0
264,200,173904,2,0,B|96:80,1,200,2|0
160,224,174778,6,0,B|328:344,1,200,2|2
264,200,175652,2,0,B|328:248|328:248|448:248,1,200,0|2
48,48,177108,6,0,B|248:48,2,200,2|2|0
176,128,178565,2,0,B|376:128,1,200,2|0
376,128,179438,1,2
128,248,180021,5,8
16,352,180167,1,0
224,224,180458,5,8
192,360,180603,1,0
320,176,180895,5,8
320,288,181040,1,0
400,128,181332,5,8
456,208,181477,1,0
136,120,181769,5,8
224,40,181914,1,0
280,152,182060,1,8
368,72,182205,1,8
376,176,182351,5,8
376,280,182497,1,0
288,184,182788,5,8
240,304,182934,1,0
200,168,183225,5,8
120,296,183370,1,0
128,120,183662,5,8
8,248,183808,1,0
120,40,184099,6,0,B|320:40,1,200,8|0
464,128,184681,6,0,B|256:128,1,200,4|0
88,288,185846,2,0,B|288:288,1,200,4|0
216,56,187011,2,0,B|8:56,1,200,4|0
80,192,187885,5,0
112,192,188176,1,0
144,192,188468,1,0
216,192,188759,5,0
288,192,188904,2,0,B|400:192,1,100,0|6
388,192,189487,5,2
272,320,189633,2,0,B|304:288|304:288|368:288,1,100,10|0
192,280,189924,2,0,B|120:352,1,100,2|0
121,350,190215,1,8
48,256,190361,2,2,B|48:48,1,200,6|2
128,208,190798,6,0,B|128:96,1,100,10|0
296,144,191089,2,0,B|264:176|264:176|200:176,1,100,2|0
288,64,191380,1,8
384,136,191526,2,2,B|384:344,1,200,6|2
464,184,191963,6,0,B|464:64,1,100,10|0
384,232,192254,2,0,B|352:264|352:264|288:264,1,100,2|0
160,264,192545,1,8
56,200,192691,2,2,B|56:168|56:168|104:152|104:80|56:64|56:64|56:32,1,200,6|0
56,30,193128,1,8
376,56,193419,6,2,B|336:96|336:96|192:96,1,200,2|8
280,176,193856,2,2,B|488:176,1,200,6|0
352,288,194293,2,0,B|384:264|384:264|448:264,1,100,8|0
444,264,194584,1,0
40,344,194875,5,10
40,344,195021,2,2,B|248:344,1,200,6|0
88,264,195458,2,0,B|192:264,1,100,10|0
104,120,195749,2,0,B|0:120,1,100,2|0
152,40,196040,2,0,B|352:40,2,200,10|2|8
264,120,196769,2,2,B|464:120,1,200,6|0
464,120,197205,1,10
408,208,197351,1,2
432,304,197497,5,8
360,344,197642,1,0
280,336,197788,1,8
152,240,198079,1,0
152,240,198225,2,0,B|272:240,1,100,0|6
408,112,198807,5,2
256,40,198953,2,0,B|304:64|304:64|344:40,1,100,10|0
192,120,199244,2,0,B|144:96|144:96|104:120,1,100,2|0
8,224,199536,1,8
104,328,199681,2,2,B|192:384|192:384|272:328,1,200,6|2
440,320,200118,6,0,B|353:382,1,100,10|0
400,216,200409,2,0,B|432:192|432:192|496:192,1,100,2|0
368,128,200701,1,8
368,128,200846,2,2,B|352:128|352:128|336:104|336:104|304:136|272:136|240:104|240:104|224:128|224:128|208:128,1,200,6|2
40,104,201283,6,0,B|72:128|72:128|136:128,1,100,10|0
136,296,201574,2,0,B|48:232,1,100,2|0
192,224,201866,1,8
192,224,202011,2,2,B|360:346,1,200,6|0
353,341,202448,1,8
472,136,202739,6,2,B|472:336,1,200,2|8
376,232,203176,2,2,B|376:24,2,200,6|0|0
376,232,203904,1,0
160,56,204196,6,0,B|192:80|192:80|256:80,1,100,10|6
252,80,204487,1,0
80,96,204633,2,0,B|168:160,1,100,0|10
184,320,204924,2,0,B|96:256,1,100,0|2
232,208,205215,1,0
232,208,205361,2,0,B|320:272,1,100,10|0
432,344,205652,6,0,B|320:344,1,100,10|0
144,272,205943,2,0,B|256:272,1,100,0|2
104,128,206235,2,0,B|-8:128,1,100,8|0
152,48,206526,1,8
152,48,206671,2,2,B|352:48,1,200,10|0
472,128,207108,2,0,B|264:128,1,200,8|0
128,368,207691,5,10
256,312,207837,1,0
384,368,207982,1,14
56,104,208419,1,8
256,312,208856,1,8
456,104,209293,1,8
176,128,209730,6,0,B|248:56,1,100,10|0
336,256,210021,2,0,B|264:328,1,100,10|8
256,192,210312,5,14
256,192,210458,1,0
88,296,210749,1,8
88,296,210895,1,0
256,192,211186,1,8
256,192,211332,1,0
424,296,211623,1,8
424,296,211769,1,0
256,64,212060,5,2
256,96,212352,1,2
256,296,212642,5,4
