osu file format v12

[General]
AudioFilename: Golden Day.mp3
AudioLeadIn: 1500
PreviewTime: 33409
Countdown: 0
SampleSet: Soft
StackLeniency: 0.7
Mode: 0
LetterboxInBreaks: 0

[Editor]
Bookmarks: 15525,33409
DistanceSpacing: 1
BeatDivisor: 4
GridSize: 4

[Metadata]
Title:Golden Day (TV Size)
TitleUnicode:ゴールデン・デイ (TV Size)
Artist:Fujita Saki
ArtistUnicode:藤田咲
Creator:yanlu
Version:Hard
Source:Working!!
Tags:ending ed2 A1-pictures wagnaria
BeatmapID:203451
BeatmapSetID:70812

[Difficulty]
HPDrainRate:6
CircleSize:4
OverallDifficulty:7
ApproachRate:7
SliderMultiplier:1.6
SliderTickRate:2

[Events]
//Background and Video events
0,0,"BG.jpg",0,0
//Break Periods
//Storyboard Layer 0 (Background)
//Storyboard Layer 1 (Fail)
//Storyboard Layer 2 (Pass)
//Storyboard Layer 3 (Foreground)
//Storyboard Sound Samples
//Background Colour Transformations
3,100,163,162,255

[TimingPoints]
756,461.538461538462,4,2,1,20,1,0
871,-100,4,2,1,40,0,0
1909,-100,4,2,1,30,0,0
2140,-100,4,2,1,40,0,0
2371,-100,4,2,1,20,0,0
2602,-100,4,2,1,40,0,0
3986,-100,4,2,1,30,0,0
4448,-100,4,2,1,40,0,0
7217,-100,4,2,1,45,0,0
8140,-100,4,2,1,20,0,0
8602,-100,4,2,1,30,0,0
8948,-100,4,2,1,35,0,0
9409,-100,4,2,1,40,0,0
9525,-100,4,2,1,30,0,0
9756,-100,4,2,1,40,0,0
11371,-100,4,2,1,20,0,0
11832,-100,4,2,1,50,0,0
15063,-100,4,2,1,30,0,0
15525,-100,4,2,1,50,0,0
18640,-100,4,2,1,40,0,0
18986,-100,4,2,1,35,0,0
19217,-100,4,2,1,45,0,0
19679,-100,4,2,1,50,0,0
21294,-100,4,2,1,20,0,0
21525,-100,4,2,1,45,0,0
22909,-100,4,2,1,50,0,0
26602,-100,4,2,1,60,0,0
31217,-100,4,2,1,62,0,0
31679,-100,4,2,1,65,0,0
32602,-100,4,1,1,45,0,0
33063,-100,4,1,1,30,0,0
33179,-100,4,1,1,50,0,0
33986,-100,4,1,1,45,0,1
34102,-100,4,1,1,60,0,1
38602,-100,4,1,1,30,0,1
38717,-100,4,1,1,60,0,1
47832,-100,4,1,1,20,0,1
47948,-100,4,1,1,50,0,1
48640,-100,4,1,1,50,0,0
48756,-100,4,1,1,50,0,1
62602,-100,4,1,1,40,0,1
63063,-100,4,2,1,53,0,1
63525,-100,4,2,1,50,0,1
64332,-100,4,2,1,30,0,1
65140,-100,4,2,1,27,0,0
65832,-100,4,2,1,35,0,0
67217,-100,4,2,1,40,0,0
67909,500,4,2,1,30,1,0
68159,-100,4,2,1,20,0,0
69409,517.241379310345,4,2,1,20,1,0
69667,521.739130434783,4,2,1,20,1,0
69927,526.315789473684,4,2,1,20,1,0
70190,545.454545454546,4,2,1,20,1,0
71280,-100,4,2,1,30,0,0
71826,-100,4,2,1,20,0,0
72371,-100,4,2,1,10,0,0
72917,-100,4,2,1,5,0,0

[Colours]
Combo1 : 225,225,225
Combo2 : 145,207,253
Combo3 : 255,255,128
Combo4 : 255,128,192

[HitObjects]
104,192,756,1,4,0:0:0:0:
180,52,1217,1,8,0:0:0:0:
256,32,1448,2,0,P|320:76|328:156,1,160,0|0,0:0|0:0,0:0:0:0:
256,188,2140,2,0,L|244:268,1,80,2|0,0:0|0:0,0:0:0:0:
324,276,2602,1,0,0:0:0:0:
404,268,2833,2,0,L|392:188,2,80,0|8|0,0:0|0:0|0:0,0:0:0:0:
328,152,3525,2,0,P|272:112|192:140,1,160,0|2,0:0|0:0,0:0:0:0:
56,296,4448,6,0,P|112:336|192:308,1,160,0|8,0:0|0:0,0:0:0:0:
256,260,5140,1,0,0:0:0:0:
456,296,5602,2,0,P|400:336|320:308,1,160
256,260,6294,1,2,0:0:0:0:
200,192,6525,1,0,0:0:0:0:
256,124,6756,1,8,0:0:0:0:
312,192,6987,1,0,0:0:0:0:
200,192,7217,2,0,P|128:156|52:164,1,160,8|0,0:0|0:0,0:0:0:0:
312,192,8140,6,0,P|384:228|460:220,1,160,4|8,0:0|0:0,0:0:0:0:
452,140,8832,2,0,P|404:152|376:144,1,80
300,112,9294,2,0,P|256:128|240:156,1,80,0|8,0:0|0:0,0:0:0:0:
256,236,9756,1,0,0:0:0:0:
204,300,9986,1,2,0:0:0:0:
124,312,10217,1,0,0:0:0:0:
56,268,10448,1,2,0:0:0:0:
88,192,10679,1,0,0:0:0:0:
148,140,10909,2,0,P|148:76|92:116,1,160,0|2,0:0|0:0,0:0:0:0:
256,236,11832,6,0,P|332:228|400:272,1,160,0|8,0:0|0:0,0:0:0:0:
448,204,12525,2,0,P|388:152|380:76,1,160
448,24,13217,1,8,0:0:0:0:
460,108,13448,2,0,P|420:168|340:200,1,160
280,112,14140,1,2,0:0:0:0:
340,200,14371,1,0,0:0:0:0:
340,200,14602,1,8,0:0:0:0:
280,288,14832,2,0,P|248:320|216:336,2,80,0|8|0,0:0|0:0|0:0,0:0:0:0:
280,112,15525,6,0,P|216:160|200:236,1,160,4|8,0:0|0:0,0:0:0:0:
280,288,16217,1,0,0:0:0:0:
280,288,16448,2,0,P|344:240|360:164,1,160,0|8,0:0|0:0,0:0:0:0:
332,92,17140,1,0,0:0:0:0:
252,84,17371,6,0,P|220:112|208:148,1,80,2|0,0:0|0:0,0:0:0:0:
152,200,17832,2,0,P|184:220|228:220,1,80,8|0,0:0|0:0,0:0:0:0:
304,228,18294,2,0,P|288:272|264:292,2,80,0|0|8,0:0|0:0|0:0,0:0:0:0:
240,144,18986,1,0,0:0:0:0:
260,128,19102,1,0,0:0:0:0:
280,112,19217,6,0,L|340:60,1,80,2|0,0:0|0:0,0:0:0:0:
420,56,19679,1,8,0:0:0:0:
476,112,19909,1,0,0:0:0:0:
460,280,20371,1,0,0:0:0:0:
404,224,20602,1,8,0:0:0:0:
328,256,20832,2,0,L|256:296,2,80
292,180,21525,2,0,L|216:204,1,80,8|0,0:0|0:0,0:0:0:0:
140,160,21986,2,0,P|132:96|188:132,1,160,4|8,0:0|0:0,0:0:0:0:
256,308,22909,6,0,B|180:344|180:344|104:344,1,160,4|8,0:0|0:0,0:0:0:0:
140,268,23602,1,0,0:0:0:0:
212,224,23832,2,0,L|284:184,2,80,0|0|8,0:0|0:0|0:0,0:0:0:0:
336,292,24525,2,0,L|408:256,1,80
472,204,24986,1,0,0:0:0:0:
392,180,25217,2,0,P|352:188|312:184,1,80,8|0,0:0|0:0,0:0:0:0:
252,128,25679,1,0,0:0:0:0:
200,192,25909,2,0,P|161:188|121:196,2,80,0|8|0,0:0|0:0|0:0,0:0:0:0:
228,216,26487,1,0,0:0:0:0:
256,240,26602,5,4,0:0:0:0:
312,308,26832,1,0,0:0:0:0:
380,252,27063,1,8,0:0:0:0:
324,184,27294,1,0,0:0:0:0:
316,156,27409,1,0,0:0:0:0:
328,128,27525,2,0,P|348:88|380:72,1,80,2|0,0:0|0:0,0:0:0:0:
457,118,27986,1,8,0:0:0:0:
440,148,28102,1,0,0:0:0:0:
407,160,28217,1,0,0:0:0:0:
380,252,28448,6,0,P|424:252|456:268,1,80,2|0,0:0|0:0,0:0:0:0:
480,296,28794,1,0,0:0:0:0:
488,332,28909,1,8,0:0:0:0:
396,348,29140,1,0,0:0:0:0:
292,240,29371,2,0,P|292:280|316:312,1,80,2|0,0:0|0:0,0:0:0:0:
380,252,29832,1,8,0:0:0:0:
344,176,30063,6,0,B|288:144|232:180|232:180|176:216|116:184,1,240,4|8,0:0|0:0,0:0:0:0:
176,112,30986,1,0,0:0:0:0:
176,112,31217,1,2,0:0:0:0:
292,240,31448,1,0,0:0:0:0:
292,240,31679,1,8,0:0:0:0:
360,80,31909,1,4,0:0:0:0:
360,80,32140,2,0,P|400:88|424:120,1,80,0|0,0:0|0:0,0:0:0:0:
432,156,32486,1,0,0:0:0:0:
416,192,32602,1,8,0:0:0:0:
256,320,33063,2,0,P|176:336|112:296,1,160,8|8,3:0|0:0,0:0:0:0:
160,168,33756,1,0,0:0:0:0:
185,141,33871,1,0,0:0:0:0:
220,128,33986,6,0,P|256:116|296:128,1,80,4|0,0:0|0:0,0:0:0:0:
344,192,34448,1,8,0:0:0:0:
264,204,34679,2,0,P|292:256|348:272,1,120
384,272,35140,2,0,P|424:272|456:296,1,80,0|8,0:0|0:0,0:0:0:0:
320,300,35602,6,0,B|304:264|328:228|328:228|356:192|340:148,1,160,0|0,0:0|0:0,0:0:0:0:
213,53,36294,1,8,0:0:0:0:
256,176,36525,1,0,0:0:0:0:
293,51,36756,1,0,0:0:0:0:
189,129,36986,1,0,0:0:0:0:
319,127,37217,1,8,0:0:0:0:
257,176,37448,5,0,0:0:0:0:
257,208,37563,1,0,0:0:0:0:
253,240,37679,2,0,P|245:284|257:316,1,80,4|0,0:0|0:0,0:0:0:0:
338,337,38140,1,8,0:0:0:0:
408,288,38371,2,0,P|436:260|476:256,2,80,0|0|0,0:0|0:0|0:0,0:0:0:0:
336,240,39063,1,0,0:0:0:0:
404,188,39294,6,0,P|472:144|496:72,1,160,0|0,0:0|0:0,0:0:0:0:
428,40,39986,1,8,0:0:0:0:
376,108,40217,1,0,0:0:0:0:
352,132,40332,1,0,0:0:0:0:
320,144,40448,1,2,0:0:0:0:
256,88,40679,1,0,0:0:0:0:
240,172,40909,2,0,P|256:208|292:220,1,80,8|0,0:0|0:0,0:0:0:0:
256,88,41371,6,0,P|176:104|148:172,1,160,4|8,0:0|0:0,0:0:0:0:
104,256,42063,1,0,0:0:0:0:
132,272,42179,1,0,0:0:0:0:
164,272,42294,2,0,P|204:260|224:228,1,80,2|0,0:0|0:0,0:0:0:0:
208,140,42756,2,0,P|168:152|148:184,1,80,8|0,0:0|0:0,0:0:0:0:
224,228,43217,6,0,P|268:236|292:260,1,80,0|0,0:0|0:0,0:0:0:0:
364,308,43679,2,0,P|420:340|412:276,1,160,8|0,0:0|0:0,0:0:0:0:
396,192,44371,2,0,P|372:168|364:124,1,80,0|8,0:0|0:0,0:0:0:0:
448,120,44832,5,0,0:0:0:0:
464,144,44948,1,0,0:0:0:0:
476,172,45063,2,0,P|480:212|460:244,1,80,4|0,0:0|0:0,0:0:0:0:
384,276,45525,1,8,0:0:0:0:
440,336,45756,2,0,P|364:352|308:300,1,160,0|0,0:0|0:0,0:0:0:0:
256,236,46448,1,8,0:0:0:0:
204,300,46679,6,0,P|148:352|72:336,1,160,4|0,0:0|0:0,0:0:0:0:
124,268,47371,1,8,0:0:0:0:
64,208,47602,2,0,P|36:240|40:276,2,80,4|4|0,0:0|0:0|0:0,0:0:0:0:
140,184,48294,2,0,P|180:192|196:228,1,80,8|0,0:0|0:0,0:0:0:0:
212,260,48640,1,0,0:0:0:0:
240,288,48756,6,0,P|268:320|304:328,1,80,4|0,0:0|0:0,0:0:0:0:
316,244,49217,1,8,0:0:0:0:
360,172,49448,2,0,P|396:152|434:151,1,80
424,236,49909,2,0,P|460:256|498:256,1,80
316,244,50371,6,0,P|240:192|172:192,1,160,0|0,0:0|0:0,0:0:0:0:
136,296,51063,1,2,0:0:0:0:
76,212,51294,1,0,0:0:0:0:
48,236,51409,1,0,0:0:0:0:
28,268,51525,1,0,0:0:0:0:
64,349,51756,1,0,0:0:0:0:
136,296,51986,2,0,P|168:320|208:336,1,80,8|2,0:0|0:0,0:0:0:0:
240,340,52332,1,0,0:0:0:0:
276,332,52448,6,0,P|316:320|344:296,1,80,4|0,0:0|0:0,0:0:0:0:
416,244,52909,1,8,0:0:0:0:
344,296,53140,2,0,P|328:236|348:184,1,120
372,160,53602,2,0,P|396:128|400:88,1,80,8|2,0:0|0:0,0:0:0:0:
343,27,54063,6,0,B|308:55|314:101|314:101|269:178,1,160,4|0,0:0|0:0,0:0:0:0:
272,248,54756,1,8,0:0:0:0:
252,328,54986,2,0,P|192:272|200:200,1,160,4|0,0:0|0:0,0:0:0:0:
208,168,55563,1,0,0:0:0:0:
204,136,55679,1,8,0:0:0:0:
148,76,55909,1,0,0:0:0:0:
76,136,56140,6,0,P|112:160|132:192,1,80,4|0,0:0|0:0,0:0:0:0:
48,224,56602,1,8,0:0:0:0:
120,280,56832,1,0,0:0:0:0:
152,264,56948,1,0,0:0:0:0:
188,256,57063,2,0,P|224:248|264:260,1,80,2|0,0:0|0:0,0:0:0:0:
308,152,57525,2,0,P|272:160|232:148,1,80,8|0,0:0|0:0,0:0:0:0:
276,272,57986,6,0,P|328:240|388:236,1,120,4|0,0:0|0:0,0:0:0:0:
420,248,58448,1,8,0:0:0:0:
420,248,58909,1,0,0:0:0:0:
364,40,59371,5,8,0:0:0:0:
268,80,59602,1,0,0:0:0:0:
252,96,59717,1,0,0:0:0:0:
236,112,59832,2,0,P|172:148|88:148,1,160,4|8,0:0|0:0,0:0:0:0:
132,80,60525,1,0,0:0:0:0:
132,80,60756,2,0,P|184:140|192:220,1,160,0|8,0:0|0:0,0:0:0:0:
152,308,61448,1,4,0:0:0:0:
256,104,62140,21,4,0:0:0:0:
360,308,62602,1,0,0:0:0:0:
152,308,63063,1,8,0:0:0:0:
256,216,63525,38,0,B|274:133|388:195|400:59|326:-1|256:61|256:61|186:-1|109:63|130:182|232:153|235:187,1,560,6|8,0:0|0:0,0:0:0:0:
468,192,65832,1,2,0:0:0:0:
404,144,66063,1,0,0:0:0:0:
380,68,66294,1,2,0:0:0:0:
384,276,66756,1,2,0:0:0:0:
380,68,67217,6,0,P|340:60|300:68,1,80,2|0,0:0|0:0,0:0:0:0:
248,132,67679,1,2,0:0:0:0:
284,208,67909,2,0,P|316:188|328:148,2,80
156,64,68909,1,0,0:0:0:0:
332,52,69409,5,0,0:0:0:0:
396,108,69667,1,2,0:0:0:0:
416,192,69927,1,0,0:0:0:0:
392,272,70190,1,2,2:0:0:0:
256,192,70735,1,0,0:0:0:0:
256,192,71280,12,2,72917,2:0:0:0:
