osu file format v5

[General]
AudioFilename: PS23OP.mp3
AudioLeadIn: 1015
PreviewTime: -1
Countdown: 2
SampleSet: Soft
StackLeniency: 0.7
Mode: 0
LetterboxInBreaks: 1
EditorDistanceSpacing: 0.800000011920929

[Metadata]
Title:Unmei No Hito
Artist:Fujita Maiko
Creator:winwin3030
Version:Normal
Source:Hiiro No Kakera 3
Tags:nico video

[Difficulty]
HPDrainRate:4
CircleSize:5
OverallDifficulty:4
SliderMultiplier:1.2
SliderTickRate:2

[Events]
//Background and Video events
0,0,"hironokakera.jpg"
//Break Periods
//Storyboard Layer 0 (Background)
//Storyboard Layer 1 (Failing)
//Storyboard Layer 2 (Passing)
//Storyboard Layer 3 (Foreground)
//Storyboard Sound Samples
//Background Colour Transformations
3,100,163,162,255

[TimingPoints]
430,600,4,2,0,91,1,0
13480,-100,4,2,0,62,0,0
14230,-100,4,2,0,90,0,0
18280,-100,4,2,0,63,0,0
18730,-100,4,2,0,89,0,0
24130,-100,4,2,0,70,0,0
25030,-100,4,2,0,91,0,0
27880,-100,4,2,0,50,0,0
28330,-100,4,2,0,89,0,0
32680,-100,4,2,0,62,0,0
33130,-100,4,2,0,89,0,0
47230,-100,4,2,0,39,0,0
47830,-100,4,2,0,90,0,0
52480,-100,4,2,0,89,0,1
75430,-100,4,2,1,89,0,1
75730,-100,4,2,0,89,0,1
77230,-100,4,2,0,71,0,1
77830,-100,4,2,0,89,0,1
88630,-100,4,2,1,89,0,1
88930,-100,4,2,0,89,0,1

[Colours]
Combo1 : 0,94,187
Combo2 : 81,204,251
Combo3 : 0,0,96
Combo4 : 94,228,20
Combo5 : 255,255,102

[HitObjects]
32,32,5230,5,2
168,240,6430,5,2
368,88,7630,5,0
496,312,8830,5,0
128,64,10630,5,0
192,64,10930,1,0
256,64,11230,1,0
320,64,11530,1,0
384,64,11830,1,0
384,192,12430,2,0,B|352:224|288:264|224:224|192:192,1,210
24,192,14230,1,0
40,256,14530,1,2
104,248,14830,1,0
152,296,15130,6,0,B|216:344|264:296,1,120
312,256,16030,2,0,B|416:224|400:112,1,180
352,80,17230,2,0,B|216:88|248:224,1,210
160,192,18730,1,0
104,160,19030,1,2
48,192,19330,1,0
160,256,19930,5,0
224,256,20230,1,0
288,256,20530,1,2
288,256,20680,1,2
384,256,21130,1,0
384,192,21430,1,0
384,128,21730,1,2
384,128,21880,1,2
312,72,22330,1,2
256,104,22630,1,2
240,168,22930,1,0
280,224,23230,1,0
288,288,23530,1,0
256,344,23830,1,2
192,352,24130,1,2
192,160,25030,5,0
128,160,25330,1,0
64,160,25630,2,0,B|64:128|96:96,1,60
152,104,26230,2,0,B|144:64|128:48|128:40,1,60
192,32,26830,2,0,B|320:32|352:152,1,210
312,232,28330,1,0
256,264,28630,1,0
192,264,28930,1,2
136,232,29230,1,0
168,104,29830,1,0
168,104,30130,1,0
232,128,30430,2,0,B|256:72|304:72,1,90
392,80,31330,1,2
392,80,31630,2,0,B|456:176|384:280,1,210
296,304,33130,1,0
232,312,33430,1,2
184,264,33730,1,0
288,192,34330,5,0
352,192,34630,1,0
416,192,34930,1,0
448,128,35230,2,0,B|384:128,3,60
320,160,36430,1,2
256,128,36730,1,2
256,64,37030,1,0
320,32,37330,1,2
384,64,37630,1,0
384,128,37930,1,2
320,160,38230,1,2
128,96,39130,5,2
96,160,39430,1,2
160,288,40030,1,2
224,320,40330,1,2
352,360,40930,1,0
408,320,41230,2,2,B|440:296|448:272,1,60
408,224,41830,1,0
352,192,42130,2,2,B|288:192|256:224|192:224|160:224,1,180
112,208,43330,1,2
64,160,43630,2,2,B|128:96|160:128|224:128,1,180
296,128,44830,1,0
360,128,45130,1,0
424,128,45430,1,2
480,96,45730,2,2,B|416:24|264:24|192:96,1,300
208,216,47830,6,0,B|272:216,1,60
328,216,48430,2,2,B|264:216,1,60
296,280,49030,1,0
360,304,49330,1,0
424,280,49630,1,2
480,160,50230,1,0
416,160,50530,1,0
352,128,50830,1,2
312,184,51130,1,0
256,144,51430,1,2
192,112,51730,1,2
136,152,52030,1,0
48,248,52480,6,0,B|80:296|136:288,1,90
160,232,53230,2,2,B|216:216|240:264,1,90
304,336,54130,1,0
360,304,54430,2,2,B|408:288|408:224,1,90
336,176,55330,1,0
272,160,55630,1,2
208,184,55930,1,0
144,152,56230,1,2
104,96,56530,1,2
144,40,56830,1,2
256,64,57430,2,0,B|256:128,1,60
256,192,58030,2,2,B|384:192,1,120
256,192,59230,2,0,B|256:320,1,120
256,192,60430,2,2,B|128:192,1,120
352,96,62080,6,0,B|408:112|408:168,1,90
352,192,62830,2,2,B|288:192|288:128,1,90
248,64,63730,1,0
192,40,64030,2,2,B|136:40|136:104,1,90
168,216,64930,1,0
168,216,65230,2,2,B|168:280|256:312|352:272|344:208,1,240
344,96,67030,1,0
280,72,67330,1,0
216,96,67630,1,0
152,200,68230,2,2,B|168:264|240:272,1,120
304,280,69130,1,0
360,248,69430,1,2
328,192,69730,1,0
256,192,70030,12,0,71230
448,64,71680,6,0,B|384:64|376:120,1,90
320,128,72430,2,2,B|224:128,1,90
96,128,73330,1,0
96,192,73630,2,2,B|192:192,1,90
320,192,74530,1,0
384,192,74830,1,2
384,256,75130,2,0,B|448:256,2,60
320,256,76030,2,2,B|192:320|96:224,1,240
192,128,77830,1,2
320,192,78430,1,0
352,64,79030,1,2
480,192,79630,2,0,B|480:288|384:320|288:288,1,240
208,208,81280,6,0,B|248:208,3,30
304,208,82030,2,2,B|384:208|392:128,1,120
392,80,82930,1,0
392,80,83230,2,2,B|304:80|304:152,1,120
256,184,84130,1,0
256,184,84430,2,0,B|184:184,1,60
168,120,85030,2,2,B|240:120,1,60
256,56,85630,2,0,B|192:56,2,60
384,56,86830,5,0
352,112,87130,1,0
296,152,87430,1,2
232,168,87730,1,0
168,168,88030,2,0,B|136:192|168:224,1,60
224,232,88630,2,0,B|256:256|224:288,2,60
256,192,89305,12,0,90430
256,192,91330,5,2
256,192,91480,1,2
392,272,92230,5,0
448,240,92530,1,2
384,136,93130,2,0,B|312:136,1,60
256,136,93730,1,0
192,136,94030,2,0,B|120:136,2,60
256,136,94930,1,0
256,264,95530,6,0,B|256:200,1,60
256,136,96130,1,0
256,136,96430,2,0,B|192:136,1,60
256,136,97030,2,2,B|256:72|256:72|256:64,1,60
256,200,97930,6,0,B|256:272,2,60
256,136,98830,2,2,B|320:136,1,60
256,136,99430,2,0,B|256:72,1,60
256,200,100330,6,0,B|256:264,1,60
256,260,100930,5,2
176,192,101230,5,0
256,120,101530,5,0
336,192,101830,5,0
256,260,102130,5,2
